#TITLE:Infernoplextratone;
#SUBTITLE:;
#ARTIST:Cardboard Box;
#TITLETRANSLIT:;
#SUBTITLETRANSLIT:;
#ARTISTTRANSLIT:;
#CREDIT:BoxX;
#BANNER:../Banner.png;
#BACKGROUND:../bg.png;
#LYRICSPATH:;
#CDTITLE:;
#MUSIC:Music.ogg;
#OFFSET:0.000;
#SAMPLESTART:20.275;
#SAMPLELENGTH:10.000;
#SELECTABLE:YES;
#BPMS:0.000=248.000;
#STOPS:;
#BGCHANGES:;
// cache tags:
#FIRSTBEAT:4.000;
#LASTBEAT:491.750;
#SONGFILENAME:Songs/Tachyon Epsilon/Infernoplextratone - [TheBoxX]/Simfile.sm;
#HASMUSIC:1;
#HASBANNER:1;
#MUSICLENGTH:120.171;
// end cache tags

//---------------dance-single - Mad Matt----------------
#NOTES:
     dance-single:
     Mad Matt:
     Hard:
     19:
     1.000,1.000,0.158,1.000,1.000,1230.000,19.000,169.000,0.000,0.000:











0000
0000
0000
0000
,
0000
0000
0000
0000
,
0000
0000
0000
0000
,
0000
0000
0000
0000
,
0000
0000
0000
0000
,
2002
3003
0000
0000
,
0000
0000
0000
0000
,
2002
3003
0000
0000
,
0000
0000
0000
0000
,
2001
0001
3001
1000
0001
1000
0001
1000
,
0010
0000
0100
0000
0200
0000
0001
0300
1000
0000
0100
0000
0020
0000
0001
0030
,
1002
1003
1000
0001
1000
0001
1000
0001
,
0020
0000
0100
0030
0100
0000
2000
0000
0010
3000
0010
0000
0200
0000
0001
0300
,
1002
1000
1003
0001
1000
0001
1000
0001
,
0100
0000
0010
0000
0020
0000
1000
0030
0001
0000
0010
0000
0200
0000
1000
0300
,
2001
3001
0001
1000
0001
1000
0001
1000
,
0200
0000
0010
0300
0010
0000
0001
0000
1000
0100
1000
0001
0010
0001
1000
0010
,
0200
0000
0000
0000
0000
0000
0000
0000
0000
0000
0000
0000
0300
0000
0001
1000
,
0200
0000
0000
0000
0300
0000
1000
0001
0200
0000
0000
0000
0300
0000
0001
1000
,
0200
0000
1300
0001
0020
0000
0031
1000
0020
0000
0130
0001
2000
0000
3001
0010
,
0100
0010
0001
1000
0001
1000
0010
0100
0001
1000
0001
0100
0010
0100
0001
1000
,
0001
0010
0100
1000
0001
1000
0010
1000
0001
0100
0001
1000
0001
0010
0100
1000
,
0001
0010
0100
1000
0001
1000
0010
1000
0001
0100
0010
1000
0001
1000
0001
1000
,
0001
0010
0100
1000
0001
1000
0010
1000
0001
1000
0100
0010
0001
1000
0001
0100
,
0001
1000
0010
1000
0001
1000
0001
0010
0100
1000
0100
0010
0001
1000
0001
0100
,
0010
1000
0001
1000
0100
1000
0001
0100
0001
1000
0010
1000
0001
0010
0100
1000
,
0100
0010
0001
1000
0100
1000
0001
0100
0010
1000
0010
0100
0001
1000
0001
0010
,
0100
0010
0001
1000
0001
0100
0010
1000
0001
0100
0001
1000
0010
1000
0001
0010
,
0001
1000
0100
1000
0001
0010
0100
1000
0001
0100
0001
1000
0010
0100
0001
1000
,
0100
1000
0001
1000
0100
1000
0001
0100
0001
1000
0010
1000
0001
0100
0001
1000
,
0100
0010
0001
1000
0100
1000
0001
0100
0001
1000
0010
1000
0001
0010
0100
1000
,
0001
0001
0001
1000
0001
1000
0001
1000
,
0100
0010
0010
0100
0010
0001
0010
0100
,
1000
1000
1000
0001
1000
0001
1000
0001
,
0010
0000
0100
0000
0100
0000
1000
0100
1000
0001
0100
0010
1000
0001
0010
0001
,
2000
0001
3001
1000
0001
1000
0001
1000
,
0010
0000
0100
0000
0200
0000
0001
0300
1000
0000
0100
0000
0020
0000
0001
0030
,
1002
1000
1003
0001
1000
0001
1000
0010
,
0200
0000
0001
0300
0001
0000
2000
0000
0010
3000
0100
0000
0002
0000
1000
0003
,
2001
0001
3001
1000
0001
1000
0001
0010
,
0100
0000
1000
0000
2000
0000
0001
3000
0010
0000
0001
0000
2000
0000
0001
3000
,
1002
1000
1003
0001
1000
0001
1000
0001
,
0020
0000
0100
0030
0100
0000
1000
0000
0002
0000
0100
0003
0010
0000
1000
0000
,
2010
3020
0230
0302
0023
0032
0203
0320
,
2030
0000
3200
0000
2300
0000
3020
0000
2030
0000
3002
0000
0023
0000
0230
0300
,
1100
2000
3020
0230
0302
0023
0230
0320
,
0032
0000
0203
0000
0320
0000
2030
0000
3200
0000
0320
0000
0230
0000
2300
3000
,
1010
0020
0230
0320
2030
3200
2300
3020
,
0230
0000
0302
0000
0023
0000
0032
0000
0203
0000
0320
0000
2030
0000
3002
0003
,
0101
0200
0320
0230
0302
2003
3200
0320
,
0031
0000
1000
0000
0001
0000
1000
0000
0001
0100
0010
1000
0001
0100
0010
1000
,
0001
1000
0100
1000
0001
0100
0001
1000
0010
1000
0001
0010
0100
0010
0001
1000
,
0100
1000
0001
0100
0001
1000
0010
1000
0001
0010
0001
1000
0100
0010
0100
1000
,
0001
0010
0100
0010
0001
1000
0001
0100
0010
1000
0001
0100
0001
1000
0001
0100
,
0010
1000
0001
1000
0100
1000
0001
0010
0001
1000
0010
1000
0001
0100
0010
1000
,
0001
1000
0100
1000
0001
0010
0001
1000
0010
1000
0001
0100
0001
1000
0010
1000
,
0001
0010
0001
1000
0100
1000
0001
0100
0010
1000
0001
0010
0001
1000
0100
1000
,
0001
1000
0010
0100
0001
1000
0100
1000
0001
0100
0010
1000
0001
0100
0001
1000
,
0100
0010
0100
1000
0001
0010
0001
1000
0100
1000
0001
0010
0001
1000
0010
1000
,
0001
0100
0010
1000
0001
0100
0010
1000
0001
0100
0010
0100
0001
1000
0001
0010
,
0100
1000
0001
0010
0001
1000
0100
1000
0001
0100
0001
1000
0010
1000
0001
1000
,
0100
0010
0001
1000
0100
0010
0001
1000
0001
0100
0010
0100
0001
1000
0010
1000
,
0001
1000
0100
0010
0001
1000
0001
0100
0010
1000
0001
1000
0100
1000
0001
1000
,
0010
0100
0001
1000
0001
0100
0001
1000
0010
1000
0001
0010
0100
1000
0001
1000
,
0100
0010
0100
1000
0001
1000
0100
1000
0001
0100
0001
1000
0010
1000
0001
0010
,
0001
1000
0010
0100
0001
1000
0010
0100
0001
1000
0100
1000
0001
0010
0001
1000
,
0010
0100
0001
1000
0001
0010
0001
1000
0010
0100
0001
1000
0001
0100
0001
1000
,
0100
1000
0001
1000
0010
0100
0001
1000
0100
1000
0001
1000
0001
0010
0001
1000
,
0010
1000
0001
1000
0100
0010
0001
1000
0010
1000
0001
1000
0001
0010
0001
1000
,
0100
1000
0001
1000
0010
0100
0001
1000
0100
1000
0001
1000
0001
0010
0001
1000
,
0010
1000
0001
1000
0100
0010
0001
1000
0010
1000
0001
1000
0001
0010
0001
1000
,
0100
1000
0001
0010
0001
1000
0001
0010
0001
1000
0100
1000
0001
1000
0010
1000
,
0001
0010
0100
1000
0001
1000
0001
0010
0001
1000
0100
1000
0001
1000
0001
0100
,
0001
1000
0100
1000
0001
0010
0001
1000
0010
1000
0001
0100
0001
1000
0100
0010
,
0001
1000
0010
0100
0001
0100
0010
1000
0001
0010
0100
1000
0001
0100
0001
1000
,
0200
0000
0000
0000
0000
0000
0000
0000
0000
0000
0000
0000
0300
0000
1000
0001
,
0200
0000
0000
0000
0000
0320
0230
0302
,
2003
0000
0000
3002
0023
0032
0203
0320
,
2030
0000
0000
3002
0023
0032
0203
0320
,
2030
0000
0000
3002
0000
0000
0023
0000
,
0230
2300
3002
0000
2003
0000
3020
0000
,
0230
0000
0000
0000
0000
0000
0000
0000
0302
0000
0000
0000
1003
0010
0100
0001
,
2000
3002
0023
0032
0023
0230
2300
3002
,
0203
0000
0000
0000
0001
0000
0000
0000
0001
0000
0000
0000
0301
0000
0100
0010
,
2000
0000
0001
0000
3001
2000
3200
0320
,
0032
0000
1003
0002
0203
0320
2030
3002
,
2003
0000
3001
2000
3020
0230
0302
2003
,
3200
0000
1300
0002
1000
0000
0203
0000
,
0320
2030
3002
0000
0023
0000
0230
0000
,
2300
0100
3002
0010
,
2003
0000
0000
0000
0010
0000
0000
0000
3004
0003
0400
0300
0040
0030
4000
3000
,
0002
0000
0000
0000
,
0000
0000
0000
0000
,
0003
0000
0000
0000
,
0000
0000
0000
0000
,
2002
3003
0000
0000
,
0000
0000
0000
0000
,
2002
3003
0000
0000
,
0000
0000
0000
0000
,
2001
0001
3001
1000
0001
1000
0001
1000
,
0010
0000
0100
0000
0200
0000
0001
0300
1000
0000
0100
0000
0020
0000
0001
0030
,
1002
1003
1000
0001
1000
0001
1000
0001
,
0020
0000
0100
0030
0100
0000
2000
0000
0010
3000
0010
0000
0200
0000
0001
0300
,
1002
1000
1003
0001
1000
0001
1000
0001
,
0100
0000
0010
0000
0020
0000
1000
0030
0001
0000
0010
0000
0200
0000
1000
0300
,
2001
3001
0001
1000
0001
1000
0001
1000
,
0200
0000
0010
0300
0010
0000
0001
0000
1000
0100
1000
0001
0010
0001
1000
0010
,
1000
0001
0100
0010
1000
0001
0100
0001
1000
0001
0010
0100
1000
0001
1000
0010
,
1000
0001
0100
0001
1000
0001
1000
0100
0010
0001
0010
0100
1000
0001
1000
0001
,
1000
0010
0100
0010
1000
0001
1000
0010
1000
0001
0100
0001
1000
0100
0010
0001
,
0010
0100
1000
0001
0010
0001
1000
0010
0100
0001
0100
0010
1000
0001
1000
0010
,
0100
0010
1000
0001
1000
0100
0010
0100
1000
0001
0100
0010
1000
0001
1000
0100
,
1000
0001
0010
0001
1000
0100
0010
0001
1000
0010
1000
0001
0100
0010
1000
0001
,
0010
0001
1000
0001
0010
0001
1000
0010
1000
0001
0100
0001
1000
0010
1000
0001
,
0010
0100
1000
0001
0010
0001
1000
0010
1000
0001
0100
0001
1000
0100
0010
0001
,
1000
0001
0100
0010
1000
0001
0100
0001
1000
0001
0100
0010
1000
0001
1000
0100
,
1000
0001
0010
0001
1000
0001
1000
0010
0100
0001
0100
0010
1000
0001
1000
0001
,
1000
0010
1000
0001
0100
0001
1000
0100
1000
0001
0010
0001
1000
0010
0100
0001
,
0100
0010
1000
0001
0100
0001
1000
0100
0010
0001
0010
0100
1000
0001
1000
0010
,
0100
0001
1000
0010
0100
0001
1000
0001
1000
0100
1000
0001
0010
0001
1000
0010
,
1000
0001
0100
0001
1000
0010
0100
0001
1000
0100
1000
0001
0010
0100
1000
0001
,
0100
0001
1000
0001
0100
0001
1000
0100
1000
0001
0010
0001
1000
0100
1000
0001
,
0100
0010
1000
0001
0100
0001
1000
0100
1000
0001
0010
0001
1000
0010
0100
0001
;

//---------------dance-single - Mad Matt----------------
#NOTES:
     dance-single:
     Mad Matt:
     Challenge:
     20:
     1.000,1.000,0.158,1.000,1.000,1230.000,19.000,169.000,0.000,0.000:

0000
0000
0000
0000
,
0000
0000
0000
0000
,
0000
0000
0000
0000
,
0000
0000
0000
0000
,
0000
0000
0000
0000
,
2002
3003
0000
0000
,
0000
0000
0000
0000
,
2002
3003
0000
0000
,
0000
0000
0000
0000
,
2001
0001
3001
1000
0001
1000
0001
1000
,
0010
0000
0100
0000
0200
0000
0001
0300
1000
0000
0100
0000
0020
0000
0001
0030
,
1002
1003
1000
0001
1000
0001
1000
0001
,
0020
0000
0100
0030
0100
0000
2000
0000
0010
3000
0010
0000
0200
0000
0001
0300
,
1002
1000
1003
0001
1000
0001
1000
0001
,
0100
0000
0010
0000
0020
0000
1000
0030
0001
0000
0010
0000
0200
0000
1000
0300
,
2001
3001
0001
1000
0001
1000
0001
1000
,
0200
0000
0010
0300
0010
0000
0001
0000
1000
0100
1000
0001
0010
0001
1000
0010
,
0200
0000
0000
0000
0000
0000
0000
0000
0000
0000
0000
0000
0300
0000
0001
1000
,
0200
0000
0000
0000
0300
0000
1000
0001
0200
0000
0000
0000
0300
0000
0001
1000
,
0200
0000
1300
0001
0020
0000
0031
1000
0020
0000
0130
0001
2000
0000
3001
0010
,
0100
0010
0001
0100
0001
1000
0100
0010
0100
1000
0001
1000
0010
0100
0001
0010
,
0100
0010
0001
0100
0001
1000
0010
0100
0001
1000
0100
0010
0001
0100
0001
1000
,
0001
0100
0010
1000
0100
1000
0001
0010
0001
0100
0010
1000
0001
1000
0100
1000
,
0001
0100
0010
1000
0001
0010
0100
0010
0001
0100
0010
1000
0001
1000
0100
1000
,
0001
0100
0010
0100
0001
1000
0001
0010
0100
0010
0001
0100
0001
1000
0010
1000
,
0100
1000
0001
0010
0100
1000
0010
0100
0001
1000
0100
1000
0001
0010
0100
0010
,
0001
0100
0001
1000
0100
0010
0001
0100
0010
1000
0001
0010
0100
0010
0001
1000
,
0001
0100
0010
0100
0001
1000
0001
0010
0001
0100
0010
0100
0001
1000
0100
1000
,
0001
0100
0010
0100
0010
1000
0001
0010
0001
1000
0100
1000
0010
0100
0001
1000
,
0100
1000
0001
0010
0100
0010
0001
0100
0001
1000
0010
0100
0010
0100
0001
1000
,
0100
0010
0001
0100
0010
1000
0001
0010
0001
1000
0010
1000
0100
1000
0010
0100
,
0001
0001
0001
1000
0001
1000
0001
1000
,
0100
0010
0010
0100
0010
0001
0010
0100
,
1000
1000
1000
0001
1000
0001
1000
0001
,
0010
0000
0100
0000
0100
0000
1000
0100
1000
0001
0100
0010
1000
0001
0010
0001
,
2000
0001
3001
1000
0001
1000
0001
1000
,
0010
0000
0100
0000
0200
0000
0001
0300
1000
0000
0100
0000
0020
0000
0001
0030
,
1002
1000
1003
0001
1000
0001
1000
0010
,
0200
0000
0001
0300
0001
0000
2000
0000
0010
3000
0100
0000
0002
0000
1000
0003
,
2001
0001
3001
1000
0001
1000
0001
0010
,
0100
0000
1000
0000
2000
0000
0001
3000
0010
0000
0001
0000
2000
0000
0001
3000
,
1002
1000
1003
0001
1000
0001
1000
0001
,
0020
0000
0100
0030
0100
0000
1000
0000
0002
0000
0100
0003
0010
0000
1000
0000
,
2010
3020
0230
0302
0023
0032
0203
0320
,
2030
0000
3200
0000
2300
0000
3020
0000
2030
0000
3002
0000
0023
0000
0230
0300
,
1100
2000
3020
0230
0302
0023
0230
0320
,
0032
0000
0203
0000
0320
0000
2030
0000
3200
0000
0320
0000
0230
0000
2300
3000
,
1010
0020
0230
0320
2030
3200
2300
3020
,
0230
0000
0302
0000
0023
0000
0032
0000
0203
0000
0320
0000
2030
0000
3002
0003
,
0101
0200
0320
0230
0302
2003
3200
0320
,
0031
0000
1000
0000
0001
0000
1000
0000
0001
0100
0001
1000
0010
1000
0100
1000
,
0001
0010
0100
1000
0010
0100
0001
1000
0100
0010
0100
1000
0010
0100
0001
1000
,
0001
0010
0100
0010
0001
0100
0010
1000
0001
1000
0100
0010
0001
0100
0010
1000
,
0001
1000
0100
0010
0100
1000
0010
0100
0001
1000
0100
0010
0001
1000
0001
0100
,
0010
1000
0001
1000
0100
0010
0100
1000
0010
0100
0001
1000
0001
0010
0001
0100
,
0010
1000
0001
1000
0100
0010
0100
1000
0010
0100
0001
1000
0001
0010
0100
1000
,
0010
0100
0001
1000
0100
1000
0001
0010
0100
0010
0001
0100
0010
1000
0001
0010
,
0100
1000
0010
0100
0001
1000
0001
0010
0100
0010
0100
1000
0001
0100
0001
1000
,
0100
0010
0001
0100
0010
1000
0001
0010
0001
1000
0010
0100
0001
0010
0100
1000
,
0001
0100
0010
1000
0001
0010
0100
0010
0100
1000
0001
0100
0010
1000
0001
0010
,
0100
1000
0001
0010
0001
0100
0001
1000
0010
0100
0001
1000
0010
1000
0100
1000
,
0001
0010
0100
1000
0001
0100
0010
0100
0010
1000
0001
0010
0100
1000
0001
0100
,
0010
1000
0001
0100
0001
0010
0001
1000
0100
0010
0001
1000
0100
1000
0010
1000
,
0001
0100
0010
1000
0001
0010
0100
0010
0100
1000
0001
0100
0010
1000
0001
0010
,
0100
1000
0001
0010
0001
0100
0001
1000
0010
0100
0001
1000
0010
1000
0100
1000
,
0001
0100
0010
1000
0001
0010
0100
0010
0100
1000
0001
0100
0010
1000
0001
1000
,
0100
1000
0001
0100
0010
1000
0100
0010
0001
1000
0001
0100
0010
1000
0100
0010
,
0001
1000
0001
0100
0010
0100
0001
1000
0001
0010
0100
1000
0010
0100
0001
1000
,
0001
0010
0100
0010
0001
0100
0010
1000
0001
1000
0100
0010
0001
0100
0010
1000
,
0001
0010
0100
1000
0010
0100
0001
1000
0100
1000
0001
0100
0001
0010
0001
1000
,
0100
0010
0001
1000
0001
0100
0010
1000
0100
0010
0001
1000
0001
0100
0010
1000
,
0001
1000
0100
0010
0001
1000
0100
1000
0010
1000
0001
0100
0010
1000
0001
0100
,
0001
0010
0100
1000
0001
0100
0001
0010
0001
1000
0100
0010
0001
1000
0100
1000
,
0010
1000
0001
0100
0010
1000
0100
0010
0100
1000
0001
1000
0010
0100
0001
1000
,
0001
0010
0100
1000
0010
0100
0001
1000
0001
0010
0001
0100
0010
1000
0001
1000
,
0200
0000
0000
0000
0000
0000
0000
0000
0000
0000
0000
0000
0300
0000
1000
0001
,
0200
0000
0000
0000
0000
0320
0230
0302
,
2003
0000
0000
3002
0023
0032
0203
0320
,
2030
0000
0000
3002
0023
0032
0203
0320
,
2030
0000
0000
3002
0000
0000
0023
0000
,
0230
2300
3002
0000
2003
0000
3020
0000
,
0230
0000
0000
0000
0000
0000
0000
0000
0302
0000
0000
0000
1003
0100
1000
0100
,
0020
0032
2003
3002
0023
0230
2300
3002
,
0203
0000
0000
0000
0001
0000
0000
0000
0001
0000
0000
0000
0301
0000
0100
0010
,
2000
0000
0001
0000
3001
2000
3200
0320
,
0032
0000
1003
0002
0203
0320
2030
3002
,
2003
0000
3001
2000
3020
0230
0302
2003
,
3200
0000
1300
0002
1000
0000
0203
0000
,
0320
2030
3002
0000
0023
0000
0230
0000
,
2300
0100
3002
0010
,
2003
0000
0000
0000
0010
0000
0000
0000
3004
0003
0400
0300
0040
0030
4000
3000
,
0002
0000
0000
0000
,
0000
0000
0000
0000
,
0003
0000
0000
0000
,
0000
0000
0000
0000
,
2002
3003
0000
0000
,
0000
0000
0000
0000
,
2002
3003
0000
0000
,
0000
0000
0000
0000
,
2001
0001
3001
1000
0001
1000
0001
1000
,
0010
0000
0100
0000
0200
0000
0001
0300
1000
0000
0100
0000
0020
0000
0001
0030
,
1002
1003
1000
0001
1000
0001
1000
0001
,
0020
0000
0100
0030
0100
0000
2000
0000
0010
3000
0010
0000
0200
0000
0001
0300
,
1002
1000
1003
0001
1000
0001
1000
0001
,
0100
0000
0010
0000
0020
0000
1000
0030
0001
0000
0010
0000
0200
0000
1000
0300
,
2001
3001
0001
1000
0001
1000
0001
1000
,
0200
0000
0010
0300
0010
0000
0001
0000
1000
0010
0100
0001
1000
0001
0010
0100
,
1000
0001
1000
0010
0100
0001
1000
0001
0010
0100
0010
0001
1000
0001
0100
0010
,
1000
0001
1000
0100
0010
0100
1000
0001
1000
0010
0100
0001
1000
0001
0010
0100
,
1000
0010
0100
0001
1000
0010
1000
0100
1000
0001
0010
0001
1000
0001
0100
0010
,
1000
0001
1000
0100
0010
0001
0100
0010
1000
0001
1000
0100
1000
0010
0100
0001
,
1000
0001
0010
0100
0010
0100
1000
0001
0100
0010
0100
0001
1000
0001
0010
0100
,
1000
0001
1000
0010
0100
0010
1000
0001
1000
0100
0010
0001
1000
0001
0100
0010
,
1000
0100
0010
0001
1000
0100
1000
0010
1000
0001
0100
0001
1000
0001
0010
0100
,
1000
0001
1000
0010
0100
0001
0010
0100
1000
0001
1000
0010
1000
0100
0010
0001
,
1000
0001
0100
0010
0100
0010
1000
0001
0010
0100
0010
0001
1000
0001
0100
0010
,
1000
0001
1000
0100
0010
0100
1000
0001
1000
0010
0100
0001
1000
0001
0010
0100
,
1000
0010
0100
0001
1000
0010
1000
0100
1000
0001
0010
0001
1000
0001
0100
0010
,
1000
0001
1000
0100
0010
0001
0100
0010
1000
0001
1000
0100
1000
0010
0100
0001
,
1000
0001
0010
0100
0010
0100
1000
0001
0100
0010
0100
0001
1000
0001
0010
0100
,
1000
0001
1000
0010
0100
0010
1000
0001
1000
0100
0010
0001
1000
0001
0100
0010
,
1000
0100
0010
0001
1000
0100
1000
0010
1000
0001
0100
0010
1000
0001
1000
0100
,
1000
0010
0100
0001
0010
0100
1000
0001
1000
0010
0100
0001
0010
0100
1000
0001
;

//---------------dance-single - BoxX----------------
#NOTES:
     dance-single:
     BoxX:
     Easy:
     17:
     1.000,1.000,0.200,1.000,1.000,1023.000,24.000,145.000,27.000,0.000:



0000
0000
0000
0000
,
0000
0000
0000
0000
,
0000
0000
0000
0000
,
0000
0000
0000
0000
,
0000
0000
0000
0000
,
2002
3003
0000
0000
,
0000
0000
0000
0000
,
2002
3003
0000
0000
,
0000
0000
0000
0000
,
2001
3001
1000
0100
0010
0100
1000
0001
,
0100
0010
0200
0301
1000
0100
0020
0031
,
1002
1003
0001
0100
0010
0100
0001
0010
,
0200
1300
0001
2000
3010
0100
0002
1003
,
2001
3001
0100
0010
0100
0001
0010
0100
,
1000
0010
0200
0301
1000
0100
2000
3001
,
0102
0103
0001
1000
0010
1000
0001
1000
,
0200
0000
0310
0000
0001
0000
1000
0000
0001
0100
0001
1000
0100
0010
0001
1000
,
0002
0000
0000
0000
0000
0000
0000
0000
0000
0000
0003
0000
0000
0000
1000
0001
,
0020
0000
0000
0000
0030
0000
0001
1000
0020
0000
0000
0000
0030
0000
1000
0001
,
0020
0000
0031
1000
0200
0000
1300
0001
0200
0000
0310
1000
0002
0000
1003
0100
,
0010
0000
0001
0000
1000
0000
0100
0000
1000
0010
0100
0001
1000
0100
0010
0001
,
1000
0000
0000
0000
,
0000
0000
0000
0004
,
1003
0100
0010
0001
0100
0010
1000
0001
0010
0100
1000
0010
1000
0001
0100
0010
,
1000
0100
1000
0001
0010
0001
0100
0010
1000
0001
0010
0001
2000
0000
3002
0000
,
2003
0000
3001
0100
0010
1000
0001
0010
0001
0100
0001
1000
0010
0100
0001
1000
,
0001
0010
0001
0100
0010
1000
0001
0010
0100
1000
0010
0100
0001
0000
1000
0000
,
2002
0000
0000
3003
0000
0000
0000
0000
0001
0100
0010
1000
0100
1000
0001
0100
,
0010
1000
0001
0010
0100
1000
0001
1000
0010
0100
0001
1000
0100
1000
0010
0100
,
0001
1000
0100
1000
0001
0010
0100
0010
0001
0100
0010
1000
0001
1000
0100
0010
,
0001
0100
0001
1000
0010
0100
0001
1000
0100
0010
0100
1000
0010
0100
0001
1000
,
00M0
0M00
000M
M000
000M
M000
000M
M000
,
0M00
00M0
00M0
0M00
00M0
000M
00M0
0M00
,
M000
M000
M000
000M
M000
000M
M000
000M
,
00M0
0000
0M00
0000
0M00
0000
1000
0010
0100
0001
1000
0100
0010
0001
0100
0010
,
2000
3001
1000
0100
0010
0100
1000
0001
,
0100
0010
0200
0301
1000
0100
0020
0031
,
1002
1003
0001
0100
0010
0100
0001
0010
,
0200
1300
0001
0200
0310
0100
0002
1003
,
2001
3001
1000
0010
0100
0010
1000
0100
,
0010
0001
2000
3001
0010
0001
2000
3001
,
1002
1003
0001
0100
0010
0100
0001
0010
,
0200
1300
0001
0100
0020
0130
0001
1000
,
2002
3003
0000
0000
0000
0000
0000
0000
0000
0000
0000
0000
0000
0000
0000
0000
,
0000
0000
0000
0000
,
0202
0303
0000
0000
0000
0000
0000
0000
0000
0000
0000
0000
0000
0000
0000
0000
,
0000
0000
0000
0100
,
2002
3003
0000
0000
0000
0000
0000
0000
0000
0000
0000
0000
0000
0000
0000
0000
,
0000
0000
0000
0000
,
2200
3300
0000
0000
0000
0000
0000
0000
0000
0000
0000
0000
0000
0000
0000
0000
,
1000
0000
0001
0000
1000
0000
0001
0000
1000
0100
0010
0001
0100
0010
1000
0001
,
1000
0000
0001
0100
0010
0000
1000
0100
0010
0000
0001
0100
0010
1000
0001
0010
,
0100
0000
1000
0010
0100
0000
0001
0010
0100
0000
1000
0010
0100
0001
1000
0100
,
0010
0000
0001
0100
0010
0000
1000
0001
0010
0000
0100
1000
0001
0100
0010
1000
,
0001
0000
0010
0100
1000
0000
0001
0100
0010
0000
1000
0001
0010
0100
1000
0001
,
0100
0000
0010
1000
0001
0000
0010
0100
1000
0000
0010
0100
0001
1000
0100
0010
,
0001
0000
0100
0010
1000
0000
0001
0010
0100
0000
1000
0010
0100
0001
1000
0100
,
0010
0000
0001
0000
1000
0000
0001
0000
1000
0100
0010
0001
1000
0010
0100
0001
,
1000
0001
0010
0100
0010
0001
0100
0001
1000
0010
0100
0001
1000
0100
0010
0001
,
2000
0000
0000
0000
3000
0000
0000
0000
0001
0100
0010
1000
0001
0010
0100
0010
,
0001
0100
0010
1000
0001
0010
0001
0100
0001
1000
0010
0100
0001
1000
0100
1000
,
0002
0000
0000
0000
0003
0000
0000
0000
1000
0100
0010
0001
0100
0010
1000
0001
,
1000
0100
1000
0010
0100
0001
1000
0001
0010
0000
0100
0000
0010
0000
0100
0000
,
2100
0000
0000
0000
3001
0100
0010
1000
0001
0010
0001
0100
0001
1000
0100
1000
,
0001
0010
0001
0100
0001
1000
0010
0100
0001
0010
0001
1000
0100
1000
0010
0100
,
0002
0000
0000
0000
0003
0000
0000
0000
1000
0100
0010
0100
1000
0010
0100
0001
,
1000
0000
0001
0000
1000
0010
1000
0100
1000
0001
0100
0001
0010
0001
1000
0010
,
1000
0001
0100
0010
0100
0001
1000
0001
0010
0100
1000
0010
0100
0001
1000
0001
,
0010
0100
0010
0001
0100
0001
1000
0010
1000
0100
1000
0001
0010
0100
1000
0001
,
0100
0010
1000
0001
0010
0001
1000
0010
0100
0001
1000
0001
0010
0100
1000
0010
,
0100
0001
1000
0001
0010
0100
0010
0001
1000
0100
1000
0001
1000
0010
0100
0001
,
1000
0001
0010
0001
0100
0001
1000
0010
1000
0001
0010
0001
1000
0010
0100
0001
,
1000
0100
0010
0100
1000
0001
0100
0010
1000
0001
0010
0100
1000
0001
0010
0001
,
1000
0010
0100
0010
1000
0001
1000
0100
0010
0001
1000
0001
0100
0010
1000
0100
,
1000
0001
1000
0010
0100
0001
1000
0100
1000
0001
0010
0001
0100
0010
1000
0001
,
0200
0000
0000
0000
0000
0000
0000
0000
0000
0000
0000
0000
0300
0000
0001
1000
,
0200
0000
0000
0000
0000
0320
0230
2300
,
3002
0000
0000
2003
3020
2030
3200
0320
,
0032
0000
0000
2003
3020
2030
3200
0320
,
0032
0000
0000
2003
0000
0000
3020
0000
,
0230
0302
2003
0000
3002
0000
0023
0000
,
0230
0000
0000
0000
0000
0000
0000
0000
2300
0000
0000
0000
3001
0100
0001
1000
,
0002
2003
3020
2030
3020
0230
0302
2003
,
3200
0000
0000
0000
1000
0000
0000
0000
1000
0000
0000
0000
1300
0000
0100
0010
,
0002
0000
1000
0000
1003
0002
0203
0320
,
2030
0000
3001
2000
3200
0320
0032
2003
,
3002
0000
1003
0002
0023
0230
2300
3002
,
0203
0000
0301
2000
0001
0000
3200
0000
,
0320
0032
2003
0000
3020
0000
0230
0000
,
0302
0100
2003
0010
,
3002
0000
0000
0000
0010
0000
0000
0000
4003
3000
0400
0300
0040
0030
0004
0003
,
2000
0000
0000
0000
,
0000
0000
0000
0000
,
0000
0000
0000
0000
,
0000
0000
0000
3000
,
2002
3003
0000
0000
,
0000
0000
0000
0000
,
2002
3003
0000
0000
,
0000
0000
0000
0000
,
2001
3001
1000
0100
0010
0100
1000
0001
,
0100
0010
0200
0301
1000
0100
0020
0031
,
1002
1003
0001
0010
0100
1000
0001
0100
,
0020
0130
0001
2000
3010
0100
0002
1003
,
2001
3001
0010
0100
1000
0010
0100
0010
,
0100
0001
2000
3100
0010
0100
2000
3001
,
1002
1003
0010
0100
0010
1000
0001
1000
,
0200
0000
0310
0000
0001
0000
1000
0000
0001
0100
0001
0010
0100
1000
0001
0100
,
0002
0000
0003
0000
1000
0100
1000
0010
0100
0001
1000
0001
0010
0100
1000
0010
,
1000
0001
0100
0010
1000
0001
0010
0001
1000
0001
0100
0010
2000
0000
3002
0000
,
2003
0000
3001
0100
0010
0100
0001
1000
0100
1000
0001
0010
0001
1000
0010
0100
,
0001
1000
0001
0010
0001
0100
0001
1000
0100
1000
0010
0100
0001
0000
1000
0000
,
2002
0000
0000
3003
0000
0000
0000
0000
0001
0010
0100
1000
0010
0100
0001
1000
,
0001
0010
0001
1000
0100
0010
0100
1000
0010
0100
0001
1000
0001
0010
0001
1000
,
0010
0100
0010
1000
0001
1000
0100
1000
0001
0010
0001
0100
0001
1000
0010
0100
,
0001
1000
0001
0010
0001
0100
0001
1000
0010
0100
0001
1000
0001
0010
0100
1000
,
0002
0000
0000
0000
1003
0010
1000
0100
0010
0001
1000
0001
0100
0010
1000
0100
,
1000
0001
0010
0100
1000
0001
0100
0001
1000
0001
0010
0100
2000
0000
3002
0000
,
2003
0000
3001
0010
0100
0010
0001
1000
0010
1000
0001
0100
0001
1000
0100
0010
,
0001
1000
0001
0100
0001
0010
0001
1000
0010
1000
0100
0010
0001
0000
1000
0000
,
2002
0000
0000
3003
0000
0000
0000
0000
0001
0100
0010
1000
0100
0010
0001
1000
,
0001
0100
0001
1000
0010
0100
0010
1000
0100
0010
0001
1000
0001
0100
0001
1000
,
0100
0010
0100
1000
0001
1000
0010
1000
0001
0100
0001
0010
0001
1000
0100
0010
,
0001
1000
0001
0100
0001
0010
0001
1000
0100
0010
0001
1000
0001
0100
0010
1000
;

//---------------dance-single - L30J----------------
#NOTES:
     dance-single:
     L30J:
     Medium:
     18:
     1.000,1.000,0.191,0.233,1.000,1252.000,23.000,28.000,0.000,1.000:










0000
0000
0000
0000
,
1000
0010
0010
0001
0100
0001
0010
0100
,
1000
0001
0001
0100
0010
0001
1000
0010
,
0100
0001
0001
1000
0100
0010
1000
0100
,
0010
0100
0100
0010
0100
0001
0010
0100
,
1000
0010
0010
0001
0100
0001
0010
0100
,
1000
0001
0001
0100
0010
0001
1000
0010
,
0100
0001
0001
1000
0100
0010
1000
0100
,
0010
0100
0100
0010
0100
0001
0010
0100
,
0001
0100
0100
0010
1000
0010
0001
0010
,
0110
0100
0100
0001
1000
0010
0100
0001
,
0011
0001
0001
0010
0001
0100
0010
1000
,
1010
1000
1000
0100
0001
0100
1000
0100
,
0010
0100
0100
0010
0001
0010
1000
0010
,
0110
0100
0100
1000
0001
0010
0100
1000
,
1010
1000
1000
0010
1000
0100
0010
0001
,
0011
0001
0001
0100
1000
0100
0001
0100
,
0002
0000
0000
0000
0000
0000
0000
0000
0000
0000
0000
0000
0000
0000
1003
0100
,
0020
0000
0000
0000
0000
0030
0001
1000
0020
0000
0000
0000
0000
0000
1030
0001
,
0020
0000
0130
1000
0002
0000
1003
0010
0200
0000
0301
1000
0200
0000
0310
0001
,
1000
0100
1000
0100
1000
0100
1000
0100
1000
0100
1000
0100
1000
0100
1000
0000
,
0001
0100
0010
1000
0010
1000
0001
0100
0010
1000
0001
0010
0001
1000
0100
1000
,
0001
0100
0001
0100
0010
1000
0001
1000
0100
0010
0001
1000
0100
1000
0001
1000
,
0100
0010
0001
1000
0010
1000
0001
0010
0100
1000
0001
1000
0010
0100
0001
1000
,
0100
0010
0001
1000
0010
0100
0001
1000
0010
0100
0001
0010
0100
1000
0001
0010
,
0100
0010
0001
1000
0001
0010
0100
0010
0001
1000
0001
0010
0100
1000
0001
1000
,
0010
0100
0001
1000
0001
1000
0010
0100
0001
1000
0010
0100
0010
0100
0001
1000
,
0010
0100
0001
0100
0010
0000
1000
0001
0010
0000
0100
1000
0100
0010
0001
0010
,
0100
1000
0001
1000
0010
0100
0001
0010
0100
1000
0001
0100
0010
0100
0001
1000
,
0010
0100
0001
0010
0001
1000
0100
1000
0001
0010
0001
0010
0100
1000
0001
1000
,
0100
0010
0001
1000
0010
1000
0001
0100
0001
1000
0100
1000
0001
0010
0100
1000
,
0001
0100
0001
1000
1010
0010
0100
0010
,
1000
0001
0100
0001
0011
0010
0001
0100
,
0001
0100
0001
1000
1010
0010
0100
0010
,
1000
0000
0001
0000
0100
0000
0010
0100
0001
0100
0010
1000
0001
0010
0100
1000
,
0001
0100
0100
0010
1000
0010
0001
0010
,
0110
0100
0100
0001
1000
0010
0100
0001
,
0011
0001
0001
0010
0001
0100
0010
1000
,
1010
1000
1000
0100
0001
0100
1000
0100
,
0010
0100
0100
0010
0001
0010
1000
0010
,
0110
0100
0100
1000
0001
0010
0100
1000
,
1010
1000
1000
0010
1000
0100
0010
0001
,
0011
0001
0001
0100
1000
0100
0001
0100
,
0010
1000
0100
0001
0100
1000
0010
0001
,
0010
0100
0010
1000
0001
0010
0001
0100
,
1000
0100
0010
0001
0010
0100
0001
0010
,
0001
0100
0001
0010
0100
1000
0010
0100
,
0001
1000
0001
0010
0001
1000
0100
0010
,
0100
1000
0100
0001
0100
1000
0010
0100
,
0001
0010
0100
1000
0010
1000
0001
0010
,
0100
1000
0010
0100
0001
0010
0001
1000
,
0001
0000
0001
0100
0001
0000
1000
0010
1000
0000
0010
0100
0010
1000
0010
1000
,
0100
0000
1000
0100
1000
0000
0001
0010
0001
0000
1000
0001
1000
0001
1000
0001
,
0100
0000
0001
0100
0001
0000
1000
0010
1000
0000
0010
0100
0010
0100
0010
1000
,
0010
0000
1000
0100
1000
0000
0100
0010
0100
0000
0010
0001
0010
0100
0010
0001
,
0010
0000
0001
1000
0001
0000
0010
0100
0010
0000
0100
1000
0100
0010
0100
1000
,
0001
0000
1000
0001
1000
0000
0001
0100
0001
0000
1000
0010
1000
0010
0100
0010
,
0100
0000
0010
0100
0010
0000
0100
0010
0100
0000
0010
1000
0010
1000
0010
1000
,
0010
0000
0100
0001
0100
0000
0001
0100
0001
0000
1000
0010
1000
0010
0100
0001
,
0100
0000
0010
1000
0010
0000
0100
0001
0100
0000
0001
1000
0100
1000
0100
1000
,
0001
0000
0010
0001
0010
0000
0100
1000
0100
0000
0010
0001
1000
0001
1000
0001
,
0010
0000
0100
1000
0100
0000
1000
0001
1000
0000
0001
0100
0010
0100
0010
0100
,
0001
0000
1000
0010
1000
0000
0010
0100
0010
0000
1000
0010
0100
0010
0100
0010
,
1000
0000
0010
0100
0001
0000
0010
0100
1000
0000
0100
0010
0001
0010
0100
1000
,
0001
0000
1000
0001
0010
0000
0100
1000
0001
0000
1000
0100
0010
0001
1000
0001
,
1000
0000
0001
1000
0001
0000
0100
0001
0100
0000
0001
1000
0010
0100
0010
0100
,
0010
0000
1000
0100
1000
0000
0001
0010
0001
0000
0100
0001
0100
0001
1000
0001
,
1000
0000
0001
1000
0100
0000
0010
0001
0010
0000
0100
1000
0001
1000
0001
1000
,
0010
0000
0100
0010
0100
0000
0010
1000
0001
0000
0100
0001
0100
0001
1000
0100
,
1000
0000
0001
0010
0100
0000
1000
0001
0010
0000
0100
1000
0001
1000
0100
0010
,
0001
0000
1000
0100
0010
0000
1000
0010
1000
0000
0001
0100
0010
1000
0010
1000
,
0100
1000
0100
1000
0100
1000
0100
1000
0100
1000
0100
1000
0100
1000
0100
1000
,
0001
0100
0001
0100
0001
0100
0001
0100
0001
0100
0001
0100
0001
0100
0001
0100
,
0001
1000
0010
0100
0001
1000
0010
0100
0001
1000
0010
0100
0001
1000
0010
0100
,
0001
0100
0010
0001
1000
0100
0010
0100
,
0002
0000
0000
0000
0000
0000
0000
0000
0000
0000
0000
0000
0000
0003
1000
0010
,
0200
0000
0000
0000
0000
0010
0010
1300
,
0001
0100
0010
1000
0010
0100
0001
0010
,
0100
1000
0100
0010
0001
1000
0010
0100
,
0020
0000
0000
2030
0000
0000
0001
0000
,
3010
1000
0001
0000
0100
0000
0010
0000
,
2000
0000
0000
0000
0000
0000
0000
0000
3002
0000
0000
0003
1000
0100
1000
0100
,
0020
0032
0203
0320
0230
0302
0023
0230
,
2300
0000
0000
0000
0001
0000
0000
0000
0001
0000
0000
0000
0001
3000
0100
0010
,
0200
0000
0010
0000
0010
0301
0010
1000
,
0100
1000
0100
0010
0100
1000
0010
0100
,
0001
0010
0001
0100
0001
1000
0010
0100
,
0020
0000
0000
2030
0000
0000
3001
0000
,
0100
0010
0100
0000
0110
0000
1001
0000
,
0021
0000
0130
1000
,
0001
0010
0001
0100
0010
1000
0010
0100
,
0220
0000
0000
0000
,
0000
0000
0000
0000
,
0000
0000
0000
0000
,
0000
0000
0000
0000
,
1330
0100
0100
1000
0010
0100
0001
0010
,
0001
0100
0100
0001
1000
0010
0100
0001
,
1000
0010
0010
1000
0100
0010
0001
1000
,
0001
0010
0010
0001
1000
0010
0100
0001
,
1001
0100
1000
0100
1000
0100
1000
0100
,
1001
0010
0001
0010
0001
0010
0001
0010
,
1001
0100
0001
0100
0001
0100
0001
0100
,
1001
0010
1000
0010
1000
0010
1000
0010
,
1000
0100
0100
1000
0010
0100
0001
0010
,
0001
0100
0100
0001
1000
0010
0100
0001
,
1000
0010
0010
1000
0100
0010
0001
1000
,
0001
0000
0010
0000
0010
0000
0001
0000
1000
0100
1000
0001
0010
0001
1000
0010
,
1000
0001
0100
0010
1000
0001
0100
0001
1000
0001
0010
0100
1000
0001
1000
0010
,
1000
0001
0100
0001
1000
0001
1000
0100
0010
0001
0010
0100
1000
0001
1000
0001
,
1000
0010
0100
0010
1000
0001
1000
0010
1000
0001
0100
0001
1000
0100
0010
0001
,
0010
0100
1000
0001
0010
0001
1000
0010
0100
0001
0100
0010
1000
0001
1000
0010
,
0100
0010
1000
0001
1000
0100
0010
0100
1000
0001
0100
0010
1000
0001
1000
0100
,
1000
0001
0010
0001
1000
0100
0010
0001
1000
0010
1000
0001
0100
0010
1000
0001
,
0010
0001
1000
0001
0010
0001
1000
0010
1000
0001
0100
0001
1000
0010
1000
0001
,
0010
0100
1000
0001
0010
0001
1000
0010
1000
0001
0100
0001
1000
0100
0010
0001
,
1000
0001
0100
0010
1000
0001
0100
0001
1000
0001
0100
0010
1000
0001
1000
0100
,
1000
0001
0010
0001
1000
0001
1000
0010
0100
0001
0100
0010
1000
0001
1000
0001
,
1000
0010
1000
0001
0100
0001
1000
0100
1000
0001
0010
0001
1000
0010
0100
0001
,
0100
0010
1000
0001
0100
0001
1000
0100
0010
0001
0010
0100
1000
0001
1000
0010
,
0100
0001
1000
0010
0100
0001
1000
0001
1000
0100
1000
0001
0010
0001
1000
0010
,
1000
0001
0100
0001
1000
0010
0100
0001
1000
0100
1000
0001
0010
0100
1000
0001
,
0100
0001
1000
0001
0100
0001
1000
0100
1000
0001
0010
0001
1000
0100
1000
0001
,
0100
0010
1000
0001
0100
0001
1000
0100
1000
0001
0010
0001
1000
0010
0100
0001
;

//---------------dance-single - BoxX----------------
#NOTES:
     dance-single:
     BoxX:
     Beginner:
     17:
     1.000,1.000,0.200,1.000,1.000,1023.000,24.000,145.000,27.000,0.000:



0000
0000
0000
0000
,
0000
0000
0000
0000
,
0000
0000
0000
0000
,
0000
0000
0000
0000
,
0000
0000
0000
0000
,
2002
3003
0000
0000
,
0000
0000
0000
0000
,
2002
3003
0000
0000
,
0000
0000
0000
0000
,
2001
3001
1000
0100
0010
0100
1000
0001
,
0100
0010
0200
0301
1000
0100
0020
0031
,
1002
1003
0001
0100
0010
0100
0001
0010
,
0200
1300
0001
2000
3010
0100
0002
1003
,
2001
3001
0100
0010
0100
0001
0010
0100
,
1000
0010
0200
0301
1000
0100
2000
3001
,
0102
0103
0001
1000
0010
1000
0001
1000
,
0200
0000
0310
0000
0001
0000
1000
0000
0001
0100
0001
1000
0100
0010
0001
1000
,
0002
0000
0000
0000
0000
0000
0000
0000
0000
0000
0003
0000
0000
0000
1000
0001
,
0020
0000
0000
0000
0030
0000
0001
1000
0020
0000
0000
0000
0030
0000
1000
0001
,
0020
0000
0031
1000
0200
0000
1300
0001
0200
0000
0310
1000
0002
0000
1003
0100
,
0010
0000
0001
0000
1000
0000
0100
0000
1000
0001
1000
0010
0100
0010
1000
0001
,
1000
0000
0000
0000
,
0000
0000
0000
0004
,
1003
0100
1000
0001
0100
0010
0100
0001
1000
0001
0010
0100
1000
0001
0010
0001
,
1000
0100
1000
0001
0100
0001
1000
0010
0100
0010
1000
0001
2000
0000
3002
0000
,
2003
0000
3001
0100
0001
1000
0010
0100
0010
1000
0001
1000
0100
0010
0001
1000
,
0100
1000
0001
0100
0001
1000
0010
0100
0010
1000
0001
0100
0001
0000
1000
0000
,
2002
0000
0000
3003
0000
0000
0000
0000
0001
1000
0010
1000
0001
0100
0001
1000
,
0100
0010
0001
1000
0100
1000
0001
0100
0010
0100
0001
1000
0010
0100
0010
1000
,
0001
0100
0001
1000
0010
1000
0010
0100
0001
1000
0010
1000
0001
0010
0100
1000
,
0001
1000
0100
0010
0100
1000
0001
0100
0001
1000
0010
1000
0001
0100
0001
1000
,
00M0
0M00
000M
M000
000M
M000
000M
M000
,
0M00
00M0
00M0
0M00
00M0
000M
00M0
0M00
,
M000
M000
M000
000M
M000
000M
M000
000M
,
00M0
0000
0M00
0000
0M00
0000
1000
0010
1000
0001
0010
0100
1000
0001
0100
0001
,
2000
3001
1000
0100
0010
0100
1000
0001
,
0100
0010
0200
0301
1000
0100
0020
0031
,
1002
1003
0001
0100
0010
0100
0001
0010
,
0200
1300
0001
0200
0310
0100
0002
1003
,
2001
3001
1000
0010
0100
0010
1000
0100
,
0010
0001
2000
3001
0010
0001
2000
3001
,
1002
1003
0001
0100
0010
0100
0001
0010
,
0200
1300
0001
0100
0020
0130
0001
1000
,
2002
3003
0000
0000
0000
0000
0000
0000
0000
0000
0000
0000
0000
0000
0000
0000
,
0000
0000
0000
0000
,
0202
0303
0000
0000
0000
0000
0000
0000
0000
0000
0000
0000
0000
0000
0000
0000
,
0000
0000
0000
0100
,
2002
3003
0000
0000
0000
0000
0000
0000
0000
0000
0000
0000
0000
0000
0000
0000
,
0000
0000
0000
0000
,
2200
3300
0000
0000
0000
0000
0000
0000
0000
0000
0000
0000
0000
0000
0000
0000
,
1000
0000
0001
0000
1000
0000
0001
0000
1000
0100
1000
0001
0100
0010
1000
0001
,
1000
0000
0001
0100
0001
0000
1000
0100
1000
0000
0001
0100
0001
1000
0100
0010
,
0001
0000
1000
0100
1000
0000
0001
0100
0001
0000
1000
0010
1000
0001
1000
0010
,
0100
0000
0001
1000
0001
0000
0010
0100
0010
0000
0001
1000
0100
0010
0100
0010
,
0001
0000
1000
0100
1000
0000
0001
0100
0001
0000
1000
0010
0100
0001
1000
0001
,
0010
0000
0100
1000
0100
0000
1000
0001
1000
0000
0001
0100
0001
1000
0010
1000
,
0001
0000
0100
0001
0100
0000
0010
0100
0010
0000
1000
0001
1000
0100
1000
0001
,
0010
0000
0100
0000
1000
0000
0001
0000
1000
0100
1000
0001
0100
0001
1000
0010
,
0100
0001
1000
0100
1000
0001
0010
0100
1000
0001
0100
0001
1000
0010
0100
0001
,
2000
0000
0000
0000
3000
0000
0000
0000
0001
0100
0001
1000
0001
0100
0010
0100
,
0001
1000
0100
0010
0001
1000
0100
1000
0001
0100
0001
1000
0010
1000
0001
0100
,
0002
0000
0000
0000
0003
0000
0000
0000
1000
0100
0010
0001
0100
0010
0100
0001
,
1000
0001
0100
0010
1000
0001
0100
0001
1000
0000
0100
0000
0010
0000
0100
0000
,
2100
0000
0000
0000
3001
0100
0001
1000
0010
1000
0001
0100
0001
1000
0100
1000
,
0001
0010
0100
1000
0001
1000
0001
0100
0001
1000
0010
1000
0001
1000
0100
0010
,
0002
0000
0000
0000
0003
0000
0000
0000
1000
0100
0010
0100
1000
0001
1000
0100
,
1000
0000
0001
0000
1000
0010
1000
0100
1000
0001
0100
0001
0010
0001
1000
0010
,
1000
0001
0100
0001
0100
0010
1000
0001
0100
0001
1000
0010
0100
0010
1000
0001
,
1000
0100
1000
0001
0010
0100
0010
0001
1000
0100
1000
0001
0010
0100
1000
0001
,
0100
0001
1000
0001
0100
0010
0100
0001
1000
0010
1000
0001
0100
0001
1000
0010
,
0100
0001
1000
0100
0010
0100
1000
0001
0010
0100
1000
0001
0010
0001
1000
0100
,
1000
0001
0100
0010
0100
0001
1000
0001
1000
0100
0010
0001
1000
0100
1000
0001
,
1000
0010
0100
0010
1000
0001
1000
0010
1000
0001
0010
0100
1000
0001
0010
0001
,
1000
0010
0100
0010
1000
0001
1000
0100
0010
0001
1000
0100
1000
0001
0100
0010
,
1000
0001
1000
0100
0010
0001
1000
0100
1000
0001
0010
0100
1000
0001
0100
0001
,
0200
0000
0000
0000
0000
0000
0000
0000
0000
0000
0000
0000
0300
0000
0001
1000
,
0200
0000
0000
0000
0000
0320
0230
2300
,
3002
0000
0000
2003
3020
2030
3200
0320
,
0032
0000
0000
2003
3020
2030
3200
0320
,
0032
0000
0000
2003
0000
0000
3020
0000
,
0230
0302
2003
0000
3002
0000
0023
0000
,
0230
0000
0000
0000
0000
0000
0000
0000
2300
0000
0000
0000
3001
0100
0001
1000
,
0002
2003
3020
2030
3020
0230
0302
2003
,
3200
0000
0000
0000
1000
0000
0000
0000
1000
0000
0000
0000
1300
0000
0100
0010
,
0002
0000
1000
0000
1003
0002
0203
0320
,
2030
0000
3001
2000
3200
0320
0032
2003
,
3002
0000
1003
0002
0023
0230
2300
3002
,
0203
0000
0301
2000
0001
0000
3200
0000
,
0320
0032
2003
0000
3020
0000
0230
0000
,
0302
0100
2003
0010
,
3002
0000
0000
0000
0010
0000
0000
0000
4003
3000
0400
0300
0040
0030
0004
0003
,
2000
0000
0000
0000
,
0000
0000
0000
0000
,
0000
0000
0000
0000
,
0000
0000
0000
3000
,
2002
3003
0000
0000
,
0000
0000
0000
0000
,
2002
3003
0000
0000
,
0000
0000
0000
0000
,
2001
3001
1000
0100
0010
0100
1000
0001
,
0100
0010
0200
0301
1000
0100
0020
0031
,
1002
1003
0001
0010
0100
1000
0001
0100
,
0020
0130
0001
2000
3010
0100
0002
1003
,
2001
3001
0010
0100
1000
0010
0100
0010
,
0100
0001
2000
3100
0010
0100
2000
3001
,
1002
1003
0010
0100
0010
1000
0001
1000
,
0200
0000
0310
0000
0001
0000
1000
0000
0001
0100
0001
1000
0100
0010
0001
1000
,
0002
0000
0003
0000
1000
0100
1000
0001
0100
0001
1000
0100
0010
0001
1000
0001
,
1000
0010
0100
0010
1000
0001
0100
0010
0100
0001
1000
0100
2000
0000
3002
0000
,
2003
0000
3001
0100
0010
0100
0001
1000
0001
1000
0100
0010
0001
1000
0001
0100
,
0010
0100
0001
1000
0001
0100
0001
1000
0100
0010
0001
1000
0001
0000
1000
0000
,
2002
0000
0000
3003
0000
0000
0000
0000
0001
0010
0100
1000
0010
0100
0010
1000
,
0001
0100
0001
1000
0001
0010
0100
1000
0001
0100
0001
1000
0010
0100
0010
1000
,
0001
0010
0100
1000
0001
0100
0010
1000
0001
0010
0100
1000
0001
0100
0010
1000
,
0001
1000
0100
0010
0001
1000
0100
1000
0001
0100
0001
1000
0001
0100
0010
1000
,
0002
0000
0000
0000
1003
0100
1000
0001
1000
0010
0100
0001
0100
0010
1000
0001
,
1000
0100
0010
0001
1000
0100
1000
0001
0100
0010
0100
0001
2000
0000
3002
0000
,
2003
0000
3001
0100
0001
1000
0100
0010
0100
1000
0001
0100
0001
1000
0010
1000
,
0001
0100
0001
1000
0100
0010
0100
1000
0001
0100
0001
1000
0010
0000
1000
0000
,
2002
0000
0000
3003
0000
0000
0000
0000
0001
0010
0100
1000
0010
0100
0001
1000
,
0100
1000
0001
1000
0010
0100
0001
1000
0001
0010
0001
1000
0100
1000
0001
0100
,
0001
1000
0100
0010
0100
1000
0001
0100
0001
1000
0010
0100
0010
1000
0001
0100
,
0001
0100
0010
1000
0001
1000
0100
0010
0001
1000
0100
1000
0001
0100
0001
1000
;
