#TITLE:Gold Rush;
#SUBTITLE:Crash Bandicoot the Wrath of Cortex;
#ARTIST:Swallow Studios;
#TITLETRANSLIT:;
#SUBTITLETRANSLIT:;
#ARTISTTRANSLIT:;
#CREDIT:;
#BANNER:Gold Rush.png;
#BACKGROUND:Gold Rush-bg.png;
#LYRICSPATH:;
#CDTITLE:!btitle.png;
#MUSIC:Gold Rush.mp3;
#OFFSET:-1.620;
#SAMPLESTART:56.480;
#SAMPLELENGTH:12.000;
#SELECTABLE:YES;
#BPMS:0.000=140.000,128.000=155.000;
#STOPS:;
#BGCHANGES:;
// cache tags:
#FIRSTBEAT:0.000;
#LASTBEAT:320.000;
#SONGFILENAME:Songs/VGMP 2/Gold Rush (Bahamut-X)/Gold Rush.sm;
#HASMUSIC:1;
#HASBANNER:1;
#MUSICLENGTH:131.192;
// end cache tags

//---------------dance-single - ----------------
#NOTES:
     dance-single:
     :
     Challenge:
     12:
     1.000,1.000,1.000,0.114,1.000,783.000,348.000,15.000,0.000,27.000:
1001
0000
0100
0000
0000
0011
0101
0000
0010
0001
0000
1010
,
0120
0000
0001
0100
0000
1001
1100
0000
0100
1001
0000
0001
,
1130
0000
0010
0000
0000
1100
1001
0000
0010
0101
0000
1000
,
0101
0000
0010
0001
0000
1100
0110
0000
0010
1100
0000
0100
,
0011
0000
0001
0000
0000
0110
0011
0000
0100
1000
0000
1100
,
0012
0000
0010
0100
0000
1010
0110
0000
0100
1010
0000
0010
,
1103
0000
0010
0001
0000
0110
1100
0000
0001
0110
0000
1000
,
0101
0000
1001
0110
0010
0010
0110
0000
0110
0000
0110
0000
,
1001
0000
0100
0000
0000
1001
0110
0000
0010
1001
0000
1010
,
0101
0000
0001
0100
0000
0011
1100
0000
0001
1001
0000
0001
,
0110
0000
0010
0001
0000
1100
1001
0000
0010
0101
0000
1000
,
0101
0000
0010
0001
0000
1100
0110
0000
0010
1100
0000
0010
,
0011
0000
0001
0000
0000
0110
0011
0000
0010
0101
0000
0010
,
1001
0000
0010
0001
0000
1010
0110
0000
0100
1001
0000
0010
,
1001
0000
0010
0001
0000
0110
1100
0000
0001
0110
0000
1000
,
0101
0000
1001
0110
0010
0010
0110
0000
0110
0000
0110
0000
,
1100
0000
0010
0100
0100
1100
0011
0000
0100
0010
0010
1010
,
0101
0000
1000
0001
0001
1001
0110
0000
1000
0100
0100
0110
,
0011
0000
0010
0100
0100
0011
1001
0000
0100
1000
1000
1100
,
0011
0000
0010
0100
0100
0011
1100
0010
1001
0100
1010
0101
,
1010
0000
0100
0001
0001
0110
1100
0000
0010
0100
0100
1100
,
0011
0000
1000
0100
0100
0110
1001
0000
0010
0001
0001
1001
,
0110
0000
0010
1000
1000
1100
0011
0000
0100
0010
0010
0101
,
0110
0000
1000
0001
0001
0110
1100
0000
0001
0010
0010
0011
,
1001
0000
1000
0110
0000
0100
0011
0000
0010
1001
0000
0001
,
0110
0000
0100
1100
0000
0010
1001
0000
1000
1100
0001
0010
,
0110
0000
0010
1100
0000
0010
0110
0000
0100
0011
0000
0010
,
0110
0000
1000
0101
0000
0010
0101
0000
0010
1001
0100
0010
,
0011
0000
0100
0110
0000
0010
1100
0000
0010
0101
0000
0001
,
1010
0000
0001
0101
0000
0010
1100
0000
1000
0110
0000
0001
,
1001
0000
0010
1010
0000
0001
0110
0000
0001
1100
0000
0010
,
0101
0000
1001
0110
0010
0010
0110
0000
0110
1100
0110
0011
,
0110
0001
1000
0110
1001
0010
0100
1010
,
1100
0001
0000
0010
0001
1000
0100
0000
0000
0011
0000
0000
1100
0000
0000
0100
0000
0000
0010
0000
0000
0101
0000
0000
,
1010
0000
0000
0100
0000
0000
0010
0000
0000
0011
0000
0000
1100
0000
0000
0010
0000
0000
1000
0000
0000
1001
0100
0000
,
0011
1000
0010
1000
0010
1000
0100
0000
0000
0011
0000
0000
1001
0000
0000
0010
0000
0000
1000
0000
0000
0101
0000
0000
,
0101
1000
0010
1100
0011
0010
0100
1010
,
0101
0000
0000
0000
0000
0000
0001
0000
0000
0000
0000
0000
1000
0000
0000
0000
0000
0000
0110
0000
0000
0000
0000
0000
1001
0000
0010
0000
0100
0000
1000
0000
0000
0001
0000
0000
0010
0000
0000
0000
0000
0000
1100
0000
0000
0000
0000
0000
,
0110
0000
0000
0000
0000
0000
1000
0000
0000
0000
0000
0000
0010
0000
0000
0000
0000
0000
1100
0000
0000
0000
0000
0000
0011
0000
0000
0000
0000
0000
0010
0000
0000
0000
0000
0000
0100
0000
0000
0000
0000
0000
1001
0000
0100
0000
0000
0010
,
0000
0001
0000
1000
0000
0010
0000
0100
0000
0000
0000
0000
0011
0000
0000
0000
0000
0000
1001
0000
0000
0100
0000
0000
1010
0000
0000
0001
0000
0000
0100
0000
0000
0010
0000
0000
1000
0000
0000
0001
0000
0000
0110
0000
0000
1000
0000
0000
,
0110
0000
0000
0001
0000
0000
1100
0000
0000
0010
0000
0000
1001
0000
0000
1000
0000
0000
0101
0000
0000
1000
0100
0010
,
1001
0010
0001
0100
0000
0000
0011
0000
0000
0100
0000
0000
0011
0000
0000
1000
0000
0000
1100
0000
0000
0001
0000
0000
,
0110
0000
0000
1000
0000
0000
0101
0000
0000
0010
0000
0000
0110
0000
0000
1000
0000
0000
0101
0000
0000
1000
0100
0000
,
0011
0100
0010
0100
0010
0100
1001
0000
0000
0100
0000
0000
1100
0000
0000
0010
0000
0000
1001
0000
0000
0100
0000
0000
,
0011
0010
1100
0010
1001
0100
1010
0001
,
0011
0000
0000
0010
0000
0000
1100
0000
0000
0010
0000
0000
1001
0100
0010
0100
0010
0100
0011
0000
0000
1000
0000
0000
,
0101
0000
0000
0000
0000
0000
0000
0000
0000
0000
0000
0000
0000
0000
0000
0000
0000
0000
0000
0000
0000
0000
0000
0000
0001
0000
0000
0000
0000
0000
0000
0000
0000
0000
0000
0000
0000
0000
0000
0000
0000
0000
0000
0000
0000
0000
0000
0000
1001
0000
0000
0000
0000
0000
0000
0000
0000
0000
0000
0000
0000
0000
0000
0000
0000
0000
0000
0000
0000
0000
0000
0000
1000
0000
0000
0000
0000
0000
0000
0000
0000
0000
0000
0000
0000
0000
0000
0000
0000
0000
0000
0000
0000
0000
0000
0000
1010
0000
0000
0000
0000
0000
0000
0000
0000
0000
0000
0000
0000
0000
0000
0000
0000
0000
0000
0000
0000
0000
0000
0000
0010
0000
0000
0000
0000
0000
0000
0000
0000
0000
0000
0000
0000
0000
0000
0000
0000
0000
0000
0000
0000
0000
0000
0000
0110
0000
0000
0000
0000
0000
0000
0000
0000
0000
0000
0000
0000
0000
0000
0000
0000
0000
0000
0000
0000
0000
0000
0000
0010
0000
0000
0000
0000
0000
0100
0000
0000
0000
0000
0000
0000
0000
0000
0000
0000
0000
0000
0000
0001
0000
0000
0000
,
0000
1000
0000
0001
0000
1000
0000
0100
0000
0000
0000
0000
0011
0000
0000
0000
0000
0000
0010
0000
0000
0000
0000
0000
1001
0000
0000
0000
0000
0000
0100
0000
0000
0000
0000
0000
0011
0000
0000
0000
0000
0000
0010
0000
0000
0000
0000
0000
,
1002
0000
1100
0000
1103
0010
1001
0200
,
1001
0320
0101
2030
0101
0000
0101
3010
,
0210
0000
1001
0000
1301
0002
0113
1000
,
0110
0001
1100
0000
1001
0020
1130
1000
,
0120
0000
1001
0000
1031
0002
1100
0010
,
1103
0200
1001
0000
1001
0010
1001
0300
,
1010
0100
0011
0010
1001
1000
0110
0001
,
1010
0100
1001
0010
0012
0103
1001
0010
,
1101
0001
1101
1000
0110
0001
1100
0001
,
0110
1000
0100
1000
0000
0000
0011
0000
0000
0100
0000
0000
1001
0000
0000
0010
0000
0000
1001
0000
0000
0100
0000
0000
,
1010
0000
0000
0010
0000
0000
1010
0000
0000
1000
0000
0000
0101
0000
0000
0010
0000
0000
1001
0000
0000
0100
0000
0001
,
1010
0100
0010
0100
0010
0100
0011
0000
0000
1000
0000
0000
0110
0000
0000
1000
0000
0000
0101
0000
0000
0001
0000
0000
,
0110
0010
0110
0001
1100
0010
1001
0100
,
1010
0000
0000
0000
0000
0000
0010
0000
0000
0000
0000
0000
0101
0000
0000
0000
0000
0000
0010
0000
0000
0000
0000
0000
1001
0000
0100
0000
0010
0000
0001
0000
0000
1000
0000
0000
0011
0000
0000
0000
0000
0000
0100
0000
0000
0000
0000
0000
,
1001
0000
0000
0100
0000
0000
0110
0000
0000
0001
0000
0000
0110
0000
0000
1000
0000
0000
0011
0000
0000
0100
0010
0001
,
1100
0000
0001
0000
1000
0000
0001
0000
1000
0000
0000
0000
0011
0000
0000
0000
0000
0000
1000
0000
0000
0101
0000
0000
1010
0000
0000
0001
0000
0000
0100
0000
0000
0010
0000
0000
1000
0000
0000
0001
0000
0000
0010
0000
0000
0100
0000
0000
,
1001
0001
0001
0010
1100
1000
1000
0001
0110
0010
0010
0010
1100
1000
1000
1000
,
0101
0001
0001
0010
1100
0100
0010
0001
1100
0100
0100
0100
0011
0001
0001
0001
,
0110
0000
0000
1001
0000
0000
1100
0000
0110
0000
0000
0011
0000
0000
0101
0000
,
0110
0000
0000
1010
0000
0000
1001
0010
1001
0000
0000
0110
1000
0001
0110
0000
,
1001
0001
0001
0100
0011
0010
0010
1000
0110
0100
0100
0100
0011
0010
0010
0010
,
1100
1000
1000
0100
0011
0001
0100
1000
0110
0010
0010
0010
1001
0001
0001
0001
,
1100
0000
0000
0101
0000
0000
0011
0000
0101
0000
0000
0110
0000
0000
1010
0000
,
0101
0000
0000
0011
0000
0000
1001
0100
1010
0000
0000
0011
1000
0100
0011
0000
,
0110
0010
0010
0100
1001
0001
0010
0100
1010
0010
0010
0010
0101
0100
0100
0100
,
1010
0010
0010
1000
0101
0001
0010
0100
1001
1000
1000
1000
0011
0001
0001
0001
,
1100
0100
0100
1010
0001
0001
0101
0010
1001
1000
1000
1100
0010
0010
0110
0010
,
0101
0001
0001
1100
0010
0010
1100
0010
0101
0100
0100
0110
0001
0001
1001
0001
,
1010
1000
1000
0100
0011
0010
0010
0100
1001
0001
0001
0001
1010
0010
0010
0010
,
0101
0100
0100
0010
1100
1000
0001
0100
0011
0010
0010
0010
0110
0100
0100
0100
,
0011
0000
0000
1000
0110
0000
0000
0000
1001
0010
0000
0000
1001
0000
0000
0100
0011
0000
0000
0000
1001
0100
0000
0000
,
0011
0101
0110
1001
1100
0011
0101
0220
,
0330
0000
0000
0000
;

//---------------dance-single - Copied from----------------
#NOTES:
     dance-single:
     Copied from:
     Hard:
     9:
     1.000,1.000,1.000,0.023,1.000,758.000,348.000,3.000,0.000,0.000:
1001
0000
0100
0000
0000
0011
0101
0000
0010
0001
0000
1010
,
0110
0000
0001
0010
0000
1001
1100
0000
0100
0011
0000
0001
,
1100
0000
0010
0000
0000
1100
1001
0000
0010
0101
0000
1000
,
0101
0000
0010
0001
0000
1100
0110
0000
0010
1100
0000
0100
,
0011
0000
0001
0000
0000
0110
0011
0000
0100
1000
0000
1100
,
0011
0000
0000
0100
0000
1001
0110
0000
0100
1010
0000
0001
,
1100
0000
0010
0001
0000
0110
1100
0000
0001
0110
0000
1000
,
0101
0000
1001
0110
0010
0010
0110
0000
0110
0000
0110
0000
,
1001
0000
0100
0000
0000
1001
0110
0000
0010
1001
0000
1010
,
0101
0000
0001
0100
0000
0011
1100
0000
0001
1001
0000
0001
,
0110
0000
0010
0001
0000
1100
1001
0000
0010
0101
0000
1000
,
0101
0000
0010
0001
0000
1100
0110
0000
0010
1100
0000
0010
,
0011
0000
0001
0000
0000
0110
0011
0000
0010
0101
0000
0010
,
1001
0000
0010
0001
0000
1010
0110
0000
0100
1001
0000
0010
,
1001
0000
0010
0001
0000
0110
1100
0000
0001
0110
0000
1000
,
0101
0000
1001
0110
0010
0010
0110
0000
0110
0000
0110
0000
,
1100
0000
0010
0100
0100
1100
0011
0000
0100
0010
0010
1010
,
0101
0000
1000
0001
0001
1001
0110
0000
1000
0100
0100
0110
,
0011
0000
0010
0100
0100
0011
1001
0000
0100
1000
1000
1100
,
0011
0000
0010
0100
0100
0011
1100
0010
1001
0100
1010
0101
,
1010
0000
0100
0001
0001
0110
1100
0000
0010
0100
0100
1100
,
0011
0000
1000
0100
0100
0110
1001
0000
0010
0001
0001
1001
,
0110
0000
0010
1000
1000
1100
0011
0000
0100
0010
0010
0101
,
0110
0000
1000
0001
0001
0110
1100
0000
0001
0010
0010
0011
,
1001
0000
1000
0110
0000
0100
0011
0000
0010
1001
0000
0001
,
0110
0000
0100
1100
0000
0010
1001
0000
1000
1100
0001
0010
,
0110
0000
0010
1100
0000
0010
0110
0000
0100
0011
0000
0010
,
0110
0000
1000
0101
0000
0010
0101
0000
0010
1001
0100
0010
,
0011
0000
0100
0110
0000
0010
1100
0000
0010
0101
0000
0001
,
1010
0000
0001
0101
0000
0010
1100
0000
1000
0110
0000
0001
,
1001
0000
0010
1010
0000
0001
0110
0000
0001
1100
0000
0010
,
0101
0000
1001
0110
0010
0010
0110
0000
0110
1100
0110
0011
,
0110
0001
1000
0110
1001
0010
0100
1010
,
1100
0001
0000
0010
0001
1000
0100
0000
0000
0011
0000
0000
1100
0000
0000
0100
0000
0000
0010
0000
0000
0101
0000
0000
,
1010
0000
0000
0100
0000
0000
0010
0000
0000
0011
0000
0000
1100
0000
0000
0010
0000
0000
1000
0000
0000
1001
0100
0000
,
0011
1000
0010
1000
0010
1000
0100
0000
0000
0011
0000
0000
1001
0000
0000
0010
0000
0000
1000
0000
0000
0101
0000
0000
,
0101
1000
0010
1100
0011
0010
0100
1010
,
0101
0000
0000
0000
0000
0000
0001
0000
0000
0000
0000
0000
1000
0000
0000
0000
0000
0000
0110
0000
0000
0000
0000
0000
1001
0000
0010
0000
0100
0000
1000
0000
0000
0001
0000
0000
0010
0000
0000
0000
0000
0000
1100
0000
0000
0000
0000
0000
,
0110
0000
0000
0000
0000
0000
1000
0000
0000
0000
0000
0000
0010
0000
0000
0000
0000
0000
1100
0000
0000
0000
0000
0000
0011
0000
0000
0000
0000
0000
0010
0000
0000
0000
0000
0000
0100
0000
0000
0000
0000
0000
1001
0000
0100
0000
0000
0010
,
0000
0001
0000
1000
0000
0010
0000
0100
0000
0000
0000
0000
0011
0000
0000
0000
0000
0000
1001
0000
0000
0100
0000
0000
1010
0000
0000
0001
0000
0000
0100
0000
0000
0010
0000
0000
1000
0000
0000
0001
0000
0000
0110
0000
0000
1000
0000
0000
,
0110
0000
0000
0001
0000
0000
1100
0000
0000
0010
0000
0000
1001
0000
0000
1000
0000
0000
0101
0000
0000
1000
0100
0010
,
1001
0010
0001
0100
0000
0000
0011
0000
0000
0100
0000
0000
0011
0000
0000
1000
0000
0000
1100
0000
0000
0001
0000
0000
,
0110
0000
0000
1000
0000
0000
0101
0000
0000
0010
0000
0000
0110
0000
0000
1000
0000
0000
0101
0000
0000
1000
0100
0000
,
0011
0100
0010
0100
0010
0100
1001
0000
0000
0100
0000
0000
1100
0000
0000
0010
0000
0000
1001
0000
0000
0100
0000
0000
,
0011
0010
1100
0010
1001
0100
1010
0001
,
0011
0000
0000
0010
0000
0000
1100
0000
0000
0010
0000
0000
1001
0100
0010
0100
0010
0100
0011
0000
0000
1000
0000
0000
,
0101
0000
0000
0000
0000
0000
0000
0000
0000
0000
0000
0000
0000
0000
0000
0000
0000
0000
0000
0000
0000
0000
0000
0000
0001
0000
0000
0000
0000
0000
0000
0000
0000
0000
0000
0000
0000
0000
0000
0000
0000
0000
0000
0000
0000
0000
0000
0000
1001
0000
0000
0000
0000
0000
0000
0000
0000
0000
0000
0000
0000
0000
0000
0000
0000
0000
0000
0000
0000
0000
0000
0000
1000
0000
0000
0000
0000
0000
0000
0000
0000
0000
0000
0000
0000
0000
0000
0000
0000
0000
0000
0000
0000
0000
0000
0000
1010
0000
0000
0000
0000
0000
0000
0000
0000
0000
0000
0000
0000
0000
0000
0000
0000
0000
0000
0000
0000
0000
0000
0000
0010
0000
0000
0000
0000
0000
0000
0000
0000
0000
0000
0000
0000
0000
0000
0000
0000
0000
0000
0000
0000
0000
0000
0000
0110
0000
0000
0000
0000
0000
0000
0000
0000
0000
0000
0000
0000
0000
0000
0000
0000
0000
0000
0000
0000
0000
0000
0000
0010
0000
0000
0000
0000
0000
0100
0000
0000
0000
0000
0000
0000
0000
0000
0000
0000
0000
0000
0000
0001
0000
0000
0000
,
0000
1000
0000
0001
0000
1000
0000
0100
0000
0000
0000
0000
0011
0000
0000
0000
0000
0000
0010
0000
0000
0000
0000
0000
1001
0000
0000
0000
0000
0000
0100
0000
0000
0000
0000
0000
0011
0000
0000
0000
0000
0000
0010
0000
0000
0000
0000
0000
,
1001
0000
1100
0000
1100
0010
1001
0100
,
1001
0010
0101
1000
0101
0000
0101
0010
,
0110
0000
1001
0000
1001
0001
0110
1000
,
0110
0001
1100
0000
1001
0010
1100
1000
,
0110
0000
1001
0000
1001
0001
1100
0010
,
1100
0100
1001
0000
1001
0010
1001
0000
,
1010
0100
0011
0010
1001
1000
0110
0001
,
1010
0100
1001
0010
0012
0103
1001
0010
,
1001
0001
1001
1000
0110
0001
1100
0001
,
0110
1000
0100
1000
0000
0000
0011
0000
0000
0100
0000
0000
1001
0000
0000
0010
0000
0000
1001
0000
0000
0100
0000
0000
,
1010
0000
0000
0010
0000
0000
1010
0000
0000
1000
0000
0000
0101
0000
0000
0010
0000
0000
1001
0000
0000
0100
0000
0001
,
1010
0100
0010
0100
0010
0100
0011
0000
0000
1000
0000
0000
1100
0000
0000
0010
0000
0000
1100
0000
0000
0001
0000
0000
,
0110
0010
0110
0001
1100
0010
1001
0100
,
1010
0000
0000
0000
0000
0000
0010
0000
0000
0000
0000
0000
0101
0000
0000
0000
0000
0000
0010
0000
0000
0000
0000
0000
1001
0000
0100
0000
0010
0000
0001
0000
0000
1000
0000
0000
0011
0000
0000
0000
0000
0000
0010
0000
0000
0000
0000
0000
,
1001
0000
0000
0100
0000
0000
0110
0000
0000
0001
0000
0000
0110
0000
0000
1000
0000
0000
0011
0000
0000
0100
0010
0001
,
1100
0000
0001
0000
1000
0000
0001
0000
1000
0000
0000
0000
0011
0000
0000
0000
0000
0000
1000
0000
0000
0101
0000
0000
1010
0000
0000
0001
0000
0000
0100
0000
0000
0010
0000
0000
1000
0000
0000
0001
0000
0000
0010
0000
0000
0100
0000
0000
,
1001
0010
1000
0100
0011
1000
0010
0100
1001
0010
0001
0100
1010
0001
0100
0010
,
1100
0001
1000
0100
0011
0100
1000
0010
0101
0010
1000
0001
0110
1000
0100
1000
,
0011
0000
0000
0110
0000
0000
1100
0000
0110
0000
0000
0011
0000
0000
0101
0000
,
0110
0000
0000
1010
0000
0000
1001
0010
0101
0000
0000
0110
0001
1000
0110
0000
,
1001
0010
0100
0010
0101
1000
0010
0100
1001
0010
0001
0100
1010
0001
0100
0010
,
1100
0001
0010
0100
1010
0001
0010
0001
1100
0010
0100
0010
1001
0100
0010
0001
,
1100
0000
0000
1100
0000
0000
0011
0000
0101
0000
0000
0110
0000
0000
1010
0000
,
0101
0000
0000
0011
0000
0000
1001
0100
1010
0000
0000
0011
1000
0100
0011
0000
,
1001
0010
0100
1000
0011
0100
0010
1000
0101
0010
0100
0010
1001
0100
0010
0001
,
1100
0010
0001
0100
1010
0001
0100
0010
1100
0010
0001
0010
1001
0100
0010
0001
,
1100
0000
0000
0011
0000
0000
0110
0000
1001
0000
0000
1100
0000
0000
0110
0000
,
0011
0000
0000
1001
0000
0000
1100
0000
1010
0000
0000
0101
0000
0000
0110
0000
,
1001
0010
0100
0010
1001
0100
0010
0001
1100
0001
0010
0100
0011
1000
0100
0010
,
1001
0100
0010
1000
0101
1000
0010
0100
0011
0100
0010
0001
1100
0001
0010
0001
,
1100
0000
0110
0000
1100
0000
1001
0000
0011
0000
1001
0000
,
1100
0101
0110
1001
1100
0011
0101
0220
,
0330
0000
0000
0000
;
