#TITLE:Gethsemane;
#SUBTITLE:;
#ARTIST:Nightwish;
#TITLETRANSLIT:;
#SUBTITLETRANSLIT:;
#ARTISTTRANSLIT:;
#CREDIT:Wavanova;
#BANNER:Gethsemane Banner.png;
#BACKGROUND:Nightwish-bg.png;
#LYRICSPATH:;
#CDTITLE:wavanova06.jpg;
#MUSIC:Nightwish-Gethsemane.mp3;
#OFFSET:0.080;
#SAMPLESTART:103.920;
#SAMPLELENGTH:12.000;
#SELECTABLE:YES;
#BPMS:0.000=124.400,15.500=248.800,23.500=62.200,25.500=124.700,40.500=249.400,48.500=62.360,50.500=125.590,161.000=251.180,169.000=62.795,171.000=125.590,175.672=62.000,175.672=124.000,175.688=125.600,186.000=251.180,193.935=62.000,194.000=125.580,195.718=124.000,195.750=125.600,384.000=125.000,415.500=126.230,440.000=125.550;
#STOPS:1.500=0.200
,3.000=0.200
,26.500=0.240
,28.000=0.160
,50.500=0.242
,147.000=0.239
,148.500=0.239
,172.000=0.239
,173.500=0.239
,305.500=0.239
,305.750=0.239
,306.000=0.239
,320.000=0.239
,320.250=0.239
,320.500=0.239
,366.500=0.239
,366.750=0.239
,367.000=0.239
,381.000=0.239
,381.250=0.239
,381.500=0.239
;
#BGCHANGES:;
// cache tags:
#FIRSTBEAT:0.500;
#LASTBEAT:662.250;
#SONGFILENAME:Songs/toune 4/nightwish1/Nightwish - Gethsemane.sm;
#HASMUSIC:1;
#HASBANNER:1;
#MUSICLENGTH:320.915;
// end cache tags

//---------------dance-single - ----------------
#NOTES:
     dance-single:
     :
     Hard:
     13:
     0.985,1.000,0.904,0.333,1.000,1816.000,290.000,107.000,0.000,21.000:
0000
0000
1000
0010
0100
0001
0100
0000
0010
0001
1000
0100
0010
0000
0001
0010
,
0100
0001
1000
0010
1000
0001
0100
0010
1000
0001
0100
0010
1000
0100
0020
0000
,
1000
0100
1030
0001
1000
0000
0010
0100
0010
0100
0001
0000
0010
0100
1000
0100
,
0010
0001
1000
0010
0100
0001
0010
0100
1000
0100
0010
0100
1000
0001
0100
0000
,
0001
0010
0100
1000
0100
0010
0100
1000
,
0100
0000
0000
0000
0010
0000
0000
0000
0100
0000
0000
0000
0001
0000
0000
0000
0010
0000
0000
0000
0100
0000
0000
0000
0010
0000
0000
0000
1000
0100
0010
0001
,
0010
0100
1000
0100
0010
0001
0010
0100
1000
0100
0010
0001
1000
0000
0010
0000
0100
0000
0001
0000
0100
0000
0000
0000
1001
0000
0010
0000
0100
0000
1000
0000
,
0100
0000
0001
0010
0100
0010
0100
1000
0010
0100
0002
0000
2000
0000
3200
0000
,
0313
0100
0010
0000
1000
0001
1000
0001
0100
0000
0010
0001
0100
0001
0010
0000
,
1000
0100
0010
0100
1000
0010
0100
0001
0010
0100
0010
0100
1000
0100
0010
0001
,
0010
0100
1000
0000
0010
0000
0100
0000
0010
0000
1000
0000
0010
0000
0100
0000
,
0010
1000
0010
0100
0010
1000
0010
0100
,
0001
0000
0000
0000
1000
0100
0010
0001
0010
0100
1000
0100
0010
0001
0010
0100
1000
0100
0010
0001
1000
0000
0000
0000
0101
0000
0000
0000
0110
0000
0000
0000
,
1001
1100
1001
0000
0210
0000
0300
0022
,
0033
2200
3300
0001
2002
3003
0022
0033
,
0202
0303
2000
3020
2130
3200
0302
2003
,
3000
0000
0002
0000
1003
0100
1000
0001
1001
0000
0001
0100
0001
0000
0101
0000
,
1000
0010
1000
0000
0110
0000
0110
0000
0000
0000
1000
0001
1000
0000
1001
0000
,
0010
0100
0010
0000
1100
0000
1100
0000
0000
0000
0001
0100
0001
0000
0110
0000
,
1000
0010
1000
0000
0101
0000
0101
0000
0000
0000
0001
1000
0001
0000
1001
0000
,
0110
0000
0010
0100
0110
0000
0001
1000
1001
0000
0010
0100
0010
0000
1010
0000
,
0001
0100
0001
0000
0101
0000
0101
0000
0000
0000
1000
0001
1000
0000
0110
0000
,
1000
0100
1000
0000
1010
0000
1010
0000
0000
0000
0001
0100
0001
0000
0101
0000
,
1000
0010
1000
0000
0110
0000
0110
0000
0000
0000
1000
0001
1000
0000
1001
0000
,
0010
0100
0010
0000
1100
0000
1000
0001
1001
0000
0001
0100
0001
0000
0110
0000
,
1000
0010
1000
0000
0101
0000
0101
0000
0000
0000
0001
1000
0001
0000
1001
0000
,
1000
0001
1000
0000
0101
0000
0101
0000
2100
0000
0000
0001
0010
0000
0011
0000
,
0000
0000
0010
0000
0110
0000
0000
0010
0001
0000
0101
0000
0000
0001
0100
0000
,
0000
3100
0001
1000
0001
0100
0001
0010
1001
0000
0001
0010
0100
0000
1000
0100
,
0010
0000
0001
0010
0100
0000
0001
0000
1001
0000
0010
0000
0100
0000
0010
0000
,
1001
0000
1000
0000
1010
0000
0001
0000
0101
0000
1000
0100
0010
0000
0001
0010
,
0100
0000
1000
0100
0010
0000
0001
0010
0100
0000
1000
0100
0010
0000
0100
0000
,
1001
0000
0010
0000
1001
0000
0001
0000
0101
0000
1000
0100
0010
0000
0001
0010
,
0100
0000
1000
0100
0010
0000
0001
0000
1001
0000
0001
0010
0100
0000
1000
0100
,
0010
0000
0001
0010
0100
0000
0001
0000
1001
1000
0001
1000
0001
1000
0001
1000
,
0001
1000
0001
1000
0001
1000
0001
1000
0001
1000
0001
1000
0001
1000
0001
1000
,
0001
0000
0010
0000
0001
0000
0100
0000
0001
0000
1000
0000
1001
0000
0000
0000
0000
0000
0100
0000
0000
0000
0000
0000
1001
0000
0000
0100
0000
0000
0001
0000
0000
0010
0000
0000
0001
0000
0000
0000
0000
0000
1001
0000
0000
0100
0000
0000
,
1000
0001
1000
0000
1001
0010
0100
0001
1000
0010
1000
0001
0100
0010
1000
0001
,
0100
0010
1000
0100
0020
0000
1000
0100
1030
0001
1000
0000
0010
0100
0010
0100
,
0001
0000
0010
0100
1000
0100
0010
0001
1000
0010
0100
0001
0010
0100
1000
0100
,
0010
0100
1000
0001
0100
0000
0010
0000
0100
0000
0001
0000
0100
0000
0010
0000
,
0100
0001
0100
0010
0100
0001
0100
0010
,
0100
0000
0000
0000
0001
0000
0000
0000
1000
0100
0010
0001
0010
0100
1000
0100
0010
0001
0010
0100
1000
0100
0010
0001
1001
0000
0100
0000
1000
0000
0001
0000
,
1000
0000
0001
0010
0001
0100
0001
0000
0100
0010
0100
0001
0010
0100
1000
0100
,
2002
0000
3223
0000
2332
0000
3013
0100
0010
0000
1000
0001
1000
0001
0100
0000
,
0010
0001
0100
0001
0010
0000
1000
0100
0010
0100
1000
0010
0100
0001
0010
0100
,
0010
0100
1000
0100
0010
0001
0010
0100
1000
0000
0010
0000
0100
0000
0010
0000
,
1000
0010
0100
0010
1000
0010
0100
0010
,
1000
0000
0010
0000
0100
0000
0010
0000
1000
0100
0010
0001
0010
0100
1000
0100
,
0010
0001
0010
0100
1000
0100
0010
0001
1001
0000
0000
0000
1010
0000
0220
0000
,
0330
0022
0033
0120
0000
0130
2200
3300
,
0022
0033
1200
2302
0000
3003
0000
0010
,
1010
0101
0000
0200
0312
0023
2030
3002
,
0003
0000
2000
0000
3001
0010
0001
1000
1001
0000
1000
0010
1000
0000
1010
0000
,
0001
0100
0001
0000
0110
0000
0110
0000
0000
0000
0001
1000
0001
0000
1001
0000
,
0100
0010
0100
0000
0011
0000
0011
0000
0000
0000
1000
0010
1000
0000
0110
0000
,
0001
0100
0001
0000
1010
0000
1010
0000
0000
0000
1000
0001
1000
0000
1001
0000
,
0110
0000
0100
0010
0110
0000
1000
0001
1001
0000
0100
0010
0100
0000
0101
0000
,
1000
0010
1000
0000
1010
0000
1010
0000
0000
0000
0001
1000
0001
0000
0110
0000
,
0001
0010
0001
0000
0101
0000
0101
0000
0000
0000
1000
0010
1000
0000
1010
0000
,
0001
0100
0001
0000
0110
0000
0110
0000
0000
0000
0001
1000
0001
0000
1001
0000
,
0100
0010
0100
0000
0011
0000
0001
1000
1001
0000
1000
0010
1000
0000
0110
0000
,
0001
0100
0001
0000
1010
0000
1010
0000
0000
0000
1000
0001
1000
0000
1001
0000
,
0001
1000
0001
0000
1010
0000
1010
0000
0012
0000
0000
1000
0100
0000
1100
0000
,
0000
0000
0100
0000
0110
0000
0000
0100
1000
0000
1010
0000
0000
1000
0010
0000
,
0000
0013
1000
0001
1000
0010
1000
0100
1001
0000
1000
0100
0010
0000
0001
0010
,
0100
0000
1000
0100
0010
0000
1000
0000
1001
0000
0100
0000
0010
0000
0100
0000
,
1001
0000
0001
0000
0101
0000
1000
0000
1010
0000
0001
0010
0100
0000
1000
0100
,
0010
0000
0001
0010
0100
0000
1000
0100
0010
0000
0001
0010
0100
0000
0010
0000
,
1001
0000
0100
0000
1001
0000
1000
0000
1010
0000
0001
0010
0100
0000
1000
0100
,
0010
0000
0001
0010
0100
0000
1000
0000
1001
0000
1000
0100
0010
0000
0001
0010
,
0100
0000
1000
0100
0010
0000
1000
0000
1001
0001
1000
0001
1000
0001
1000
0001
,
1000
0001
1000
0001
1000
0001
1000
0001
1000
0001
1000
0001
1000
0001
1000
0001
,
1000
0000
0100
0000
1000
0000
0010
0000
1000
0000
0001
0000
1001
0000
0000
0000
0000
0000
0000
0000
0000
0000
0000
0000
0101
0000
0000
0000
0000
0000
0001
0000
0000
0100
0000
0000
0101
0000
0000
0000
0000
0000
0001
0000
0000
0100
0000
0000
,
0101
0000
1000
0000
1001
0000
0001
1000
0100
0000
1000
0100
1100
0000
0100
1000
,
0100
0010
0001
0010
1100
0000
1100
0010
0001
0000
1000
0001
1001
0000
1000
0001
,
1001
0000
0000
0000
0000
1001
0100
0110
1001
0000
0101
0101
0000
1100
1100
0000
,
0110
0000
0011
0000
0010
0001
0011
0000
0010
0001
0011
0000
0100
0000
0110
0000
,
0010
0100
0001
0000
0100
0001
0101
0000
0001
0100
0001
1000
0010
1000
0101
0000
,
0101
1000
0010
0000
0100
0010
0110
0000
0100
0010
0110
0000
0000
0000
0000
0110
,
0001
0110
1001
0000
0011
0011
0000
1100
1100
0000
1001
0000
0110
0000
0001
0010
,
0100
0000
0101
0000
0000
0000
1000
0100
0010
0000
0001
0000
1001
0000
0000
0010
,
0100
0000
1000
0000
1100
0000
0001
1000
0001
0000
0010
0000
0110
0000
1000
0100
,
1000
0000
0011
0000
0110
0000
1100
0000
1001
0000
0001
0000
1001
0000
0000
0100
,
1000
0000
0011
0000
0110
0000
1001
0000
0101
0000
0220
0000
0330
0000
1000
0100
,
0010
0000
1010
0000
0000
0000
0001
0010
0100
0000
1000
0000
1001
0000
0000
0100
,
0010
0000
0001
0000
0011
0000
1000
0001
1000
0000
0100
0000
0110
0000
0001
0010
,
0001
0000
1100
0000
0110
0000
0011
0000
1001
0000
1000
0000
1001
0000
0000
0010
,
0001
0000
1100
0000
0110
0000
1001
0000
1010
0000
0220
0330
1010
0000
1000
0010
,
1010
0000
1000
0010
1010
0000
0001
0000
1001
0000
1000
0001
0010
0000
0001
0010
,
0011
0000
0010
0001
0010
0100
1000
0100
0011
0000
0011
0100
1000
0000
0001
1000
,
1001
0000
0001
1000
1001
0000
0000
0000
0000
1001
0010
0110
1001
0000
1001
1001
,
0000
0110
0110
0000
1001
0000
1100
0000
0100
1000
1100
0000
0100
1000
1100
0000
,
0010
0000
0110
0000
0100
0010
1000
0000
0010
1000
1010
0000
1000
0010
1000
0001
,
0100
0001
1010
0000
1010
0001
0100
0000
0010
0100
0110
0000
0010
0100
0110
0000
,
0000
0000
0000
0110
1000
0110
1001
0000
1100
1100
0000
0011
0011
0000
1001
0000
,
0110
0000
0001
1000
0001
0000
1000
0001
1000
0000
0001
0010
0100
0000
1000
0100
,
0010
0100
1000
0010
0100
0001
0010
0100
1000
0100
0010
0001
1000
0000
0110
0000
,
0001
0100
0001
0100
0000
0000
0000
0000
0000
0100
0010
0100
0010
0000
0000
0001
1000
0001
0000
0000
0001
0000
0000
0000
,
0100
0010
0100
0010
0000
0000
0100
0000
0000
0001
0010
0001
0010
0000
0000
0100
0000
0000
0110
0000
0000
0001
0000
0000
,
0110
0000
1000
0001
1000
0000
0001
1000
0001
0000
1000
0100
0010
0000
0001
0010
,
0100
0010
0001
0100
0010
1000
0100
0010
0001
0010
0100
1000
0001
0000
0110
0000
,
1000
0010
1000
0010
0000
0000
0000
0000
0000
0010
0100
0010
0100
0000
0000
1000
0001
1000
0000
0000
1000
0000
0000
0000
,
0010
0100
0010
0100
0000
0000
0010
0000
0000
1000
0100
1000
0100
0000
0000
0010
0000
0000
1001
0000
0000
0100
0000
0000
,
2002
0000
0000
0000
0000
0000
0000
0000
0000
0000
3013
0100
0010
0000
2002
0000
,
0000
0000
0000
0000
0000
0000
3113
0100
,
1001
0100
0001
0100
0000
0000
0000
0000
0000
0100
0010
0100
0010
0000
0000
0001
1000
0001
0000
0000
0001
0000
0000
0000
,
0100
0010
0100
0010
0000
0000
0100
0000
0000
0001
0010
0001
0010
0000
0000
0100
0000
0000
0110
0000
0000
0001
0000
0000
,
1001
0100
0001
0100
0000
0000
0000
0000
0000
0100
0010
0100
0010
0000
0000
0001
1000
0001
0000
0000
0001
0000
0000
0000
,
0100
0000
0010
0000
0100
0000
0010
0000
0000
0000
0000
0000
0100
0000
0000
0000
0000
0000
0001
0000
0010
0000
0001
0000
0010
0000
0000
0000
0000
0000
0110
0000
0000
0000
0000
0000
0000
0000
0000
1001
0000
0000
0000
0000
0000
0000
0000
0000
,
0110
0001
1001
0010
0100
1000
1001
0010
,
0100
0001
0011
0100
1000
0010
0110
0001
,
1000
0010
0110
1000
0001
0010
1001
0010
,
0100
0001
1001
0010
0100
1000
1010
0010
,
0100
0001
0101
0010
0100
0010
1001
0001
,
0100
0001
0101
0010
0100
1000
1010
0001
,
0010
0000
0001
0000
1001
0000
0010
0000
2100
0000
0000
0012
3000
0000
0213
0000
,
0300
1002
0010
1000
0010
1000
0010
1000
0010
1000
0010
1000
0013
1000
0010
0100
,
1020
1230
0000
2310
0000
0021
3000
0030
,
0022
0033
2200
3300
0022
0033
2002
3003
,
0002
0023
0032
0023
0032
0023
0230
2300
3200
2300
3200
2300
3002
2003
3002
2003
,
3200
0000
0000
0302
0000
0000
0203
0000
0000
0302
0000
0000
0203
0000
0000
0302
0000
0000
0023
0000
0000
0230
0000
0000
0320
0000
0000
0230
0000
0000
0310
0000
0100
0000
1000
0000
0001
0000
0000
0000
0000
0000
0000
0000
0000
0000
0000
0000
,
2002
0000
0000
0000
0000
0000
0000
0000
0000
0003
3000
0001
1000
0001
0000
0001
,
1000
0001
0000
0001
1000
0001
0000
0001
1000
0001
0000
0001
1000
0001
0000
0001
,
0000
0001
0000
0001
1000
0001
0000
0001
1000
0001
0000
0001
1000
0001
0000
0001
,
1000
0001
0000
0001
1000
0001
0000
0001
1000
0001
0000
0001
1000
0001
0000
0001
,
0000
0001
0000
0001
1000
0001
0000
0001
1000
0001
0000
0001
1000
0001
0000
0001
,
1000
0001
0000
0001
1000
0001
0000
0001
1000
0001
0000
0001
1000
0001
0000
0001
,
0000
0001
0000
0001
1000
0001
0000
0001
1000
0001
0000
0001
1000
0001
0000
0001
,
1000
0001
0000
0001
1000
0001
0000
0001
1000
0001
0000
0001
1000
0001
0000
0001
,
0000
0001
0000
0001
1000
0001
0000
0001
1000
0001
0000
0001
1000
0001
0000
0001
,
1000
0001
0000
0001
1000
0001
0000
0001
1000
0001
0000
0000
2002
0000
0000
3003
,
0110
0000
0001
0100
0001
1000
0001
0000
0000
0000
0010
1000
0010
0100
0010
0000
,
0000
0000
0100
0010
0100
0001
0100
0000
0000
0000
0010
1000
0010
0100
0010
0000
,
0000
0000
0100
0010
0100
0001
0100
0000
0000
0000
1000
0001
1000
0010
1000
0000
,
0000
0000
0001
1000
0001
0010
0001
0000
0110
0000
1100
0000
0110
0000
0011
0000
,
1100
0000
0001
0010
0001
1000
0001
0010
0001
0000
1000
0001
1000
0010
1000
0001
,
1000
0000
0010
0100
0010
1000
0010
0100
0010
0000
1000
0001
1000
0010
1000
0001
,
1000
0000
0001
1000
0000
1000
0001
0000
1001
0000
0010
0100
0010
0100
0010
0100
,
1001
0000
0100
0010
0000
0010
0100
0000
1001
0000
0010
0100
0010
0100
0010
0100
,
1001
0000
1000
0010
1000
0001
1000
0000
0000
0000
0100
0001
0100
0010
0100
0000
,
0000
0000
0010
0100
0010
1000
0010
0000
0000
0000
0100
0001
0100
0010
0100
0000
,
0000
0000
0010
0100
0010
1000
0010
0000
0000
0000
0001
1000
0001
0100
0001
0000
,
0000
0000
1000
0001
1000
0100
1000
0000
0110
0000
0011
0000
0110
0000
1100
0000
,
0011
0000
1000
0100
1000
0001
1000
0100
1000
0000
0001
1000
0001
0100
0001
1000
,
0001
0000
0100
0010
0100
0001
0100
0010
0100
0000
0001
1000
0001
0100
0001
1000
,
0001
0000
0010
0100
0010
1000
0010
0100
0010
0000
0100
0001
0100
1000
0100
0010
,
0100
0000
0100
0010
0100
0000
1001
0000
0110
0000
1001
0000
0110
0000
1001
0000
,
0110
0000
0010
0100
0010
0000
0010
0100
0010
0000
0010
0100
0010
0000
0010
0100
,
0010
0000
0010
0100
0010
0000
0010
0100
0010
0000
0010
0100
0010
0000
0010
0100
,
0001
0000
0001
1000
0001
0000
0001
1000
0001
0000
0001
1000
0001
0000
0001
1000
,
0001
0000
0001
1000
0001
0000
0001
1000
0001
0000
0001
1000
0001
0000
0001
1000
,
0010
0000
0010
1000
0010
0000
0010
1000
0010
0000
0010
1000
0010
0000
0010
1000
,
0010
0000
0010
1000
0010
0000
0010
1000
0010
0000
0010
1000
0010
0000
0010
1000
,
0001
0000
0001
0100
0001
0000
0001
0100
0001
0000
0001
0100
0001
0000
0001
0100
,
0001
0010
0001
0010
0000
0000
0001
0100
0001
0100
0000
0000
0001
1000
0001
1000
,
0001
0010
0100
1000
0100
0010
0001
0010
0100
1000
0010
0100
0001
0010
0100
0010
0001
0010
0100
1000
0010
0100
0001
0010
,
0001
1000
0001
0100
0010
1000
0010
0100
0001
0010
0100
1000
0100
0010
0001
0010
0100
1000
0100
0010
0001
0010
0100
1000
,
0010
0100
0001
0010
0001
1000
0010
0100
0001
0010
0100
1000
0001
1000
0001
1000
0100
0010
0001
0010
0100
1000
0001
1000
,
0002
0000
0000
0000
0000
0000
0000
0000
0000
0000
0000
0000
0000
0000
0000
0000
0000
0000
0000
0000
0000
0000
0003
0000
0010
0000
0000
0100
0000
0000
1000
0000
0000
0100
0000
0000
0010
0000
0000
0100
0000
0000
1000
0000
0000
0100
0000
0000
,
0020
0000
0000
0000
0000
0000
1030
0001
0200
0000
0000
0000
0300
0000
0100
0001
,
2000
0000
0000
0000
0000
3000
0100
1000
0001
0000
0010
0000
0100
0000
1000
0000
,
1001
0000
0010
0100
0000
0100
0010
0000
1001
0000
0010
0100
0000
0100
0010
0000
,
1001
0000
0100
0001
0000
0001
0010
0100
0010
0000
1000
0001
1000
0001
0100
0001
,
0010
0100
0000
1000
0000
0100
0000
0010
0100
0001
0000
1001
0000
1000
0100
0010
,
0001
0000
0000
0000
1000
0000
0000
0000
0000
0000
0000
0000
0000
0000
0000
0000
0000
0001
0010
0100
1000
0000
0000
0000
0000
0000
0000
0000
0000
0000
0000
0000
0000
0001
0010
0100
1000
0000
0000
0000
0000
0000
0000
0000
0000
0000
0000
0000
0000
0000
0000
0000
0000
0000
0000
0000
0000
0000
0000
0000
0000
0000
0000
0000
;

//---------------dance-single - ----------------
#NOTES:
     dance-single:
     :
     Medium:
     9:
     0.282,0.339,0.184,0.209,0.298,507.000,59.000,67.000,0.000,7.000:
0000
0000
1000
0100
0010
0001
0100
0000
1000
0100
0010
0001
0010
0000
0001
0010
,
0100
0001
1000
0010
1000
0001
0100
0010
1000
0001
0100
0010
1000
0100
0001
0000
,
0000
1000
0100
0000
0001
0000
1000
0100
0010
0000
0001
0000
0010
1000
0000
0010
,
0001
0100
1000
0001
0010
0000
0100
0010
0001
0000
1000
0000
0001
0000
1000
0000
,
0100
0010
0001
1000
0100
0010
0001
1000
,
0100
0010
0001
1000
0100
0010
0001
0000
,
0010
0001
1000
0010
1000
0000
1001
0010
0101
0010
0100
0000
1001
0010
0100
1000
,
0100
0000
0000
1000
0010
0100
0010
0001
1000
0100
0010
0002
0000
1000
0000
0203
,
0000
0300
0000
1001
0000
0000
0010
0100
0000
0001
0000
0010
0001
0010
0000
0001
,
0000
1000
0100
0010
0000
1001
0000
0010
0000
0100
0000
1001
0000
0001
0000
0110
,
0000
1000
0000
0000
1000
0000
0001
0000
0000
0000
0010
0000
0100
0000
0010
0000
,
0000
0001
1000
0000
0000
0100
0010
0100
,
0001
0000
1000
0010
0001
0010
0001
1000
0100
0010
0002
0003
0000
0000
0100
0000
,
0110
0010
0000
0002
0003
2000
3000
0000
,
0220
0000
0330
0000
2002
0000
3003
0000
0000
0000
0000
0000
0010
0001
0010
0000
,
2000
0000
3100
0010
0001
0000
0100
0010
0001
0000
1000
0000
1000
0000
1000
0000
,
1000
0000
0000
0000
0001
0000
0000
0000
0010
0000
0000
0000
1000
0100
0001
0000
,
0020
1030
0100
0010
0100
0000
0010
0002
,
0100
0000
1000
0000
0000
0010
0000
0000
0000
1000
0000
0000
0003
0000
0000
0000
,
1000
0000
0000
0000
0000
0010
0000
0000
0000
0001
0000
0100
0000
0000
0000
0001
,
0000
0020
0000
0000
0000
0001
0000
0000
0000
1000
0000
0030
0000
0010
0000
0000
,
0000
0100
0000
0000
0000
0010
0000
0100
0000
0000
0000
0110
0001
0000
0000
1000
,
0000
0110
0000
0000
0000
0010
0000
0200
0000
0000
0300
0000
0000
0000
1010
0000
,
0022
0000
0033
0000
0220
0330
0000
0000
0022
0033
0000
0000
2020
3030
0101
0000
,
0000
1001
0000
2002
3003
0000
0100
0001
,
0010
0000
2002
0000
0010
0000
3100
0000
0000
0000
0100
0010
1000
0000
0010
0000
,
0013
0100
0001
0010
2000
0000
0000
0000
,
3002
0000
0023
0000
,
2030
0000
0000
3000
0101
0010
1000
0001
,
0000
0010
0010
0000
0000
0200
0000
0000
0000
0000
0300
1001
0000
0000
0010
0100
,
0000
0000
0001
0010
0000
0100
0000
0001
0000
0100
0001
0000
0000
1000
0010
0000
,
0000
0001
0100
0000
0000
1000
0000
0110
0000
1001
0000
0000
0000
0010
0000
0001
,
0000
1000
0000
0100
0000
0001
0000
0100
0000
0001
0000
0000
0002
0000
0000
0010
,
0000
0100
0000
1000
0000
0100
0000
0010
0000
0100
0000
1000
0000
0100
0003
0010
,
0000
1000
0001
0000
1001
0000
1000
0000
0001
0000
1000
0000
0001
0000
1000
0000
,
0001
1000
0001
1000
0001
1000
0001
1000
,
0000
0000
0220
0000
0330
0000
1000
0100
0010
0001
0010
0000
1000
0100
0010
0001
,
0010
0000
0010
0001
1000
0001
0010
1000
0001
0010
0001
0100
1000
0100
1000
0001
,
0100
1000
0020
0000
0000
0100
0031
0000
0010
0000
1000
0010
0100
0000
0001
0000
,
0010
0001
0000
0010
0100
1000
0010
1000
0100
0000
0001
0010
0100
0000
1010
0000
,
0010
0000
1000
0100
0001
0000
0010
0000
0001
0000
0100
0000
1000
0000
0001
0000
,
0010
1000
0001
0100
0010
1000
0001
0100
,
0010
0000
0000
0000
1000
0000
0000
0000
0001
0100
0010
0001
0000
0000
0001
0010
0100
1000
0001
0000
0100
1000
0100
0010
0001
0000
0000
0000
1000
0000
0001
0000
,
1000
0001
1000
0001
1000
0001
1000
0000
2000
0000
3002
0000
0000
0003
1000
0000
,
0000
0010
0100
0000
0001
0000
0010
0100
0010
0000
0001
0000
1000
0000
0010
0000
,
0001
0000
0001
0000
0010
0000
0100
0000
1000
0000
0001
0000
0100
0000
0001
0100
,
1000
1000
0100
0001
0010
0000
1000
0000
,
0100
0000
2002
3003
0000
0000
0010
0001
,
0010
0000
0000
0000
1000
0000
0000
0000
0100
0000
0000
0000
0002
0000
0000
0000
0000
0003
0000
0000
0110
0000
0000
0000
0110
0000
0000
0000
0000
0000
0000
0000
,
1001
0000
0000
0000
1001
0000
0000
0000
0001
1000
0000
0000
0110
0000
0100
0000
,
1001
0000
0010
0000
0000
0000
0220
0000
0000
0000
0330
0000
0000
0100
0020
0000
,
0000
0100
0000
0000
0000
0100
0000
0000
0000
0000
0031
0100
0000
0000
0000
0010
,
0000
1000
0000
0000
0000
2002
0000
0000
0000
3113
0000
0000
0000
1001
0000
0000
,
0000
0110
0000
0000
0000
1001
0000
0000
0000
0011
0000
0000
0000
1010
0000
0000
,
0000
0101
0000
0022
0000
0000
0033
0000
0000
0000
0000
1000
0000
0020
0000
0000
,
0000
0100
0030
0000
0000
0200
0000
0000
0300
0000
0000
0000
0000
1001
0000
0000
,
0000
1001
0000
0000
0000
1001
0000
0000
0100
0000
1000
0000
0001
0000
0010
0000
,
1000
0200
0300
0010
0001
0010
0100
1000
,
0100
0000
0020
0000
0000
0030
0000
0000
1000
0000
0010
0000
0100
0000
0010
0000
,
0010
0100
2002
0000
3003
0110
0000
1001
,
0000
0110
2002
3003
0020
0001
0000
1000
,
0000
0000
0100
0030
0000
1000
0001
1000
0000
0001
0000
1000
0010
0000
0000
1000
,
0001
0000
0000
2000
0000
0000
0000
0000
0000
3000
0000
0100
0000
0001
0000
2020
,
0000
0000
3000
0100
0000
0000
0000
0100
0000
0000
0000
0001
0000
0000
0000
0100
,
0000
0000
0000
2032
0000
0000
0000
0000
0000
0010
0000
0100
0000
0000
3003
0000
,
0000
0000
0000
0020
0000
0000
0000
0000
0000
1000
0000
0100
0000
0000
0000
0000
,
0000
0030
0000
2000
0000
0000
0000
0000
0000
0001
0000
0010
0000
0000
0000
0000
,
0000
0002
3000
0100
0000
0010
0000
0000
0000
0100
0000
1000
0003
0000
0000
0000
,
0000
1001
0100
0010
0001
0100
0000
0000
,
1000
0002
0000
0000
1000
0100
0010
0100
,
1010
0003
0000
0000
1000
0000
0001
0000
1000
0000
0001
0000
1000
0000
0001
0000
,
1000
0001
1000
0001
1000
0001
0000
1001
,
0000
2002
0000
0000
3003
0000
0000
0000
;

//---------------dance-single - ----------------
#NOTES:
     dance-single:
     :
     Easy:
     5:
     0.176,0.203,0.000,0.131,0.006,353.000,0.000,42.000,0.000,0.000:
0000
0100
0010
0001
0100
1000
0001
0100
,
0010
1000
1000
0010
0010
0100
0001
1000
,
0000
0010
0001
1000
1000
0010
1000
0010
,
1000
0010
0100
0100
0010
0100
0100
0100
,
0000
0100
0000
0010
0000
1000
0000
0001
,
0000
0100
0000
0001
0000
0001
0000
0001
,
0100
0010
0100
0100
0001
0001
0100
0010
,
0100
0000
1000
0001
0010
0001
2000
0000
,
3000
0000
0001
0010
0001
0100
0001
0100
,
0100
0001
0100
0010
0010
0010
0001
0100
,
0100
0010
0000
0010
0000
0010
0000
0100
,
0000
0001
0000
1000
0000
0010
0000
1000
,
0000
1000
0010
0001
0010
2000
3000
0100
,
0100
0001
0000
2000
3000
0002
0003
0000
,
0200
0300
2000
3000
0000
0000
0100
0100
,
0002
0003
0001
1000
0010
0010
1000
0010
,
0100
0000
0010
0000
0100
0000
0001
0001
,
0200
0300
0001
1000
0001
0000
0001
2000
,
0000
0000
0000
3000
,
0100
0000
0000
0001
0000
0100
0001
0000
,
1000
0200
0000
0000
0000
0000
0300
0010
,
0000
0010
0000
0010
1000
0000
0010
0000
,
0100
0001
0000
0100
0020
0030
0000
0010
,
2000
3000
0200
0300
2000
3000
0200
0300
,
0000
0100
0000
2000
3000
0000
1000
0001
,
0001
2000
0000
0000
0000
0000
0000
0000
,
3000
0100
1000
0100
0002
0000
0000
0000
,
0003
0000
0200
0000
,
0300
0000
0000
0000
1000
0100
0100
0001
,
0000
0001
0000
0020
0000
0030
0100
1000
,
0100
0010
1000
1000
1000
0010
0000
0010
,
0000
0010
0000
1000
0100
0001
0000
1000
,
0100
0100
0010
0010
0010
0001
2000
0000
,
0000
0000
0000
0000
0000
0000
0000
3000
,
1000
1000
0100
0100
0010
0001
0010
0001
,
1000
0010
0001
1000
0100
1000
0100
0100
,
0000
0200
0300
0001
0100
1000
0100
1000
,
0001
1000
0001
0010
0100
0010
1000
1000
,
0001
0200
0000
0300
1000
0001
0100
0001
,
0100
1000
1000
0001
0010
0100
0010
0001
,
1000
0010
1000
0000
0001
0000
1000
0000
,
1000
0001
0010
0001
,
0001
0000
0000
0000
0010
1000
0100
0010
0001
1000
0001
0010
1000
0000
0001
0000
,
0100
0001
1000
0010
0002
0003
0000
0001
,
0000
0001
0100
0001
1000
1000
0001
0010
,
1000
0100
1000
0010
1000
0001
1000
0010
,
0001
0010
1000
1000
1000
0000
1000
0000
,
0001
2000
3000
0010
,
1000
0000
1000
0000
0000
0001
0001
0000
,
1000
0000
0001
0000
0010
0010
0010
0001
,
0100
0001
0000
0200
0000
0300
0000
0200
,
0000
0000
0000
0000
0000
0300
1000
0000
,
0010
0100
0000
2000
0000
3000
0000
0100
,
0000
0001
0000
0001
0000
0100
0000
1000
,
0000
0100
2000
3000
0000
0000
0100
0200
,
0000
0300
0000
0020
0030
0000
0000
0001
,
0000
0001
0000
0001
1000
1000
1000
1000
,
1000
0020
0030
0100
0001
0010
0001
0001
,
0001
0200
0000
0300
0001
1000
0001
0010
,
0001
0001
2000
0000
3000
0010
0000
0100
,
0000
0100
2000
3000
0200
0000
0000
0000
,
0000
0000
0300
0010
0100
1000
1000
0000
,
1000
0000
0002
0000
0000
0003
0100
0001
,
0200
0000
0000
0000
,
0000
0000
0300
0000
0000
0100
0001
0000
,
0000
0200
0000
0000
,
0000
0300
0002
0000
0000
0000
0000
0000
,
0000
0003
1000
1000
0000
1000
0001
0000
,
0000
0001
0001
0001
0100
0010
0000
0000
,
1000
2000
0000
0000
0000
0000
0000
0000
,
0000
3000
0010
0100
0100
0001
1000
0001
,
0001
0010
0001
0001
1000
0001
0000
0001
,
0000
2000
0000
0000
3000
0000
0000
0000
;

//---------------dance-single - ----------------
#NOTES:
     dance-single:
     :
     Beginner:
     1:
     0.040,0.067,0.006,0.016,0.000,82.000,2.000,5.000,0.000,0.000:
0000
1000
0000
0001
,
1000
0001
1000
0001
,
0000
0000
0000
0000
,
0000
0000
1000
0001
,
0000
0000
0000
0000
0000
0010
0000
0000
,
0000
0000
0000
0000
0000
0100
0000
0000
,
0001
0000
1000
0000
,
0001
0000
1000
0000
,
0000
0100
0000
0000
,
0000
0000
0000
0010
,
0000
0000
0000
0001
0000
0000
0000
0000
,
0000
0000
0000
1000
0000
0000
0000
0001
,
0000
0000
1001
0000
,
0000
0000
0000
0000
,
0000
0010
0000
0000
,
0000
0100
0001
0000
,
0200
0000
0000
0000
,
0000
0000
0000
0000
,
0000
0000
0301
0000
,
0000
0000
0000
0000
,
0000
0000
1000
0000
,
0000
0000
0000
0000
,
0100
0001
0000
0000
,
1000
0100
0000
0000
,
0000
0000
0000
0000
,
0001
0100
0000
0000
,
0010
1000
0002
0000
,
0000
0000
0000
0000
,
0000
0000
0003
0000
,
1000
0000
0000
0000
,
0010
0000
0000
0000
,
0001
0000
0000
0000
,
0100
0000
0000
0000
,
1000
0000
0000
0000
,
0000
0001
0000
0000
,
0000
0000
0000
0000
,
0000
0001
1000
0000
,
0001
0000
0000
0000
,
0000
1000
0000
0001
,
0000
0000
0000
0000
,
1000
0000
0000
0001
,
0000
0000
0000
1000
,
0000
0000
0000
0001
0000
1000
0000
0000
,
0001
0000
1000
0100
,
0001
2000
0000
0000
,
0000
0000
0000
0000
,
0000
0000
0000
0000
,
0000
0000
0000
0000
,
0000
0000
3000
0000
,
0000
0000
0001
0000
,
0000
0000
0100
0000
,
0000
0000
0000
0001
,
0000
1000
0000
0000
,
0000
0000
0000
0100
,
0001
0000
0000
1000
,
0000
0010
0000
0010
,
0001
0100
0000
0000
,
0000
0000
1000
0100
,
0001
0000
0000
1000
,
0010
0000
0000
0001
,
0010
0001
0000
0000
,
0000
1000
0000
0001
,
1000
0000
0000
0000
,
0000
0100
0000
0002
,
0000
0000
0000
0000
,
0000
0000
0000
0000
,
0000
0003
0000
0000
,
0000
0000
0000
0000
,
2000
0000
0000
0000
,
0000
0000
0000
0000
,
0000
3000
0000
0000
,
0000
0000
0000
0000
,
1001
0000
0000
0000
;
