#TITLE:Beyond the Earth;
#SUBTITLE:;
#ARTIST:Nekomata Master;
#TITLETRANSLIT:;
#SUBTITLETRANSLIT:;
#ARTISTTRANSLIT:;
#CREDIT:;
#BANNER:beyond the earth.png;
#BACKGROUND:beyond the earth-bg.png;
#LYRICSPATH:;
#CDTITLE:!boombaTitle.png;
#MUSIC:Beyond the Earth.mp3;
#OFFSET:-1.479;
#SAMPLESTART:44.000;
#SAMPLELENGTH:12.000;
#SELECTABLE:YES;
#BPMS:0.000=140.000;
#STOPS:;
#BGCHANGES:;
// cache tags:
#FIRSTBEAT:0.000;
#LASTBEAT:307.000;
#SONGFILENAME:Songs/Fresh Flock of Fantastic Files F4/(b00mba) Beyond the Earth/Beyond the Earth.sm;
#HASMUSIC:1;
#HASBANNER:1;
#MUSICLENGTH:134.692;
// end cache tags

//---------------dance-single - ----------------
#NOTES:
     dance-single:
     :
     Hard:
     11:
     1.000,1.000,1.000,0.104,1.000,845.000,190.000,14.000,0.000,0.000:  // measure 1
0010
0000
0000
0000
2001
0000
3000
0010
,  // measure 2
0101
0000
0000
0000
1001
0000
0000
0000
0000
0000
0010
0001
0100
0000
0000
0000
1001
0000
0000
0000
0110
0000
0000
0000
0011
0000
0000
0000
1001
0000
0000
0000
,  // measure 3
1100
0000
0000
0000
0100
0000
0000
0000
1010
0000
0000
0000
0101
0000
0000
0000
0011
0000
0000
0000
0000
0000
1000
0001
0100
0000
0000
0000
0011
0000
0000
0000
,  // measure 4
1100
0000
0000
0000
0000
0000
0010
0100
0001
0000
0000
0000
0101
0000
0000
0000
0011
0000
0000
0000
0000
0000
0001
0100
0010
0000
0000
0000
0110
0000
0000
0000
,  // measure 5
1100
0000
0000
1100
0000
0000
1100
0000
1000
0100
0010
0001
2100
3010
1000
0001
,  // measure 6
0110
0000
0000
0000
1001
0000
0000
0000
0000
0000
0100
1000
0001
0000
0000
0000
0011
0000
0000
0000
1100
0000
0000
0000
0101
0000
0000
0000
0011
0000
0000
0000
,  // measure 7
1100
0000
0000
0000
1000
0000
0000
0000
0101
0000
0000
0000
0011
0000
0000
0000
0101
0000
0000
0000
0000
0000
1000
0100
0010
0000
0000
0000
0101
0000
0000
0000
,  // measure 8
0021
0000
0000
0000
0000
0000
0000
0000
0000
0000
0030
0000
0000
0000
1000
0100
0010
0000
0000
0000
0000
0000
0010
0001
0100
0000
0000
0000
0000
0000
0100
0000
,  // measure 9
0110
0000
0000
0110
0000
0000
0110
0000
0020
0000
1030
0100
0011
0100
1000
0010
,  // measure 10
0101
0000
0000
0000
1001
0000
0000
0000
0000
0000
0010
0001
0100
0000
0000
0000
0011
0000
0000
0000
1001
0000
0000
0000
2100
0000
3000
0000
0110
0000
0000
0000
,  // measure 11
1001
0000
0000
0000
0100
0000
0000
0000
1001
0000
0000
0000
0011
0000
0000
0000
0101
0000
0000
0000
0000
0000
0010
0001
0100
0000
0000
0000
0011
0000
0000
0000
,  // measure 12
1100
0000
0000
0000
0000
0000
1000
0100
0010
0000
0000
0000
0110
0000
0000
0000
1100
0000
0000
0000
0000
0000
1000
0001
0010
0000
0000
0000
0101
0000
0000
0000
,  // measure 13
0110
0000
0000
0110
0000
0000
0110
0000
1000
0001
0010
0100
1002
0013
1000
0001
,  // measure 14
0110
0000
0000
0000
0101
0000
0000
0000
0000
0000
0010
1000
0001
0000
0000
0000
0101
0000
0000
0000
1010
0000
0000
0000
2100
0000
3000
0000
0110
0000
0000
0000
,  // measure 15
1001
0000
0000
0000
1000
0000
0000
0000
0101
0000
0000
0000
1100
0000
0000
0000
0011
0000
0000
0000
0000
0000
1000
0100
0010
0000
0000
0000
0101
0000
0000
0000
,  // measure 16
0012
0000
0000
0000
0000
0000
0000
0000
0000
0000
0003
0000
0000
0000
0100
1000
0010
0000
0000
0000
0000
0000
0010
0100
0001
0000
0000
0000
0010
0000
0000
0000
,  // measure 17
1001
0000
0000
0000
0000
0000
0000
0000
0000
1001
0000
0000
0000
0000
0000
0000
0000
0000
1001
0000
0000
0000
0000
0000
0000
0000
0000
0000
1000
0000
0001
0000
1000
0000
0001
0000
0220
0000
0000
0000
0000
0000
0330
0000
0000
0000
0000
0000
,  // measure 18
1001
0100
0010
1001
0100
1000
0010
0100
0001
1000
0010
1000
0110
0001
1000
0100
,  // measure 19
0011
0100
1000
0010
0100
0001
1000
0010
1000
0100
0010
0001
1000
0010
0100
0001
,  // measure 20
1010
0001
1000
0110
0001
1000
0100
1000
0010
0100
0001
1000
0010
1000
0001
0100
,  // measure 21
1010
0001
1100
0001
0010
0100
1001
0010
0101
0010
1000
0100
0010
0001
1000
0100
,  // measure 22
0011
0100
1000
0110
0001
1000
0010
1000
0100
0010
0001
1000
0110
0001
0100
0010
,  // measure 23
1001
0010
1000
0100
0010
0001
1000
0010
0100
0001
0010
0001
0100
0001
0010
0100
,  // measure 24
1001
0010
0100
0101
0010
1000
0001
1000
0100
0010
0001
0010
0100
1000
0010
0100
,  // measure 25
1001
0010
1001
0100
1000
0100
0011
0100
1001
0100
0010
0001
1000
0100
0010
0100
,  // measure 26
1001
0000
0010
0000
1000
0000
0100
0010
0001
0000
0100
0000
0001
0000
0010
0100
,  // measure 27
1000
0000
0010
0000
1000
0000
0100
1000
0010
0000
1000
0000
1100
0000
0000
0001
,  // measure 28
0101
0000
1000
0000
0010
0000
0001
0100
0010
0000
1000
0000
0010
0000
1000
0001
,  // measure 29
0100
0000
0001
0000
1000
0000
0001
0000
0010
0000
1000
0000
0101
0000
0010
0001
,  // measure 30
0110
0000
1000
0000
0100
0000
0001
0010
0100
0000
1000
0000
0100
0000
0010
1000
,  // measure 31
0001
0000
0100
0000
0001
0000
0100
1000
0001
0000
1000
0000
0010
0000
0000
0001
,  // measure 32
0011
0000
1000
0000
0100
0000
0010
0000
0001
0000
0100
0000
0010
0000
1000
0100
,  // measure 33
0010
1000
0001
0100
0001
0010
0001
1000
0100
1000
0001
1000
0110
0000
0010
0000
,  // measure 34
0101
0000
0000
0000
0110
0000
0000
0000
0000
0000
1000
0100
0010
0000
0000
0000
0101
0000
0000
0000
0011
0000
0000
0000
1001
0000
0000
0000
1010
0000
0000
0000
,  // measure 35
1100
0000
0000
0000
0010
0000
0000
0000
1001
0000
0000
0000
1100
0000
0000
0000
1010
0000
0000
0000
0000
0000
0100
1000
0010
0000
0000
0000
0011
0000
0000
0000
,  // measure 36
1001
0000
0000
0000
0000
0000
1000
0001
0100
0000
0000
0000
1001
0000
0000
0000
0110
0000
0000
0000
0000
0000
0100
0010
1000
0000
0000
0000
1001
0000
0000
0000
,  // measure 37
0011
0000
0000
0011
0000
0000
0011
0000
1000
0001
0010
0100
2010
3001
0100
0010
,  // measure 38
1001
0000
0000
0000
0110
0000
0000
0000
0000
0000
0100
0010
1000
0000
0000
0000
0011
0000
0000
0000
1001
0000
0000
0000
1100
0000
0000
0000
1010
0000
0000
0000
,  // measure 39
0101
0000
0000
0000
0010
0000
0000
0000
0101
0000
0000
0000
1010
0000
0000
0000
1001
0000
0000
0000
0000
0000
0100
0001
0010
0000
0000
0000
1010
0000
0000
0000
,  // measure 40
2001
0000
0000
0000
0000
0000
0000
0000
3000
0000
0000
0000
0000
0000
1000
0001
0010
0000
0000
0000
0000
0000
0010
0100
0001
0000
0000
0000
0001
0000
0000
0000
,  // measure 41
1010
0000
0000
1010
0000
0000
1010
0000
0200
0000
0300
0010
1001
0000
0100
0000
,  // measure 42
0010
0010
1000
0100
0010
0001
1000
0000
0001
1000
0001
0010
0100
1000
0001
0100
,  // measure 43
0010
0010
0100
0001
1000
0001
1000
0000
0100
0010
0100
1000
0100
0010
0001
1000
,  // measure 44
0010
0010
1000
0001
0100
0001
0010
0000
0001
0100
0010
1000
0001
0010
0100
1000
,  // measure 45
0001
0001
1000
0100
0010
0001
0010
0000
0100
1000
0100
0010
0100
1000
0100
0010
,  // measure 46
1001
0000
0100
1001
0000
0000
1000
0100
0011
0000
0100
0011
0000
0000
1000
0100
,  // measure 47
1001
0000
0010
1001
0000
0000
1000
0001
0100
0001
0010
0001
0100
0010
1000
0001
,  // measure 48
0110
0000
0001
0110
0000
0000
1000
0100
1001
0000
1000
0110
0000
0000
0000
0000
,  // measure 49
1010
0000
0000
0000
0000
0000
0000
0000
0000
0000
0000
0000
0000
0000
0000
0000
1100
0000
0000
0000
0000
0000
0000
0000
0000
0000
0000
0000
0000
0000
0000
0000
1010
0000
0000
0000
0000
0000
0000
0000
0000
0000
0000
0000
0000
0000
0000
0000
1001
0000
0000
0000
0000
0000
0000
0000
0000
0000
0000
0000
0000
0000
0000
0000
0110
0000
0000
0000
0000
0000
0000
0000
0000
0000
0000
0000
0000
0000
0000
0000
0000
0000
0000
0000
0000
0000
0000
0000
0000
0000
0000
0000
0000
0000
0000
0000
1001
0000
0000
0000
0000
0000
0000
0000
0000
0000
0000
0000
0000
0000
0000
0000
0000
0000
0000
0000
0000
0000
0000
0000
0000
0000
0000
0000
0000
0000
0000
0000
0000
0000
0000
0000
1000
0000
0000
0000
0000
0000
0100
0000
0000
0000
0000
0000
0020
0000
0000
0000
0000
0000
0000
0000
0000
0000
0000
0000
0000
0000
0000
0000
0000
0000
0000
0000
0000
0000
0000
0000
0030
0000
0000
0000
0000
0000
0000
0000
0000
0000
0000
0000
0000
0000
0000
0000
0000
0000
0000
0000
0000
0000
0000
0000
,  // measure 50
1001
0100
0010
0001
1000
0100
1000
0001
0010
0001
0100
0001
0010
0001
0100
0010
,  // measure 51
1000
0100
0010
0100
1000
0010
1000
0001
0100
0001
0010
0001
0100
0010
1000
0001
,  // measure 52
0010
0100
1000
0001
0100
0010
0100
0001
0010
0001
0100
0010
1000
0001
0010
0100
,  // measure 53
1000
0010
0100
0001
1000
0100
0010
0001
0100
0010
1000
0001
0010
0100
1000
0001
,  // measure 54
0110
0001
1000
0100
0010
0001
1000
0001
1000
0001
0100
0001
0010
0001
0100
0010
,  // measure 55
1000
0100
1000
0010
0100
0001
0010
0001
0100
0010
1000
0001
0010
0100
1000
0100
,  // measure 56
1000
0010
1000
0001
0100
0001
0010
0001
0100
0010
1000
0001
1000
0100
0010
0100
,  // measure 57
1001
0000
0000
0000
0000
0000
0000
0000
0110
0000
0000
1001
0000
0000
1000
0100
,  // measure 58
1001
0000
0001
0000
1000
0000
0010
0100
0001
0000
0010
0000
0100
0000
1000
0010
,  // measure 59
0100
0000
0001
0000
1000
0000
0100
0010
0001
0000
1100
0000
1010
0000
0000
0001
,  // measure 60
0101
0000
0001
0000
1000
0000
0100
0010
0001
0000
1000
0000
0010
0000
0100
0010
,  // measure 61
1000
0000
0100
0000
0010
0000
0100
0000
1000
0000
0010
0000
1001
0000
0100
0010
,  // measure 62
1100
0000
0001
0000
1000
0000
0100
0010
0001
0000
0100
0000
0010
0000
1000
0001
,  // measure 63
0010
0000
0100
0000
1000
0000
0010
0100
0001
0000
1100
0000
0011
0000
0000
0100
,  // measure 64
1100
0000
0010
0000
1000
0000
0010
0000
0100
0000
0001
0000
1000
0000
0100
0010
,  // measure 65
0100
1000
0001
0100
0010
1000
0100
0010
0001
0100
0010
1000
0100
0010
0001
0100
,  // measure 66
1010
0000
0001
0000
1000
0000
0100
0010
0001
0000
0100
0000
0010
0000
0100
0001
,  // measure 67
0010
0000
0100
0000
1000
0000
0010
0100
0001
0000
1100
0000
0011
0000
0000
0001
,  // measure 68
0101
0000
0001
0000
1000
0000
0100
0010
0100
0000
1000
0000
0010
0000
0001
0100
,  // measure 69
0010
0000
1000
0000
0100
0000
0010
0000
0001
0000
1000
0000
1001
0000
0001
1000
,  // measure 70
0110
0000
0100
0000
0001
0000
0010
0001
0100
0000
0010
0000
1000
0000
0100
0001
,  // measure 71
1000
0000
0100
0000
0001
0000
0010
0100
1000
0000
0110
0000
0101
0000
0000
0010
,  // measure 72
1010
0000
0100
0000
1000
0000
0100
0000
0010
0000
0001
0000
0100
0000
0010
0100
,  // measure 73
0001
0010
0001
0100
0010
1000
0100
0010
0001
1000
0010
0100
0001
1000
0100
0010
,  // measure 74
1001
0000
0100
1100
0000
0000
0001
0000
0011
0000
0001
0011
0000
0000
0001
0000
,  // measure 75
0101
0000
0001
1001
0000
0000
1100
0000
1010
0000
0001
0110
0000
0000
0100
1000
,  // measure 76
0011
0000
0001
0101
0000
0000
0010
0000
1100
0000
0100
1100
0000
0000
0001
0000
,  // measure 77
0011
0000
0001
0101
0000
0000
0100
0010
1100
0011
0000
0000
1001
0000
0000
0000
;
