#TITLE:Murmuring Magical Girl Rimuru;
#SUBTITLE:;
#ARTIST:DJ Sharpnel feat. Mirai;
#TITLETRANSLIT:;
#SUBTITLETRANSLIT:;
#ARTISTTRANSLIT:;
#CREDIT:;
#BANNER:Magical Girl Rimuru - bn.png;
#BACKGROUND:Magical Girl Rimuru - bg.png;
#LYRICSPATH:;
#CDTITLE:gpopcdtitle.png;
#MUSIC:Murmuring Magical Girl Rimuru.ogg;
#OFFSET:0.000;
#SAMPLESTART:56.848;
#SAMPLELENGTH:20.210;
#SELECTABLE:YES;
#BPMS:0.000=190.000;
#STOPS:;
#BGCHANGES:;
// cache tags:
#FIRSTBEAT:3.000;
#LASTBEAT:394.250;
#SONGFILENAME:Songs/SHARPNELSTREAMZ v2/Murmuring Magical Girl Rimuru/Murmuring Magical Girl Rimuru.sm;
#HASMUSIC:1;
#HASBANNER:1;
#MUSICLENGTH:126.525;
// end cache tags

//---------------dance-single - 14 (Gpop)----------------
#NOTES:
     dance-single:
     14 (Gpop):
     Challenge:
     14:
     1.000,1.000,0.221,0.182,1.000,1131.000,28.000,23.000,22.000,0.000:
0000
0000
0000
0000
0000
0000
0000
0000
0000
0000
0000
0000
1000
0001
1000
0001
,
1000
0000
0010
0100
0001
0000
0010
0000
0000
0000
0100
0000
1000
0000
0010
0100
,
0001
0000
0100
0010
1000
0000
0100
0010
0001
1000
0001
1000
0010
0100
0001
0100
,
0010
0000
1000
0100
0010
0000
0001
0000
0000
0000
1000
0000
0010
0000
0100
0001
,
1000
0000
0100
0010
0001
0000
0010
0100
1000
0001
1000
0001
0100
0010
1000
0010
,
0100
0000
0001
1000
0100
0000
0010
0000
0000
0000
0001
0000
1000
0000
0010
0100
,
0001
0000
0100
0010
1000
0000
0001
0100
0010
1000
0010
1000
0001
0010
0100
1000
,
0001
0000
0010
0100
1000
0000
0001
0000
0000
0000
0100
0000
0010
0000
1000
0100
,
0010
0000
0001
1000
0001
0000
1000
0001
1000
0010
0100
0010
1000
0000
0000
0000
,
0011
0000
0001
0010
0100
0000
1000
0000
0000
0000
0001
0000
0100
0000
0001
1000
,
0100
0000
0010
0001
1000
0000
0010
0100
0001
0010
0001
0010
0100
1000
0001
1000
,
0010
0000
0100
0001
1000
0000
0100
0000
0000
0000
0010
0000
0100
0000
1000
0010
,
0100
0000
0001
0100
0010
0000
1000
0100
0010
0001
0010
0001
1000
0010
0100
0001
,
1000
0000
0100
0010
0001
0000
0100
0000
0000
0000
0010
0000
1000
0000
0001
0100
,
0010
0000
1000
0100
0010
0000
0001
0010
0100
1000
0100
1000
0001
0100
0010
1000
,
0001
0000
0010
0100
1000
0000
0001
0000
0000
0000
0100
0000
0010
0000
1000
0100
,
0010
0000
0001
1000
0001
0000
1000
0010
0100
0001
0100
0001
1000
0000
0000
0000
,
2002
0000
0000
3003
,
1100
1000
0011
0001
1010
1000
0012
0000
,
1003
0000
0010
0100
0001
0000
1000
0000
0100
0010
0000
0010
0001
1000
0001
1000
,
0010
0000
0000
0100
0000
0000
0001
0000
0000
0000
0000
0000
1000
0000
0000
0100
0000
0000
0000
0000
0010
0000
0000
0000
0001
0000
0000
1000
0000
0000
0010
0000
0000
1000
0000
0000
0001
0000
0000
0010
0000
0000
0000
0000
0000
0100
0000
0000
,
1000
0001
1000
0010
0100
0000
0001
0000
1000
0100
0010
0100
0010
0001
0010
0001
,
1000
0010
0100
0010
1000
0001
0000
0010
0100
1000
0100
0000
0010
0000
0002
0000
,
1003
0010
0100
0001
0100
0010
1000
0000
0001
0010
0000
0010
0100
1000
0001
0100
,
0001
0000
0000
0000
1000
0000
0000
0000
0000
0100
0000
0000
0010
0000
0000
0001
0000
0000
1000
0000
0000
0001
0000
0000
1000
0000
0000
0010
0000
0000
0100
0000
0000
0001
0000
0000
1000
0000
0000
0000
0000
0000
0100
0000
0000
0000
0000
0000
,
1000
0001
0010
0100
0010
0001
0100
0010
2000
0000
3002
0000
2003
0000
3020
0000
,
0130
0000
0010
1000
0000
1000
0001
0000
1001
0000
0000
0000
0110
0000
0000
0000
,
1000
0100
0010
0100
100M
0000
0010
0000
0100
0000
0010
0000
100M
0000
0100
0000
,
0010
0100
1000
0100
001M
0000
0100
0000
1000
0000
1000
0000
001M
0000
0100
0000
,
0001
0100
0001
1000
01M0
0000
1000
0001
0010
0001
1000
0000
00M1
0000
0100
0001
,
1000
0000
0100
0000
10M0
0001
0100
0000
0010
1000
0001
1000
01M0
0000
1000
0000
,
0002
0000
0000
0000
1M03
0010
1000
0001
0100
0010
1000
0010
1M00
0000
0001
0000
,
0100
0001
1000
0001
0M10
0001
1000
0001
1000
0010
1000
0001
0M10
0001
1000
0000
,
0010
0100
0010
0100
M001
0010
0000
0100
1000
0001
0100
0000
M010
0000
0100
0000
,
0001
0010
0100
0010
M001
0100
0010
0100
0001
0000
0010
0100
M040
0000
0000
0000
,
0031
0000
0001
1000
0000
1000
0010
0000
,
0110
0000
0100
0001
0000
0001
0010
0000
,
0110
0000
0100
1000
0000
1000
0010
0000
,
0110
0000
0100
0001
0000
0001
1000
0100
,
1100
0000
1000
0100
0000
0010
0001
0100
,
0001
0000
1000
0020
0000
0000
0130
0001
,
1000
0000
0100
0010
0000
0001
1000
0020
,
0100
0000
0000
0100
0000
0000
0100
0000
,
1030
0001
1000
0001
1000
0001
1000
0001
1000
0001
1000
0001
0400
0000
0000
0000
,
0310
0000
1000
0010
1000
0000
0010
0100
0020
0000
0000
0000
0230
0000
0000
0000
,
0301
0010
0100
0010
0001
0010
0100
1000
0100
0010
0100
1000
0001
0010
0001
1000
,
0001
0010
0100
1000
0100
0010
0100
0010
0001
1000
0100
1000
0001
0010
0001
1000
,
0001
0100
0010
1000
0010
0100
0001
0100
0001
1000
0010
0100
0010
0100
0010
1000
,
0001
0100
0001
1000
0010
1000
0010
0100
0001
0100
0001
1000
0001
0100
0010
1000
,
0001
0010
0100
0010
0100
1000
0100
0010
0001
0010
0100
0010
0100
1000
0001
0100
,
0001
0100
0010
0100
0001
1000
0001
0100
0010
1000
0010
0100
0001
0100
0001
1000
,
0001
0010
0100
0010
0001
1000
0100
0010
0001
0010
0100
1000
0100
1000
0001
0010
,
0001
0010
0100
1000
0001
0010
0100
1000
0001
0010
0100
1000
0001
0010
0100
1000
,
0001
1000
0001
1000
0001
0100
0010
1000
0010
1000
0001
0100
0001
1000
0001
0100
,
0010
1000
0010
0100
0010
0100
0001
0100
0001
1000
0010
1000
0001
0100
0001
1000
,
0001
0010
0100
0010
0001
0010
0100
1000
0100
1000
0001
0010
0001
1000
0100
1000
,
0001
1000
0001
0010
0100
0010
0100
1000
0001
1000
0001
0010
0100
1000
0001
1000
,
0001
0100
0001
0100
0001
1000
0010
0100
0010
0100
0001
1000
0001
0100
0001
1000
,
0100
0010
0001
0010
0100
1000
0100
0010
0001
0010
0100
0010
0100
1000
0001
1000
,
0001
0100
0001
0100
0010
1000
0001
0100
0001
1000
0001
0100
0010
1000
0001
0100
,
0010
0000
1000
0000
0001
0000
0010
0000
0100
0000
0000
1000
0004
0000
0000
0000
,
1003
0010
0100
0010
1000
0010
0100
0001
0100
0001
1000
0010
1000
0001
0100
0001
,
1000
0010
0100
0001
0100
0010
1000
0010
0100
0010
0100
0001
0100
0001
1000
0010
,
1000
0001
1000
0100
0010
0001
0010
0100
1000
0100
0010
0100
0010
0001
0010
0100
,
1000
0001
0010
0100
0010
0001
1000
0100
1000
0001
0010
0001
0010
0100
1000
0001
,
0100
0001
1000
0010
1000
0001
0100
0010
1000
0010
0100
0001
1000
0001
1000
0100
,
0010
0100
0010
0001
0010
0100
1000
0100
0010
0001
1000
0100
0010
0001
1000
0001
,
0100
0010
1000
0010
0100
0001
1000
0001
0100
0001
0100
0010
1000
0001
0100
0001
,
1000
0010
0100
0001
1000
0010
0100
0001
2000
0000
0000
0000
3002
0000
0000
0000
,
1003
0100
0010
0100
1000
0100
1000
0100
0010
0001
1000
0100
1000
0001
0010
0001
,
1000
0100
0010
0001
1000
0001
1000
0001
0010
0100
1000
0001
1000
0001
1000
0100
,
1000
0001
0100
0001
1000
0010
0100
0010
1000
0010
0100
0001
0100
0001
0100
0010
,
0100
0010
1000
0001
0100
0001
1000
0010
1000
0001
0100
0010
1000
0001
1000
0100
,
0010
0100
1000
0100
0010
0001
0010
0100
0010
0001
0010
0100
1000
0001
1000
0010
,
0100
0010
0100
0001
1000
0001
0100
0010
1000
0001
0100
0001
1000
0010
0100
0001
,
1000
0100
0010
0100
0010
0001
0010
0100
1000
0100
0010
0001
0010
0100
2000
0000
,
0000
3001
0000
0002
0000
1003
0010
0200
,
0010
0310
1010
1000
1001
1001
0000
1200
,
0000
0310
0110
0010
0011
0011
0000
1002
,
0000
0103
0101
0001
1001
1001
0000
2100
,
0000
0000
0001
0000
0001
0000
0001
0000
3001
0000
0200
0000
0310
1000
0010
1000
,
0001
0000
0010
0100
1000
0000
0001
0000
0000
0000
0100
0000
0010
0000
1000
0100
,
0010
0000
0001
0010
0100
0000
1000
0001
0100
0010
0100
0010
1000
0001
0100
0010
,
1000
0000
0100
0010
0001
0000
1000
0000
0000
0000
0100
0000
1000
0000
0010
0100
,
0001
0000
0100
0010
1000
0000
0001
0010
0100
1000
0100
1000
0001
0010
0100
1000
,
0001
0000
0100
0010
1000
0000
0001
0000
0000
0000
1000
0000
0100
0000
1000
0001
,
0100
0000
0010
1000
0001
0000
1000
0001
0010
0100
0010
0100
1000
0001
0100
0010
,
1000
0000
0100
0010
0100
0000
1000
0000
0000
0000
0001
0000
0100
0000
0010
1000
,
0001
0000
0010
0100
0010
0000
0001
1000
0010
0100
0010
0100
0001
0000
0000
0000
,
1100
0000
1000
0100
0010
0000
0100
0000
0000
0000
1000
0000
0001
0000
0100
0010
,
0100
0000
0001
1000
0001
0000
0010
0100
1000
0001
1000
0001
0100
0010
1000
0001
,
0100
0000
0010
1000
0001
0000
0010
0000
0000
0000
0100
0000
1000
0000
0001
0010
,
0100
0000
0010
0001
1000
0000
0010
0100
0001
1000
0001
1000
0100
0010
0100
1000
,
0001
0000
1000
0001
0100
0000
0010
0000
0000
0000
1000
0000
0001
0000
1000
0100
,
1000
0000
0001
0100
0001
0000
0100
0010
0100
0001
0100
0001
1000
0001
1000
0100
,
0010
0000
0001
0010
0100
0000
1000
0000
0000
0000
0001
0000
0100
0000
0010
1000
,
0001
0000
1000
0001
1000
0000
0001
1000
0001
0100
0010
1000
0002
0000
0003
0M00
,
0000
00M0
0M00
0000
0000
0000
0000
0000
,
0000
0000
0000
0000
0000
000M
0000
M000
0000
000M
0000
0000
0000
0000
0000
0000
;

//---------------dance-single - 13 (Gpop)----------------
#NOTES:
     dance-single:
     13 (Gpop):
     Hard:
     13:
     1.000,1.000,0.237,0.285,1.000,979.000,30.000,36.000,22.000,0.000:
0000
0000
0000
0000
0000
0000
0000
0000
0000
0000
0000
0000
1000
0001
1000
0001
,
1000
0000
0010
0100
0001
0000
0010
0000
0000
0000
0100
0000
1000
0000
0010
0100
,
0001
0000
0100
0010
1000
0000
0100
0010
0001
1000
0001
1000
0010
0100
0001
0100
,
0010
0000
1000
0100
0010
0000
0001
0000
0000
0000
1000
0000
0010
0000
0100
0001
,
1000
0000
0100
0010
0001
0000
0010
0100
1000
0001
1000
0001
0100
0010
1000
0010
,
0100
0000
0001
1000
0100
0000
0010
0000
0000
0000
0001
0000
1000
0000
0010
0100
,
0001
0000
0100
0010
1000
0000
0001
0100
0010
1000
0010
1000
0001
0010
0100
1000
,
0001
0000
0010
0100
1000
0000
0001
0000
0000
0000
0100
0000
0010
0000
1000
0100
,
0010
0000
0001
1000
0001
0000
1000
0001
1000
0010
0100
0010
1000
0000
0000
0000
,
0011
0000
0001
0010
0100
0000
1000
0000
0000
0000
0001
0000
0100
0000
0001
1000
,
0100
0000
0010
0001
1000
0000
0010
0100
0001
0010
0001
0010
0100
1000
0001
1000
,
0010
0000
0100
0001
1000
0000
0100
0000
0000
0000
0010
0000
0100
0000
1000
0010
,
0100
0000
0001
0100
0010
0000
1000
0100
0010
0001
0010
0001
1000
0010
0100
0001
,
1000
0000
0100
0010
0001
0000
0100
0000
0000
0000
0010
0000
1000
0000
0001
0100
,
0010
0000
1000
0100
0010
0000
0001
0010
0100
1000
0100
1000
0001
0100
0010
1000
,
0001
0000
0010
0100
1000
0000
0001
0000
0000
0000
0100
0000
0010
0000
1000
0100
,
0010
0000
0001
1000
0001
0000
1000
0010
0100
0001
0100
0001
1000
0000
0000
0000
,
2002
0000
0000
3003
,
1100
1000
0011
0001
1010
1000
0012
0000
,
1003
0000
0010
0100
0001
0000
1000
0000
0100
0010
0000
0010
0001
1000
0001
1000
,
0010
0000
0000
0100
0000
0000
0001
0000
0000
0000
0000
0000
1000
0000
0000
0100
0000
0000
0000
0000
0010
0000
0000
0000
0001
0000
0000
1000
0000
0000
0010
0000
0000
1000
0000
0000
0001
0000
0000
0010
0000
0000
0000
0000
0000
0100
0000
0000
,
1000
0001
1000
0010
0100
0000
0001
0000
1000
0100
0010
0100
0010
0001
0010
0001
,
1000
0010
0100
0010
1000
0001
0000
0010
0100
1000
0100
0000
0010
0000
0002
0000
,
1003
0010
0100
0001
0100
0010
1000
0000
0001
0010
0000
0010
0100
1000
0001
0100
,
0001
0000
0000
0000
1000
0000
0000
0000
0000
0100
0000
0000
0010
0000
0000
0001
0000
0000
1000
0000
0000
0001
0000
0000
1000
0000
0000
0010
0000
0000
0100
0000
0000
0001
0000
0000
1000
0000
0000
0000
0000
0000
0100
0000
0000
0000
0000
0000
,
1000
0001
0010
0100
0010
0001
0100
0010
2000
0000
3002
0000
2003
0000
3020
0000
,
0130
0000
0010
1000
0000
1000
0001
0000
1001
0000
0000
0000
0110
0000
0000
0000
,
1000
0100
0010
0100
100M
0000
0010
0000
0100
0000
0010
0000
100M
0000
0100
0000
,
0010
0100
1000
0100
001M
0000
0100
0000
1000
0000
1000
0000
001M
0000
0100
0000
,
0001
0100
0001
1000
01M0
0000
1000
0001
0010
0001
1000
0000
00M1
0000
0100
0001
,
1000
0000
0100
0000
10M0
0001
0100
0000
0010
1000
0001
1000
01M0
0000
1000
0000
,
0002
0000
0000
0000
1M03
0010
1000
0001
0100
0010
1000
0010
1M00
0000
0001
0000
,
0100
0001
1000
0001
0M10
0001
1000
0001
1000
0010
1000
0001
0M10
0001
1000
0000
,
0010
0100
0010
0100
M001
0010
0000
0100
1000
0001
0100
0000
M010
0000
0100
0000
,
0001
0010
0100
0010
M001
0100
0010
0100
0001
0000
0010
0100
M040
0000
0000
0000
,
0031
0000
0001
1000
0000
1000
0010
0000
,
0110
0000
0100
0001
0000
0001
0010
0000
,
0110
0000
0100
1000
0000
1000
0010
0000
,
0110
0000
0100
0001
0000
0001
1000
0100
,
1100
0000
1000
0100
0000
0010
0001
0100
,
0001
0000
1000
0020
0000
0000
0130
0001
,
1000
0000
0100
0010
0000
0001
1000
0020
,
0100
0000
0000
0100
0000
0000
0100
0000
,
1030
0001
1000
0001
1000
0001
1000
0001
1000
0001
1000
0001
0400
0000
0000
0000
,
0310
0000
1000
0010
1000
0000
0010
0100
0020
0000
0000
0000
0230
0000
0000
0000
,
0301
0010
0100
0010
0001
0010
0100
1000
0100
0010
0100
1000
0001
0010
0001
1000
,
0001
0010
0100
1000
0100
0010
0100
0010
0001
1000
0100
1000
0001
0010
0001
1000
,
0001
0100
0010
1000
0010
0100
0001
0100
0001
1000
0010
0100
0010
0100
0010
1000
,
0001
0100
0001
1000
0010
1000
0010
0100
0001
0100
0001
1000
0001
0100
0010
1000
,
0001
0010
0100
0010
0100
1000
0100
0010
0001
0010
0100
0010
0100
1000
0001
0100
,
0001
0100
0010
0100
0001
1000
0001
0100
0010
1000
0010
0100
0001
0100
0001
1000
,
0001
0010
0100
0010
0001
1000
0100
0010
0001
0010
0100
1000
0100
1000
0001
0010
,
0001
0000
1000
0010
0100
0000
0001
0010
0100
0000
0100
0000
1001
0000
0000
0000
,
0001
1000
0001
1000
0001
0100
0010
1000
0010
1000
0001
0100
0001
1000
0001
0100
,
0010
1000
0010
0100
0010
0100
0001
0100
0001
1000
0010
1000
0001
0100
0001
1000
,
0001
0010
0100
0010
0001
0010
0100
1000
0100
1000
0001
0010
0001
1000
0100
1000
,
0001
1000
0001
0010
0100
0010
0100
1000
0001
1000
0001
0010
0100
1000
0001
1000
,
0001
0100
0001
0100
0001
1000
0010
0100
0010
0100
0001
1000
0001
0100
0001
1000
,
0100
0010
0001
0010
0100
1000
0100
0010
0001
0010
0100
0010
0100
1000
0001
1000
,
0001
0100
0001
0100
0010
1000
0001
0100
0001
1000
0001
0100
0010
1000
0001
0100
,
0010
0000
1000
0000
0001
0000
0010
0000
0100
0000
0000
1000
0004
0000
0000
0000
,
1003
0100
1000
0100
0010
0001
0100
0001
,
1000
0010
0000
0020
0000
0030
0000
0000
,
1000
0001
1000
0001
0100
0010
1000
0010
,
1000
0100
0000
0020
0000
0030
0000
0002
,
0000
1003
0010
0100
0002
0000
0003
2000
,
0000
3010
0100
0010
2000
0000
3000
0000
,
0001
0010
0100
1000
0010
0100
0010
1000
,
0001
0000
0100
0010
1000
0000
0001
0010
0200
0000
0000
0300
2002
0000
0000
3003
,
1000
0010
0100
0010
1000
0100
0010
0001
,
1000
0001
0000
0002
0000
0003
0000
0000
,
1000
0100
1000
0001
0100
0010
1000
0100
,
0010
0001
0000
0020
0000
0030
0000
0200
,
0000
1300
0001
0100
0002
0000
0003
2000
,
0000
3100
0010
0001
2000
0000
3000
0000
,
0010
0100
0001
1000
0100
0010
0100
2000
,
0000
3001
0000
0002
0000
1003
0010
0200
,
0010
0310
1010
1000
1001
1001
0000
1200
,
0000
0310
0110
0010
0011
0011
0000
1002
,
0000
0103
0101
0001
1001
1001
0000
2100
,
0000
0000
0001
0000
0001
0000
0001
0000
3001
0000
0200
0000
0310
1000
0010
1000
,
0001
0000
0010
0100
1000
0000
0001
0000
0000
0000
0100
0000
0010
0000
1000
0100
,
0010
0000
0001
0010
0100
0000
1000
0001
0100
0010
0100
0010
1000
0001
0100
0010
,
1000
0000
0100
0010
0001
0000
1000
0000
0000
0000
0100
0000
1000
0000
0010
0100
,
0001
0000
0100
0010
1000
0000
0001
0010
0100
1000
0100
1000
0001
0010
0100
1000
,
0001
0000
0100
0010
1000
0000
0001
0000
0000
0000
1000
0000
0100
0000
1000
0001
,
0100
0000
0010
1000
0001
0000
1000
0001
0010
0100
0010
0100
1000
0001
0100
0010
,
1000
0000
0100
0010
0100
0000
1000
0000
0000
0000
0001
0000
0100
0000
0010
1000
,
0001
0000
0010
0100
0010
0000
0001
1000
0010
0100
0010
0100
0001
0000
0000
0000
,
1100
0000
1000
0100
0010
0000
0100
0000
0000
0000
1000
0000
0001
0000
0100
0010
,
0100
0000
0001
1000
0001
0000
0010
0100
1000
0001
1000
0001
0100
0010
1000
0001
,
0100
0000
0010
1000
0001
0000
0010
0000
0000
0000
0100
0000
1000
0000
0001
0010
,
0100
0000
0010
0001
1000
0000
0010
0100
0001
1000
0001
1000
0100
0010
0100
1000
,
0001
0000
1000
0001
0100
0000
0010
0000
0000
0000
1000
0000
0001
0000
1000
0100
,
1000
0000
0001
0100
0001
0000
0100
0010
0100
0001
0100
0001
1000
0001
1000
0100
,
0010
0000
0001
0010
0100
0000
1000
0000
0000
0000
0001
0000
0100
0000
0010
1000
,
0001
0000
1000
0001
1000
0000
0001
1000
0001
0100
0010
1000
0002
0000
0003
0M00
,
0000
00M0
0M00
0000
0000
0000
0000
0000
,
0000
0000
0000
0000
0000
000M
0000
M000
0000
000M
0000
0000
0000
0000
0000
0000
;
