#TITLE:BBLLAASSTT!!;
#SUBTITLE:pop'n music 14 FEVER!;
#ARTIST:FIVE STICKS;
#TITLETRANSLIT:;
#SUBTITLETRANSLIT:;
#ARTISTTRANSLIT:;
#CREDIT:;
#BANNER:BBLLAASSTT!!-banner.png;
#BACKGROUND:BBLLAASSTT!!-bg.png;
#LYRICSPATH:;
#CDTITLE:!SulferDragon.png;
#MUSIC:BBLLAASSTT!!.mp3;
#OFFSET:-0.823;
#SAMPLESTART:21.820;
#SAMPLELENGTH:12.000;
#SELECTABLE:YES;
#BPMS:0.000=40.000,4.000=80.000,8.000=160.000,16.000=80.000,20.000=160.000,28.000=80.000,32.000=160.000,40.000=80.000,44.000=160.000,52.000=80.000,56.000=319.999,56.500=160.000,59.500=320.000,60.500=160.000,61.000=479.997,61.125=160.000,61.500=479.997,61.625=160.000,62.000=479.997,62.125=160.000,62.500=479.997,62.625=160.000,63.000=479.997,64.000=160.000,78.750=640.005,80.000=160.000,95.000=80.000,103.000=160.000,119.000=80.000,127.000=160.000,141.750=639.995,143.000=160.000,157.750=640.005,159.000=160.000,173.750=640.005,175.000=160.000,191.000=40.000,193.000=80.000;
#STOPS:56.000=0.095
,59.500=0.095
,60.000=0.095
,61.000=0.025
,61.500=0.025
,62.000=0.025
,62.500=0.025
,63.000=0.255
,78.250=0.100
,78.500=0.105
,78.750=0.150
,94.000=0.060
,94.167=0.060
,94.333=0.130
,94.667=0.060
,94.833=0.060
,141.250=0.100
,141.500=0.100
,141.750=0.150
,157.250=0.100
,157.500=0.100
,157.750=0.150
,173.250=0.100
,173.500=0.100
,173.750=0.150
;
#BGCHANGES:;
// cache tags:
#FIRSTBEAT:2.000;
#LASTBEAT:193.000;
#SONGFILENAME:Songs/KBU/BBLLAASSTT!! (SulferDragon)/BBLLAASSTT!!.sm;
#HASMUSIC:1;
#HASBANNER:1;
#MUSICLENGTH:99.160;
// end cache tags

//---------------dance-single - ----------------
#NOTES:
     dance-single:
     :
     Hard:
     11:
     1.000,1.000,1.000,0.000,1.000,617.000,164.000,0.000,38.000,0.000:
0000
0000
0000
0000
0000
0000
0000
0000
1001
00M0
M000
0M00
00M0
000M
00M0
0M00
,
0011
0000
0100
0000
0011
0000
1000
0000
0011
0000
0100
0000
0011
0000
1000
0000
0011
0000
0100
0000
0011
0000
1000
0000
0011
0000
0100
1000
0011
0100
0010
0000
,
1001
0000
0010
0100
0000
0100
1000
0000
0101
0000
0010
0100
0000
0100
1000
0000
,
0101
0000
0010
0100
0000
0100
1010
0000
0101
0000
0010
0100
0011
0100
1000
0000
,
1010
0000
0000
0000
0010
0000
0000
0000
0100
0000
0001
0000
1000
0000
0011
0000
0100
0000
0011
0000
0100
0000
0000
0000
0010
0000
0000
0000
1001
0000
0100
0000
0000
0000
1001
0000
0100
0000
0000
0000
0010
0000
0100
0000
1000
0000
0010
0100
0010
0000
0000
0000
0100
0000
0010
0000
1001
0000
0100
0000
0010
0000
0000
0000
,
1010
0000
0100
0010
0000
0010
0001
0000
1010
0000
0100
0010
0000
0010
0001
0000
,
1010
0000
0100
0010
0000
0010
0101
0000
1010
0000
0100
0010
1100
0010
0001
0000
,
0101
0000
0010
0000
0000
0000
0010
0000
0100
0000
0000
0000
0100
0000
0010
0000
0000
0000
0010
0000
1000
0001
1000
0001
0100
0000
0010
0000
1000
0000
0000
0000
0001
0000
0010
0000
0100
0000
0000
0000
0010
0000
0100
0000
1000
0000
0010
0100
0010
0000
1000
0000
0001
0000
0100
0000
0011
0000
1000
0000
0010
0000
0000
0000
,
1001
0000
0001
0010
0000
0010
0100
0000
1001
0000
0001
0010
0000
0010
0100
0000
,
1001
0000
0001
0010
0000
0010
1100
0000
1001
0000
0001
0010
1100
0010
0100
0000
,
0011
0000
1000
0000
0011
0000
1000
0000
0001
0000
1100
0000
0001
0000
1100
0000
0010
0000
1001
0000
0100
0000
0001
0000
0000
0000
1000
0000
0100
0000
0010
0000
0001
0000
0100
0010
0100
0000
0000
0000
1010
0000
0100
0000
0010
0000
0001
0000
0100
0000
0010
0000
0001
0000
0100
0000
1010
0000
0001
0000
0100
0000
0010
0000
,
1001
0000
1000
0100
0000
0100
0010
0000
1001
0000
1000
0100
0000
0100
0010
0000
,
1001
0000
1000
0100
0000
0100
0011
0000
1001
0000
1000
0100
0011
0100
0010
0000
,
1100
0000
0001
0000
0010
0000
0100
0000
0000
0000
0100
0000
1000
0000
0000
0000
1000
0000
0010
0000
0100
0000
0001
0000
0100
0000
0010
0000
1000
0000
0000
0000
0001
0100
0010
0100
0001
0000
0010
0000
0100
0000
1001
0000
0100
0000
0010
0000
0001
0000
0100
0000
0010
0000
1000
0000
0001
0000
1000
0000
0010
0000
0000
0000
,
0011
0000
0011
0000
0100
1000
0001
0010
0100
1000
0001
0010
1100
0000
0110
0000
,
0011
0000
0000
0000
0011
0000
0000
0000
0100
0010
0000
0000
0100
0010
0000
0000
0100
0010
0000
0000
0100
0010
0000
0000
1001
0000
0000
0000
00MM
0000
0000
0000
,
1100
0000
0010
0100
0000
0100
0001
0000
1100
0000
0010
0100
0000
0100
0001
0000
,
1100
0000
0010
0100
0000
0100
0001
0000
1100
0000
0010
0100
0000
0100
0001
0000
,
0011
0000
0100
0010
0000
0010
1000
0000
0011
0000
0100
0010
0000
0010
1000
0000
,
0011
0000
0100
0010
0000
0010
1000
0000
0101
0101
0110
1010
0000
0MM0
M00M
0000
,
0110
0000
0010
1000
0000
1000
0001
0000
0110
0000
0010
1000
0000
1000
0001
0000
,
0110
0000
0010
1000
0000
1000
0001
0000
0110
0000
0010
1000
0000
1000
0001
0000
,
1001
0000
1000
0010
0000
0010
0100
0000
1001
0000
1000
0010
0000
0010
0100
0000
,
1001
0000
0000
0000
0000
0000
1000
0000
0000
0010
0000
0000
0000
0000
0000
0010
0000
0000
0101
0000
0000
0000
0000
0000
0110
0000
0110
0000
0110
0000
0M0M
0000
1010
0000
1010
0000
1001
0000
0000
0000
0000
0000
M001
0000
0000
0000
0000
0000
,
0101
0000
M001
0010
0001
0000
M001
0000
0101
0000
M001
0010
0001
0000
M001
0000
,
0101
0000
0000
0000
0000
0000
0000
0000
M001
0000
0000
0000
0010
0000
0000
0000
0001
0000
0000
0000
1100
0000
0000
0000
0001
0000
0000
0000
0000
0000
0000
0000
0001
0100
0000
0000
0000
0000
0000
0000
0110
0000
0000
0000
0000
0000
0000
0000
1010
0000
0000
0000
0000
0000
0000
0000
0100
0000
0000
0000
1000
0000
0000
0000
,
0000
1000
0001
0000
1010
0000
0100
1000
0000
1000
0001
0000
1010
0000
0100
1000
,
0000
1000
0001
0000
1010
0000
0100
1000
0000
1000
0001
0000
1010
0000
0100
0010
,
0000
0010
0001
0000
1010
0000
0100
0010
0000
0010
0001
0000
1010
0000
0100
0010
,
0000
0010
0101
0000
1010
0000
0100
0010
1001
0010
0001
0000
0110
1000
0011
0100
,
0000
0000
0000
0000
1100
0000
0000
0000
0010
0000
0000
0000
0000
0000
0000
0000
0100
0000
0000
0000
1000
0000
0000
0000
0011
0000
0000
0000
0100
0000
0000
0000
0000
0000
0000
0000
0100
0000
1000
0100
0010
0000
0010
0000
0000
0000
0000
0000
0100
0000
0000
0000
1000
0000
0000
0000
0011
0000
0000
0000
0100
0000
0000
0000
,
0000
0000
1100
0000
0010
0000
0000
0000
1100
0000
0011
0000
1100
0000
0010
0000
1100
0000
0011
0000
1100
0010
0100
0010
1100
0000
0000
0000
0001
0000
1000
0000
,
0000
1000
0010
0000
1100
0000
0001
1000
0000
1000
0010
0000
1100
0000
0001
1000
,
0000
1000
0011
0000
1100
0000
0001
1000
0110
1000
0010
0000
0101
0000
1000
0100
,
0000
0100
0010
0000
0101
0000
1000
0100
0000
0100
0010
0000
0101
0000
1000
0100
,
0000
0100
0011
0000
0101
0101
0110
1010
0000
MM00
00MM
0000
0011
0000
0100
0001
,
0000
0001
1000
0000
0011
0000
0100
0001
0000
0001
1000
0000
0011
0000
0100
0001
,
0000
0001
1100
0000
0011
0000
0100
0001
1010
0001
1000
0000
0110
0000
1000
0100
,
0000
0100
0001
0000
0110
0000
1000
0100
0000
0100
0001
0000
0110
0000
1000
0100
,
0000
0100
1001
0000
0110
0110
1010
1001
0000
0MM0
M00M
0000
0101
0010
0100
1000
,
0001
0010
0100
1001
0010
1001
0100
0010
0101
1000
0110
1000
0010
1100
0001
0100
,
0010
0000
1000
0000
0001
0000
0010
0100
1000
0000
0010
0000
0100
0000
0001
0000
0110
0000
0001
0000
0100
0000
0000
0000
0010
0000
0100
0000
1000
0000
0010
0000
,
0100
0000
0010
0000
1000
0000
0100
0000
0010
0000
0001
0000
0010
0100
1000
0000
0010
0000
0100
0000
0001
0000
0000
0000
0001
0000
0010
0000
0100
0000
1000
0000
,
0010
0000
0100
0000
0001
0000
1000
0100
0011
0000
0011
0000
0110
0000
1100
0000
0000
0000
0M0M
0000
M0M0
0000
0000
0000
0011
0000
0100
0000
0011
0000
1100
0000
,
0010
0000
1100
0000
0001
0000
1100
0000
0011
0000
0000
0000
1000
0000
0001
0000
0000
0000
0001
0000
0010
0000
0100
0000
1000
0000
0010
0100
1001
0000
0010
0000
,
1001
0100
1000
0010
0100
0001
1000
0010
1100
0001
0100
0010
0101
1000
0001
0100
,
0000
0100
0010
0000
0100
0001
1000
0010
0100
0010
1000
0000
0011
0100
0011
0011
,
0100
0011
0100
0010
1000
0001
1000
00M0
1000
0001
1000
0000
1001
0000
0001
0000
,
M101
0001
MMM1
0000
0000
0000
0000
0000
;
