#TITLE:Bubble Beam;
#SUBTITLE:;
#ARTIST:Nanobii;
#TITLETRANSLIT:;
#SUBTITLETRANSLIT:;
#ARTISTTRANSLIT:;
#CREDIT:;
#BANNER:../BN.png;
#BACKGROUND:../BG.png;
#LYRICSPATH:;
#CDTITLE:../CDTitleBRAEDEN.png;
#MUSIC:Bubble Beam.ogg;
#OFFSET:-0.101;
#SAMPLESTART:43.721;
#SAMPLELENGTH:16.003;
#SELECTABLE:YES;
#BPMS:0.000=167.010;
#STOPS:;
#BGCHANGES:;
// cache tags:
#FIRSTBEAT:0.000;
#LASTBEAT:476.000;
#SONGFILENAME:Songs/Index Gradation/Bubble Beam - [Braeden]/Bubble Beam.sm;
#HASMUSIC:1;
#HASBANNER:1;
#MUSICLENGTH:178.329;
// end cache tags

//---------------dance-single - ----------------
#NOTES:
     dance-single:
     :
     Challenge:
     16:
     1.000,1.000,0.275,0.415,1.000,1125.000,49.000,74.000,7.000,1.000:

2001
0000
0000
0000
0000
0020
0000
3030
0000
0000
0000
0000
,
1000
0100
0010
0001
0010
0100
1000
0001
0100
0010
1000
0001
,
2001
0000
0000
0000
0000
0020
0000
3030
0000
0000
0000
0000
,
0100
0001
0100
0010
1000
0100
0010
0100
1000
0001
0100
0010
,
2010
0000
0000
0000
0000
0002
0000
0000
3003
0000
0000
0000
,
1000
0100
0010
0011
0000
0000
0110
0000
0000
1100
0000
0000
,
1011
0000
0000
0000
0000
0000
0000
0000
1000
0100
0000
0011
,
0000
0000
0000
0000
0000
1001
0000
0000
0000
0010
0000
1000
,
1002
0000
0000
0103
0000
0010
0000
0000
2000
0000
0000
3200
,
0000
0000
0320
0000
0000
0031
0000
0000
0010
0001
0000
0000
,
1M01
0000
0000
0000
0000
0101
0000
0000
0010
0100
0000
0010
,
0000
0000
0000
0000
0000
1001
0MM0
0000
0000
0000
0000
0000
,
0101
0000
0000
0000
0000
0000
0001
0000
0000
0000
1000
0000
0100
0010
0100
0000
0010
0000
0000
0000
0000
0000
0001
0000
,
1001
0000
0000
0000
0001
0000
0020
0000
0000
0000
0130
0000
1000
0000
0000
0000
0001
0100
0010
0000
0000
0000
1000
0000
,
0100
0000
0000
0000
0100
0000
0000
0000
0010
0000
0000
0000
0001
0000
0000
0000
0001
0000
0000
0000
0100
0000
0010
1000
,
0001
0000
0001
0100
0000
0100
0010
0000
0010
1000
0100
1000
,
0004
0000
0000
0000
0000
0000
1003
0000
0000
0000
0100
0000
0000
0000
0000
0000
0010
0001
0010
0000
0000
0000
0100
0000
,
1000
0001
0100
0010
1000
0100
0010
0000
0000
0001
0000
1000
,
0100
0010
0001
0000
1000
0000
0100
0000
0000
0000
0010
0000
0002
0000
0000
0000
0100
0000
0003
0000
0000
0000
0010
0000
,
1000
0000
0100
0000
0010
0000
0001
0000
0010
0000
0100
0000
1000
0000
0001
0000
0100
0010
1000
0000
0000
0000
0001
0000
,
0100
0010
0100
0010
1000
0100
0020
0000
0032
0000
0000
2003
,
0000
0000
0000
0001
3100
0010
1000
0000
0000
0000
0001
0010
0200
0000
0000
0000
1300
0000
0001
0000
0000
0000
1000
0000
,
0100
0000
0000
0000
0000
0000
0000
0000
0000
0000
0000
0000
0000
0000
0000
0000
0010
0000
0000
0000
0000
0000
0000
0000
0000
0000
0000
0000
0000
0000
0000
0000
0001
0000
0000
0000
0000
0000
0000
0000
0000
0000
0000
0000
0000
0000
0000
0000
0010
0000
0000
0000
0000
0000
0000
0000
0000
0000
0000
0000
0000
0000
0000
0000
0100
0000
0000
0000
0000
0000
0000
0000
0000
0000
0000
0000
0000
0000
0000
0000
1000
0000
0000
0000
0000
0000
0000
0000
0000
0000
0000
0000
0000
0000
0000
0000
0001
0000
0000
0000
0000
0000
0000
0000
0000
0000
0000
0000
0000
0000
0000
0000
0000
0000
0000
0000
0000
0000
0000
0000
0000
0000
0000
0000
0000
0000
0000
0000
0000
0000
0000
0000
0000
0000
0000
0000
0000
0000
0000
0000
0000
0000
0000
0000
1000
0000
0000
0000
0000
0000
0000
0000
0000
0000
0000
0000
0000
0000
0000
0000
0000
0000
0000
0000
0000
0000
0000
0000
0001
0000
0000
0000
0000
0000
0100
0000
0000
0000
0000
0000
0001
0000
0000
0000
0000
0000
0100
0000
0000
0000
0000
0000
,
0001
0100
0010
1000
0100
0010
0001
0000
2000
3200
0300
0010
,
1000
0000
0001
0000
0100
0000
0010
0000
1000
0000
0100
0000
0010
0000
0000
0000
0001
0010
0002
0000
0000
0000
1003
0001
,
1000
0100
0010
0001
0010
0100
1000
0001
0100
0010
0100
0001
,
1000
0000
0100
0000
0010
0000
0001
0000
0010
0000
0100
0000
1000
0000
0001
0000
0100
0010
0100
0000
0010
0000
1000
0100
,
1000
0001
0100
0010
1000
0100
0010
0001
0100
0010
0000
0100
,
1100
0000
0000
0000
0010
0000
0010
0000
0000
0000
0001
0000
0001
0000
0000
0000
0100
0000
0100
0010
1000
0100
0010
0100
,
1000
0000
0001
0000
0100
0000
0010
0000
1000
0000
0100
0000
0010
0000
0000
0000
0001
0000
0100
0000
0010
0000
1000
0100
,
0010
0001
0100
0010
1000
0100
0010
0100
1000
0001
0100
0010
,
1000
0000
0000
0001
0000
0000
0100
0000
0010
1000
0000
0000
,
0001
0010
0100
1000
0001
0100
0010
1000
0100
0010
0001
1000
0001
0000
0000
0000
1000
0100
2000
0000
0000
0000
3001
0000
,
0100
0000
0010
1000
0000
0002
0103
0000
0020
1030
0000
0001
,
1000
0100
0010
0001
0010
0100
1000
0001
0100
0010
0100
0001
1000
0000
0000
0000
0100
0010
0200
0000
0000
0000
0310
0000
,
0002
0000
0103
0010
0000
2000
3100
0000
0010
0002
0000
1003
,
0100
0010
0001
0010
0100
1000
0001
0100
0010
0100
0001
1000
0010
0000
0000
0000
0100
0001
1000
0000
0000
0000
0010
0000
,
1000
0000
0100
0010
0000
0001
0010
0000
0100
1000
0000
0001
,
0100
0010
1000
0100
1000
0001
0010
0100
1000
0001
0100
0010
1000
0000
0000
0000
0100
0010
0100
0000
0000
0000
0010
0000
,
0001
0000
0010
0100
0000
1000
1100
0000
0100
0110
0000
0000
,
0001
0010
0100
1000
0001
0100
0010
1000
0100
0010
0001
1000
0010
0000
0000
0000
0100
0001
0200
0000
0000
0000
0310
0000
,
1000
0000
0100
0010
0000
0002
0103
0000
0020
1030
0000
0000
,
0001
0010
0100
1000
0001
0100
0010
0100
0001
0010
0001
1000
0100
0000
0000
0000
0010
0001
0100
0000
0000
0000
0010
0000
,
2000
0000
3001
0010
0000
0200
1300
0000
0020
0130
0000
0001
,
0100
0010
1000
0100
0010
0001
1000
0100
0010
0100
1000
0001
0200
0000
0000
0000
0310
1000
0010
0000
0000
0000
0100
0000
,
0002
0000
1003
0200
0000
0320
0031
0000
0020
0130
0000
0000
,
1001
0001
0100
0010
1000
0100
0001
0010
0100
1000
0001
0100
,
0010
0000
1000
0000
0001
0000
1001
0000
0000
0000
0000
0000
,
1000
0000
0100
0000
0010
0000
0011
0000
0000
0000
0001
0000
0100
0000
0000
0000
0010
1000
0010
0100
0001
0100
0010
1000
,
0100
0010
0001
0010
0100
1000
0001
0000
0000
0000
0000
0000
0101
0000
0000
0000
0000
0000
1010
0000
0000
0000
1000
0000
,
0100
0010
0001
1000
0100
0010
0100
1000
0001
0010
0100
1000
0001
0000
0000
0000
0010
0100
1000
0001
0100
0010
1000
0001
,
0100
0010
1000
0100
0010
0001
1000
0000
0000
0000
0000
0000
0110
0000
0000
0000
0000
0000
1001
0000
0000
0000
0001
0000
,
M100
0000
0000
0000
0010
0000
M100
0000
0000
0000
0001
0000
M100
0000
0000
0000
0001
0000
M010
0000
0000
0000
0001
0100
,
0010
1000
0100
0010
0001
0010
0100
0000
0000
0000
0000
0000
,
1000
0000
0100
0000
0010
0000
0001
0000
0010
0000
0100
0000
1000
0001
0100
0010
1000
0001
0100
0000
0010
0000
1000
0000
,
0101
0000
0000
1001
0000
0000
1000
0000
0100
0010
0000
0001
,
1001
0000
0000
0001
0000
0000
0010
0000
0010
0100
0000
0100
,
1000
0001
0100
0000
0000
0000
0010
0000
0000
0000
0000
0000
2000
0000
0000
0000
3100
0000
0020
0000
0000
0000
0031
0000
,
1000
0100
0010
0001
0010
0100
2000
0000
3001
0000
0000
0200
,
0000
0000
0310
1000
0000
0000
0002
0000
0000
0103
0000
0000
,
0010
1000
0100
1000
0001
0010
0200
0000
1000
0300
0000
0001
,
0200
0000
0310
1000
0000
0002
0103
0000
0001
0000
0000
1000
,
1001
0000
0000
1000
0000
0100
0010
0000
0001
0000
0000
0040
,
0000
0000
0000
0032
0000
2003
0000
0000
3000
0002
0000
0000
,
0403
0000
0000
0000
0310
0000
0000
0000
1000
0000
0000
0000
0010
0000
0000
0000
1000
0001
1000
0000
0000
0000
0010
1000
,
0010
0000
0100
0001
0100
0010
1000
0000
0000
1000
0000
0000
,
0001
0000
0000
0100
0000
0000
0020
0000
2030
0000
0000
3004
,
0000
0000
1003
0200
0000
0340
0000
0030
0001
0200
0000
0340
,
0000
0000
0030
1000
0000
1000
0001
0000
0010
0200
0000
1300
,
0000
0000
0001
0100
0000
0010
0400
0000
0000
0310
0000
0010
,
1000
0000
0100
0010
0000
0001
0010
0000
0000
0001
0000
0100
,
0010
0000
1000
0100
0000
0010
0001
0000
0010
0000
0000
0100
,
0010
0000
0001
0000
0100
0000
0010
0000
1000
0000
0100
0000
,
0011
0000
0001
0100
0000
0100
0010
0000
0010
1000
0000
0000
,
2001
0000
0000
0010
0000
0000
0001
0000
0000
0010
0000
3010
,
0000
0000
0000
0000
0000
0000
0100
0001
0100
0001
0100
0001
,
0100
0010
1000
0010
0100
0001
1000
0000
0010
0000
0000
0010
,
0100
0001
0100
0010
1000
0100
0010
0000
0001
0010
0000
0100
,
2000
3000
0000
0002
0003
0000
0200
0300
0000
0020
0030
2000
,
3001
0100
0010
1000
0100
0010
0100
1000
0001
0100
0010
1000
,
0001
0010
0100
1000
0001
0100
0010
0000
1000
0000
0000
0002
,
0103
0010
1000
0100
1000
0001
0100
0000
0010
0000
1000
0000
,
1000
0000
0001
0000
0100
0000
0010
0000
1000
0000
0100
0000
0010
0000
0001
0000
0100
0000
0010
0000
1000
0000
0001
1000
,
0001
0000
0100
0000
0010
0000
0100
0000
0001
0000
1000
0000
0100
0000
1000
0001
1000
0000
0010
0000
0100
0000
0001
0000
,
1000
0100
0010
0001
0010
0100
1000
0001
0100
0010
1000
0001
0100
0000
0000
0000
0010
0100
0001
0010
0100
1000
0001
0100
,
0010
1000
0100
0010
0001
1000
0010
0000
0000
0000
0000
0000
0101
0000
0000
0000
0000
0000
1010
0000
0000
0000
1000
0000
,
0100
0000
0000
0000
0010
0000
0001
0000
0000
0000
0010
0000
0100
0000
0000
0000
0100
0000
1000
0010
0100
0001
0100
0001
,
0100
0001
1000
0100
0010
0100
1000
0001
0100
0010
1000
0001
,
0010
0001
0000
0010
0100
0000
1000
0100
0000
0010
0001
0000
,
1001
0000
0000
0000
,
1000
0100
0010
0001
0010
0100
1000
0001
0100
0010
0100
0001
1000
0000
0000
0000
0100
0010
0001
0010
0100
1000
0001
0100
,
0010
1000
0100
0010
0001
1000
0100
0000
0000
0000
0010
0000
0002
0000
0000
0000
0103
0000
0020
0000
0000
0000
1030
0000
,
0001
0010
0100
1000
0001
0100
0010
0100
0001
1000
0100
0010
0001
0000
0000
0000
1000
0100
0010
0100
1000
0001
0100
0010
,
1000
0100
0010
0100
1000
0001
0100
0000
0000
0000
0010
0000
2000
0000
0000
0000
3010
0000
0200
0000
0000
0000
0301
0000
,
1000
0010
0100
0001
1000
0100
0010
0100
1000
0001
0010
0100
1000
0000
0000
0000
0001
0100
0010
1000
0100
0010
0001
0010
,
0100
1000
0001
0100
0010
0100
0001
0000
0000
0000
1000
0000
0200
0000
0000
0000
0310
0000
0002
0000
0000
0000
0103
0000
,
0010
1000
0100
0010
0100
1000
0001
0010
0100
1000
0001
0100
0010
0000
0000
0000
1000
0100
0010
0001
0010
0100
1000
0001
,
0100
0010
1000
0100
0010
0001
1000
0000
0000
0000
0010
0000
1010
0000
0000
0000
0100
0000
0101
0000
0000
0000
0001
0000
,
0100
0010
1000
0001
0010
0100
1000
0001
0100
0010
0100
0001
1000
0000
0000
0000
0100
0010
0200
0000
0000
0000
1300
0000
,
0001
0000
0010
0100
0000
1000
0001
0100
0010
1000
0100
0010
,
0001
1000
0001
0100
0010
1000
0001
0010
0100
1000
0001
0100
0010
0000
0000
0000
1000
0001
2000
0000
0000
0000
3010
0000
,
0100
0001
0100
0010
0000
0010
0100
0000
0100
0001
0000
0010
,
0100
0010
0100
0010
0100
0001
1000
0100
0010
0001
0010
0100
1000
0000
0000
0000
0001
0100
0002
0000
0000
0000
1003
0010
,
1000
0100
0010
0001
0000
1000
0100
0010
0001
0010
0100
1000
,
1001
0000
0000
0000
0010
0000
0001
0000
0010
0000
0100
0000
1000
0000
0001
0000
0100
0010
0100
0000
0000
0000
0000
0000
,
0100
0000
0010
0000
1000
0000
0100
0000
0010
0000
0001
0100
0010
0000
0000
0000
0000
0000
0000
0000
0000
0000
0000
0000
,
0000
0000
0000
0000
0000
0000
1001
0000
0000
0000
0001
0000
0100
0000
0000
0000
0010
1000
0010
0000
0000
0000
0100
0001
,
0100
0000
0010
1000
0000
0100
1100
0000
0000
1001
0000
0001
,
0100
0010
1000
0100
0010
0001
0010
0100
1000
0001
0100
0010
1000
0000
0000
0000
0100
0010
0100
1000
0001
0010
0100
1000
,
0001
0100
0010
1000
0001
0100
0010
0000
0000
0000
0000
0000
1010
0000
0000
0000
1000
0000
0100
0000
0000
0000
0010
0000
,
0001
0010
0100
1000
0100
0010
0001
0010
0100
1000
0001
0010
,
0100
0000
0010
0100
0000
1000
0100
0000
0000
0001
0000
1000
,
1001
0000
0000
0000
0010
0000
0000
0000
0100
0000
0000
0000
0001
0000
0000
0000
1000
0000
0000
0000
0100
0000
0100
1000
,
0100
0000
0000
0020
0030
0010
0000
0000
0000
0100
0010
1000
,
0210
0000
0000
0000
,
0320
0000
0000
0000
,
2030
0000
0000
0000
,
3400
0000
0000
0000
0000
0000
0310
0000
0000
0001
0000
1000
,
0200
0000
0000
0000
,
0300
0000
0000
0000
;
