#TITLE:Anzu no Uta;
#SUBTITLE:;
#ARTIST:Anzu Futaba;
#TITLETRANSLIT:;
#SUBTITLETRANSLIT:;
#ARTISTTRANSLIT:;
#CREDIT:;
#BANNER:anzu no uta bn.png;
#BACKGROUND:anzu no uta bg.png;
#LYRICSPATH:;
#CDTITLE:cdtitlecondortalon.png;
#MUSIC:Anzu no Uta.ogg;
#OFFSET:1.243;
#SAMPLESTART:68.923;
#SAMPLELENGTH:19.692;
#SELECTABLE:YES;
#DISPLAYBPM:97.500:195.000;
#BPMS:0.000=195.000,120.000=97.500,134.000=195.000,354.000=390.000,354.250=195.000,354.375=97.500,354.625=195.000,354.750=390.000,355.250=195.000,355.375=97.500,355.625=195.000,355.750=390.000,356.000=195.000;
#STOPS:210.750=0.615
;
#BGCHANGES:;
// cache tags:
#FIRSTBEAT:19.917;
#LASTBEAT:388.750;
#SONGFILENAME:Songs/Index Tournament 1/Anzu no Uta [CondorTalon]/Anzu no Uta.sm;
#HASMUSIC:1;
#HASBANNER:1;
#MUSICLENGTH:128.546;
// end cache tags

//---------------dance-single - CondorTalon----------------
#NOTES:
     dance-single:
     CondorTalon:
     Challenge:
     12:
     0.757,1.000,0.280,0.210,0.552,618.000,36.000,27.000,29.000,0.000:
0000
0000
0000
0000
,
0000
0000
0000
0000
,
0000
0000
0000
0000
,
0000
0000
0000
0000
,
0000
0000
0000
0000
0000
0000
0000
0000
0000
0000
0000
0000
0000
0000
0000
0000
0000
0000
0000
0000
0000
0000
0000
0000
0000
0000
0000
0000
0000
0000
0000
0000
0000
0000
0000
0000
0000
0000
0000
0000
0000
0000
0000
0000
0000
0000
0000
2002
,
0000
0000
0000
0000
0000
0000
0000
0000
0000
0000
0000
0000
0000
0000
0000
0000
0000
0000
0000
0000
0000
0000
0000
0000
0000
0000
0000
0000
0000
0000
0000
0000
0000
0000
0000
0000
0003
0000
0000
0000
0000
0000
0000
0000
0000
0000
0000
0020
,
0000
0000
0000
0000
0000
0000
0000
0000
0000
0000
0000
0000
0000
0000
0000
0000
0000
0000
0000
0000
0000
0000
0000
0000
0000
0000
0000
0000
0000
0000
0000
0000
0000
0000
0000
0000
3000
0000
0000
0000
0000
0000
0000
0000
0000
0000
0000
0200
,
0000
0000
0000
0000
0000
0000
0000
0000
0000
0000
0000
0000
0000
0000
0000
0000
0000
0000
0000
0000
0000
0000
0000
0000
0000
0000
0000
0000
0000
0000
0000
0000
0000
0000
0000
0000
0030
0000
0000
0000
0000
0000
0000
0000
0000
0000
0000
0002
,
0000
0000
0000
0000
,
0000
0000
0000
0000
,
0000
0000
0000
0000
,
0000
0000
0000
0000
,
0000
0000
0000
0000
,
0000
0000
0000
0303
,
0001
0010
0100
1000
0001
0000
0100
0000
0010
0000
1000
0000
0000
0000
0100
0000
,
00MM
0000
0100
0000
0001
0000
1000
0000
0001
0010
0001
1000
0040
0000
0000
0000
,
0130
0001
1000
0100
0010
0000
0100
0000
1000
0000
0001
0000
0000
0000
0100
0000
,
M0M0
0100
1000
0001
0100
0010
4000
0000
,
3001
0010
0100
0010
0001
0000
1000
0000
0010
0000
0100
0000
0000
0000
0010
0000
,
M00M
0010
0001
1000
0100
0000
0110
0000
,
0011
0000
0011
0000
0001
1000
0000
1010
,
0000
0010
0100
0001
1000
0100
0010
0001
,
1000
0010
0100
0010
1000
0001
0010
0100
,
1000
0001
0100
0000
0010
0000
1000
0000
0100
0000
0010
0000
0001
0000
0010
0000
,
0400
1000
0000
1000
0000
0010
0000
0310
0001
0000
1000
0000
0010
0000
0100
0000
,
0001
1000
0100
0000
0010
0000
0001
0000
1000
0000
0001
0000
0010
0000
0100
0000
,
1000
0010
0100
0001
0100
0010
1000
0100
,
0010
0100
1000
0000
0001
0000
0010
0000
0100
0000
1000
0000
0001
0000
0100
0000
,
0040
1000
0000
1000
0000
0100
0000
0130
0001
0000
1000
0000
0100
0000
1000
0000
,
0010
0100
0001
1000
0001
0000
0010
0000
0100
0000
1000
0000
0001
0000
1000
0000
,
0M1M
0000
1000
0100
0000
0010
0000
0001
1000
0000
0010
0100
0000
0001
0000
1000
,
0100
0000
0010
0001
0000
1000
0000
0001
M100
0000
0010
0000
M000
0000
0000
0000
,
M000
0000
0000
0000
M000
0000
0000
0000
M000
0000
0000
0000
M100
0001
0010
0100
,
10M0
0001
0100
0010
1000
0100
0010
0001
1MM0
0001
0100
0010
1000
0000
0100
0000
,
0010
0001
0000
0100
M0M0
0100
1000
0001
,
0100
0010
1000
0010
0400
0000
0000
0000
0301
0010
0001
1000
0001
0000
0100
0000
,
0010
1000
0000
0100
00MM
0100
0001
1000
,
0100
0000
0010
0000
0004
0000
0000
0000
1003
0010
0100
0010
1000
0000
0100
0000
,
0010
0001
0000
0010
MM00
0010
1000
0100
,
1000
1100
0110
0110
,
0010
0001
0000
1001
0000
1000
0010
0100
,
0001
0010
0100
1000
0001
0000
0000
1000
,
0010
0100
0000
0001
0000
0000
1000
0100
,
0010
0000
0000
0001
0010
0000
0001
0000
,
1000
0000
0000
0010
0000
0100
0000
0001
,
1000
0000
0100
0010
0001
0000
0000
1000
,
0010
0100
0000
0010
0000
0000
1000
0100
,
0010
0000
0000
0000
0001
0010
0100
1000
0002
0000
0000
0000
1000
0000
0000
0000
,
1000
1000
0203
0010
,
0010
0010
0302
0010
,
0010
0010
2003
0100
,
0100
0100
0001
0001
0000
0000
0000
0000
,
0000
0000
0000
0000
0000
0000
0000
0000
3000
0000
0000
0MM0
0000
0000
0000
0000
,
0001
0010
0100
1000
0010
0100
0001
0100
0001
0000
1000
0000
0100
0000
0010
0000
,
0001
1000
0010
0100
1000
0100
1000
0100
,
0001
1000
0100
0010
0001
1000
0100
0010
0001
0000
0100
0000
0010
0000
1000
0000
,
0010
0000
0100
0000
0001
0000
0010
0000
1000
0000
0010
0001
0010
0100
1000
0001
,
1000
0100
1000
0001
0100
0010
1000
0001
1000
0100
0010
0001
0010
0001
1000
0010
,
0100
0001
1000
0001
0010
0100
0010
0001
0010
0100
1000
0001
0010
0001
1000
0010
,
1000
1010
0000
0110
0110
0000
0101
0101
,
0000
0000
1001
0000
1001
0000
0001
0000
1000
0000
0100
0000
0010
0001
1000
0001
,
1000
0010
0100
0001
0010
0100
1000
0100
1000
0000
0010
0000
0100
0000
0001
0000
,
1000
0100
0010
0100
0001
0100
0001
0100
,
1000
0001
0100
0010
1000
0001
0100
0010
1000
0000
0001
0000
0010
0000
0100
0000
,
0010
0000
0001
0000
1000
0000
0010
0000
0001
0000
0010
1000
0010
0100
0001
1000
,
0001
0010
0100
1000
0001
0100
0010
1000
0001
1000
0100
0010
0001
0010
0001
1000
,
0010
1000
0001
0100
0010
1000
0001
1000
0100
0010
0001
0010
0100
1000
0001
0010
,
0001
0011
0000
0110
0110
0000
1100
1100
,
0000
0000
1001
0000
1001
0000
1000
0000
0001
0000
0100
0000
0010
0000
1000
0100
,
2000
0000
3200
0000
,
0320
0000
0032
2003
,
3000
0000
0000
0000
,
0000
0000
0000
0000
,
0001
0010
0100
1000
0100
1000
0001
0100
,
0010
1000
0001
0010
0001
1000
0010
0100
,
0001
1000
0001
0010
0100
1000
0100
1000
,
0001
0100
0010
1000
0001
1000
0100
0010
,
0001
0010
0001
1000
0010
0100
0001
1000
,
0001
0010
0100
1000
0100
1000
0001
0100
,
0010
1000
0001
1000
0100
0010
0001
1000
,
0010
0000
1000
0000
0010
0000
0100
0000
0001
1000
0001
1000
0001
1000
0001
1000
,
0001
0100
0010
1000
0100
0010
0001
0010
0001
0000
1000
0000
0001
0000
2000
0000
,
0000
3100
0020
0000
1030
0010
1000
0010
,
0001
1000
0010
0100
0001
1000
0010
0100
0001
0000
1000
0000
0100
0000
0020
0000
,
0000
0000
0031
0000
0200
0000
0000
0000
1300
0000
0100
0001
0100
0010
1000
0001
,
1000
0010
1000
0001
0010
0100
1000
0001
1000
0010
0100
0001
0100
0001
1000
0100
,
0010
0001
1000
0001
0100
0010
0100
0001
0100
0010
1000
0001
0100
0001
1000
0100
,
1000
1100
0000
0110
0110
0000
0011
0011
,
0000
1001
1001
0001
2000
3002
2003
3002
,
0203
0000
0320
0000
,
2030
0000
3200
0320
,
0030
0000
0000
0000
,
0000
0000
0000
0000
,
0001
0100
0010
1000
0001
0000
0010
0000
0100
0000
1000
0000
0000
0000
0010
0000
,
0M0M
0010
0001
1000
0001
0100
0010
0000
,
M000
0000
0000
0000
,
0000
0000
0000
0000
,
0000
0000
0000
000M
0000
0000
0000
0000
0000
0000
0000
0000
0000
0000
0000
0000
;
