#TITLE:Xtremepolesta;
#SUBTITLE:;
#ARTIST:DJ Sharpnel;
#TITLETRANSLIT:;
#SUBTITLETRANSLIT:;
#ARTISTTRANSLIT:;
#CREDIT:B. Abear;
#BANNER:Bn-Xtremepolesta.png;
#BACKGROUND:Bg-Xtremepolesta.png;
#LYRICSPATH:;
#CDTITLE:;
#MUSIC:04 Xtremepolesta.ogg;
#OFFSET:-1.162;
#SAMPLESTART:49.820;
#SAMPLELENGTH:18.000;
#SELECTABLE:YES;
#DISPLAYBPM:215.000;
#BPMS:0.000=215.000,94.000=107.500,96.000=215.000,156.000=107.500,158.000=215.000,286.000=107.500,287.000=215.000,287.500=107.500,289.000=215.000,289.500=107.500,291.000=215.000,291.500=107.500,292.500=430.000,293.000=215.000,608.000=107.500,610.000=215.000;
#STOPS:64.000=12.837
,287.000=0.047
,287.167=0.047
,287.333=0.047
,289.000=0.047
,289.167=0.047
,289.333=0.047
,291.000=0.047
,291.167=0.047
,291.333=0.047
,292.500=0.095
,292.750=0.095
,419.000=0.837
,738.000=0.837
,831.000=0.837
,1084.000=3.907
;
#BGCHANGES:;
// cache tags:
#FIRSTBEAT:0.000;
#LASTBEAT:1084.750;
#SONGFILENAME:Songs/SSSC Pack 2/Xtremepolesta - [Cosmic Pope]/Xtremepolesta.sm;
#HASMUSIC:1;
#HASBANNER:0;
#MUSICLENGTH:332.721;
// end cache tags

//---------------dance-single - B. Abear----------------
#NOTES:
     dance-single:
     B. Abear:
     Challenge:
     15:
     1.000,1.000,0.649,0.553,0.781,2410.000,216.000,184.000,39.000,38.000:

0001
0100
0001
0000
0100
0000
0010
0000
1000
0001
1000
0000
0001
0000
0010
0000
,
0100
1000
0100
0000
0010
0000
0001
0000
1000
0000
0000
0010
0200
0000
0302
0000
,
1003
0100
1000
0000
0001
0000
0010
0000
0100
0010
0100
0000
1000
0000
0001
0000
,
0100
0001
0100
0000
0010
0000
1000
0000
0001
0000
0000
1000
0020
0000
0230
0000
,
0301
1000
0001
0000
0010
0000
0100
0000
1000
0100
1000
0000
0001
0000
0100
0000
,
0010
0100
0010
0000
0100
0000
0001
0000
1000
0000
0000
0001
0020
0000
0230
0000
,
1300
0001
1000
0000
0001
0000
0100
0000
0010
1000
0010
0000
0100
0000
0000
0001
,
1000
0000
0000
0001
0010
0000
0100
0000
1000
0000
0001
0100
0010
1000
0001
0000
,
1000
0100
0010
0000
0001
0000
1000
0000
0001
0100
0010
0000
0100
0000
0010
0000
,
1000
0001
0010
0000
0100
0000
1000
0000
0001
0000
0000
0001
0020
0000
0230
0000
,
1300
0001
0010
0000
0100
0000
1000
0000
0001
0100
0010
0000
0100
0000
0001
0000
,
1000
0010
0100
0000
0001
0000
0010
0000
0100
0000
0000
1000
0200
0000
0320
0000
,
0031
1000
0010
0000
0100
0000
0001
0000
1000
0100
0010
0000
0100
0000
0010
0000
,
0001
1000
0010
0000
0100
0000
0001
0000
1000
0000
0000
0010
0200
0000
0302
0000
,
1003
0010
0100
0000
0001
0000
1000
0000
0100
0010
0001
0000
1000
0000
0000
0001
,
0010
0000
0000
0100
1000
0000
0001
0000
0100
0000
0010
0100
0010
1000
0001
0000
,
2MM2
3003
0000
0000
2000
0000
0000
0000
3101
0000
0001
0000
1000
0000
0100
0000
,
0010
0100
0010
0000
0100
0000
1000
0000
1100
0000
0100
0000
0010
0000
0001
0000
,
1000
0001
1000
0000
0001
0000
0100
0000
0110
0000
0010
0000
1000
0000
0001
0000
,
1000
0100
1000
0000
0001
0000
0010
0000
0100
0000
0100
1000
0001
0000
0100
0000
,
0010
0000
4000
3004
1103
1000
0001
0100
,
0001
1000
0001
0000
0010
0000
0100
0000
1000
0001
1000
0000
0010
0000
0100
0000
,
0001
0000
0000
1000
0020
0000
0230
0000
0301
0010
0001
0000
1000
0000
0100
0000
,
0010
0100
0010
0000
0001
0000
1000
0000
1MM1
0000
M00M
0000
0MM0
0000
M00M
0000
,
0101
0000
0001
0000
1000
0000
0100
0000
0010
0001
1000
0000
0001
0000
0100
0000
,
0110
0000
0010
0000
1000
0000
0001
0000
1000
0100
0010
0000
0100
0000
1000
0000
,
1001
0000
0001
0000
0100
0000
0010
0000
0100
0001
1000
0000
0001
0000
0010
0000
,
0100
0000
0100
1000
0001
0000
0100
0000
0010
0000
0000
0000
4000
0000
3004
0000
,
1013
0000
1000
0000
0001
0000
0010
0000
0100
1000
0100
0000
0010
0000
0001
0000
,
1000
0001
1000
0000
0001
0000
0100
0000
0010
0000
0000
0100
0002
0000
2003
0000
,
3001
0010
0001
0000
1000
0000
0001
0000
0100
0001
0100
0000
0010
0000
1000
0000
,
0001
0100
0002
0000
2003
0000
3200
0000
0320
0000
0230
0000
2300
0000
3002
0000
,
2023
0000
0000
3030
0000
0000
2002
0000
0000
3003
0000
0000
0001
0000
0000
0000
0000
0000
1000
0000
0000
0000
0000
0000
0001
0000
0100
0000
0001
0000
0100
0000
0001
0000
0100
0000
0001
0000
0000
0000
0000
0000
1000
0000
0000
0000
0000
0000
,
2002
0000
0000
3003
0000
0000
0022
0000
0000
0033
0000
0000
0010
0000
0000
0000
0000
0000
0100
0000
0000
0000
0000
0000
1000
0000
0001
0000
1000
0000
0001
0000
1000
0000
0001
0000
1000
0000
0000
0000
0000
0000
0001
0000
0000
0000
0000
0000
,
0202
0000
0000
0303
0000
0000
0220
0000
0000
0330
0000
0000
0010
0000
0000
0000
0000
0000
1000
0000
0000
0000
0000
0000
0001
0000
0100
0000
0001
0000
0100
0000
0001
0000
0100
0000
0001
0000
0000
0000
0000
0000
1000
0000
0000
0000
0000
0000
,
1001
0000
0001
0100
0010
0000
1000
0000
0001
0000
0000
0000
4000
0000
3004
0000
,
1103
0000
0000
0100
0000
0000
0010
0000
0000
0001
0000
0000
1000
0001
1000
0001
1000
0001
1000
0000
0000
0010
0000
0000
,
1010
0000
1000
0000
0001
0000
0010
0000
0001
0010
0001
0000
1000
0000
0010
0000
,
1010
0000
0000
1000
0000
0000
0001
0000
0000
1000
0000
0000
0001
0010
0001
0010
0001
0010
0001
0000
0000
1000
0000
0000
,
1MM1
0000
M00M
0000
0MM0
0000
M00M
0000
0202
0303
2002
3003
1000
0000
0001
0000
,
1000
0000
0010
0000
1000
0000
0010
0000
1000
0000
0010
0000
1000
0000
0000
0000
0000
0000
0001
0000
0000
0000
0000
0000
2002
0000
0000
3003
0000
0000
2200
0000
0000
3300
0000
0000
0100
0000
0000
0000
0000
0000
0010
0000
0000
0000
0000
0000
,
0001
0000
1000
0000
0001
0000
1000
0000
0001
0000
1000
0000
0001
0000
0000
0000
0000
0000
1000
0000
0000
0000
0000
0000
2020
0000
0000
3030
0000
0000
0220
0000
0000
0330
0000
0000
0100
0000
0000
0000
0000
0000
0001
0000
0000
0000
0000
0000
,
1000
0000
0010
0000
1000
0000
0010
0000
1000
0000
0010
0000
1000
0000
0000
0000
0000
0000
0001
0000
0000
0000
0000
0000
1001
0000
0000
0000
0000
0000
1000
0000
0000
0010
0000
0000
0100
0000
0000
0000
0000
0000
0001
0000
0000
0000
0000
0000
,
1000
0000
0004
4003
3011
0010
0100
1000
,
0001
1000
0001
1000
0001
1000
0001
0000
0000
0100
0000
0000
0101
0000
0000
0001
0000
0000
1000
0000
0000
0100
0000
0000
,
1000
0100
1000
0000
0001
0000
0100
0000
0101
0000
0001
0000
1000
0000
0001
0000
,
1000
0100
1000
0100
1000
0100
1000
0000
0000
0001
0000
0000
1001
0000
0000
0000
0000
0000
0000
0000
0000
0000
0000
0000
,
0000
0004
4003
3000
1001
0001
0010
0100
,
1000
0000
1000
1000
0000
0001
0000
0001
,
0000
0100
0010
0010
1000
0001
2022
3033
,
2022
3033
0100
0001
1000
1000
0001
0010
,
0100
0000
1000
0000
0001
0100
0010
0000
0110
0000
0100
0000
0001
0000
1000
0000
,
0001
0000
0010
0010
0000
0100
0000
1000
,
0000
0001
0100
0100
0010
1000
2022
3033
,
2022
3033
0100
0001
0011
0010
0100
1000
,
0001
4000
3004
0003
0011
0010
0100
0001
,
0100
1000
0010
0001
0010
0100
1000
0100
,
0001
0010
0100
0001
0100
0010
1000
0010
,
0001
0100
0010
0100
1000
0100
0001
1000
,
0100
0001
0100
1000
1001
0001
0100
0010
,
0100
1000
0100
0001
0010
1000
0010
0001
,
0010
0100
0001
0100
1000
0001
0100
0001
,
0100
1000
0100
0010
0001
0010
0100
0001
,
1000
0100
0001
0100
1100
1000
0001
0100
,
1000
0100
0010
0001
0010
0100
0001
1000
,
0100
0001
0100
0010
0001
1000
0001
1000
,
0010
0001
0010
0100
1000
0100
0001
0010
,
0100
0001
0100
1000
1001
0001
0100
0010
,
0100
1000
0100
0001
0010
0100
0001
0100
,
1000
0001
0010
1000
0010
0001
0100
0010
,
0100
1000
0100
0010
0001
0010
0100
0001
,
1000
0000
0000
0001
0000
0000
0010
0000
0000
0001
0000
0000
1001
0000
0000
000M
0000
0000
0000
0000
M000
0000
0000
0000
,
000M
0000
0000
00M0
0000
0000
M000
0000
0M00
0000
0000
00M0
,
0000
0000
0000
0000
000M
0000
0000
0000
0000
0000
0000
0000
1001
0000
0000
0000
0000
0000
0001
0000
0000
1000
0000
0000
0100
0000
0000
0000
0000
0000
0100
0000
0000
0000
0000
0000
0010
0000
0000
0001
0000
0000
0010
0000
0000
0000
0000
0000
,
0100
0000
1000
0000
0001
0100
0001
0000
1000
0000
0001
0000
1000
0010
1000
0000
,
0010
0000
0100
0000
0001
0100
0001
0000
1000
0000
0001
0000
0010
0001
1000
0000
,
2022
0000
3033
0000
2022
0000
3033
0000
0100
0000
0001
0000
1000
0000
1000
0100
,
0010
0001
1001
0000
4000
3004
1013
1000
,
0001
0000
0010
0000
0100
1000
0100
0000
1000
0000
0001
0000
0100
0010
0100
0000
,
0010
0000
1000
0000
0001
0010
0001
0000
1000
0000
0100
0000
0010
0001
1000
0000
,
2022
0000
3033
0000
2022
0000
3033
0000
1000
0000
0001
0000
1000
0000
1000
0010
,
0100
0001
0101
0000
0004
4003
3011
0001
,
1000
0000
0010
0000
0100
0001
0100
0000
0010
0000
0100
0000
0001
1000
0001
0000
,
0010
0000
0001
0000
1000
0100
1000
0000
0001
0000
0010
0000
0100
1000
0001
0000
,
2022
0000
3033
0000
2022
0000
3033
0000
0100
0000
0001
0000
1000
0000
1000
0001
,
0010
0100
1100
0000
4000
3004
1013
1000
,
0001
0000
0010
0000
0100
1000
0100
0000
1000
0000
0001
0000
0100
0010
0100
0000
,
0010
0000
1000
0000
0001
0010
0001
0000
1000
0000
0100
0000
0010
0001
1000
0000
,
2022
3033
2022
3033
1000
0001
1001
0000
,
1000
0000
0001
0100
0001
0000
1000
0100
1000
0000
0001
0000
0101
0000
0001
0000
,
1000
0000
0100
0000
0010
0001
0010
0000
0001
0000
1000
0000
0010
0100
0010
0000
,
0100
0000
0001
0000
1000
0100
1000
0000
0001
0000
0010
0000
0100
1000
0001
0000
,
2022
3033
0000
0000
2022
0000
3033
0000
0001
0000
1000
0000
0001
0000
0001
0100
,
0010
1000
1010
0000
4000
3004
1103
1000
,
0001
0000
0100
0000
0010
1000
0010
0000
0100
0000
0010
0000
1000
0001
1000
0000
,
0100
0000
1000
0000
0001
0010
0001
0000
1000
0000
0100
0000
0010
0001
1000
0000
,
2022
0000
3033
0000
2022
0000
3033
0000
0010
0000
1000
0000
0001
0000
0001
1000
,
0100
0010
0011
0000
0004
4003
3101
0001
,
1000
0000
0100
0000
0010
0001
0010
0000
0001
0000
1000
0000
0010
0100
0010
0000
,
0100
0000
0001
0000
1000
0100
1000
0000
0001
0000
0010
0000
0100
1000
0001
0000
,
2022
0000
3033
0000
2022
0000
3033
0000
0001
0000
1000
0000
0001
0000
0001
1000
,
0100
0010
0011
0000
4000
3040
0131
0000
,
0001
0000
1000
0100
0010
0000
0001
1000
0010
0000
0100
0000
0101
0000
0000
0000
,
1001
1100
1001
0101
,
0110
0000
0010
1000
0001
0000
0010
0001
1000
0000
0001
0000
1MM1
0000
0000
0000
,
1000
0001
0100
0010
1000
0001
0010
0001
,
1000
0100
0010
0001
0010
0100
1000
0001
,
0100
0010
0100
0001
1000
0001
0010
0100
,
1000
0000
1000
0001
0100
0000
0001
0000
0101
0000
0000
0000
4000
0000
3040
0000
,
0130
0001
1000
0100
0010
0001
1000
0001
,
0100
0010
1000
0001
1000
0100
0010
0001
,
1001
0000
0000
1100
0000
0000
0040
0030
,
0011
0000
0000
0000
0000
0000
0000
0000
0000
0000
0000
0000
0000
0000
0000
0001
1000
0001
1000
0001
1000
0001
1000
0001
,
1000
0000
0010
0000
0100
0000
0001
0000
1000
0100
1000
0000
0001
0000
0010
0000
,
0001
1000
0001
0000
0100
0000
0010
0000
1000
0010
1000
0000
0001
0000
0010
0000
,
0100
0010
0100
0000
1000
0000
0001
0000
1000
0010
1000
0000
0001
0000
0010
0000
,
0001
0000
0001
0100
0010
0000
0100
0000
0001
0100
0001
0000
4000
0000
3400
0000
,
1300
0001
1000
0000
0010
0000
0100
0000
0001
0100
0001
0000
1000
0000
0001
0000
,
0010
0001
0010
0000
0100
0000
1000
0000
0001
0100
0001
0000
1000
0000
0100
0000
,
0110
0000
0010
0001
1000
0010
0400
0300
,
0101
0000
0000
0000
0000
0000
0000
0000
0000
0000
0000
0000
0000
0000
0000
0001
0100
0001
0100
0001
0100
0001
0100
0001
,
0100
0000
0010
0000
0100
0000
0001
0000
1000
0100
1000
0000
0001
0000
0010
0000
,
0001
1000
0001
0000
0100
0000
0010
0000
1000
0010
1000
0000
0001
0000
0010
0000
,
0100
0010
0100
0000
1000
0000
0001
0000
1000
0010
1000
0000
0001
0000
1000
0000
,
0100
0000
0100
0010
0001
0000
0100
0000
0001
0100
0001
0000
4000
0000
3400
0000
,
1300
0001
1000
0000
0010
0000
0100
0000
0001
0100
0001
0000
1000
0000
0001
0000
,
0010
0001
0010
0000
0100
0000
1000
0000
0001
0100
0001
0000
1000
0000
0100
0000
,
0010
0001
0010
0000
0100
0000
1000
0000
0001
0100
0001
0000
1000
0000
0010
0000
,
0100
0000
0100
0001
1000
0000
0001
0000
0011
0000
0010
0000
0400
0000
4300
0000
,
3001
0000
1000
0000
0100
0000
1000
0000
0001
0010
0001
0000
1000
0000
0100
0000
,
1000
0001
1000
0000
0010
0000
0100
0000
0001
0100
0001
0000
1000
0000
0100
0000
,
0010
0100
0010
0000
0001
0000
1000
0000
0001
0100
0001
0000
1000
0000
0100
0000
,
1000
0000
1000
0010
0100
0000
0010
0000
1000
0010
1000
0000
0004
0000
0043
0000
,
0031
1000
0001
0000
0100
0000
0010
0000
1000
0010
1000
0000
0001
0000
1000
0000
,
0100
1000
0100
0000
0010
0000
0001
0000
1000
0010
1000
0000
0001
0000
0010
0000
,
0110
0000
0000
1100
0000
0000
1001
0000
0000
0101
0000
0000
0004
0000
0403
0000
,
1310
0000
0000
0000
0000
0000
0000
0000
0000
1001
0000
0000
0000
0000
0000
0000
0000
0000
0011
0000
0000
0000
0000
0000
0000
0000
0000
1001
0000
0000
0000
0000
0000
0000
0000
0000
0001
0000
1000
0000
0001
0000
1000
0000
0001
0000
1000
0000
,
0001
0000
0010
0000
0100
0000
1000
0000
0001
0010
0001
0000
1000
0000
0100
0000
,
1000
0001
1000
0000
0010
0000
0100
0000
0001
0100
0001
0000
1000
0000
0100
0000
,
0010
0100
0010
0000
0001
0000
1000
0000
0001
0100
0001
0000
1000
0000
0100
0000
,
0010
0000
0010
0001
0100
0000
0010
0000
1000
0010
1000
0000
0040
0000
0430
0000
,
0301
1000
0001
0000
0100
0000
0010
0000
1000
0010
1000
0000
0001
0000
1000
0000
,
0100
1000
0100
0000
0010
0000
0001
0000
1000
0010
1000
0000
0001
0000
0010
0000
,
0100
1000
0100
0000
1000
0000
0001
0000
0100
0001
0100
0000
0010
0000
1000
0000
,
0001
0000
0001
1000
0100
0000
0010
0000
0011
0000
0001
0000
0400
0000
0304
0000
,
1013
0000
1000
0000
0100
0000
0010
0000
0001
0010
0001
0000
1000
0000
0100
0000
,
1000
0001
1000
0000
0010
0000
0100
0000
0001
0100
0001
0000
1000
0000
0100
0000
,
0010
0100
0010
0000
0001
0000
1000
0000
0001
0100
0001
0000
1000
0000
0100
0000
,
1000
0000
1000
0010
0100
0000
0010
0000
1000
0010
1000
0000
0004
0000
0043
0000
,
0031
1000
0001
0000
0100
0000
0010
0000
1000
0010
1000
0000
0001
0000
1000
0000
,
0100
1000
0100
0000
0010
0000
0001
0000
1000
0010
1000
0000
0001
0000
0010
0000
,
0001
1000
0001
0000
0100
0000
0010
0000
1000
0010
1000
0000
0010
0000
0100
0000
,
1MM1
0000
M00M
0000
0MM0
0000
M00M
0000
1000
0001
1000
0000
0100
0000
1000
0000
,
0001
0100
0001
0000
1000
0000
0001
0000
1000
0010
1000
0000
0010
0000
0100
0000
,
0001
0100
0001
0000
1000
0000
0001
0000
0010
0001
1000
0000
2022
0000
3033
0000
,
2022
0000
3033
0000
0100
0000
0001
0000
1000
0000
1000
0100
0010
0000
0001
0000
,
1001
0000
4000
3004
1013
1000
0001
0010
,
0100
1000
0100
0000
1000
0000
0001
0000
0100
0010
0100
0000
0010
0000
1000
0000
,
0001
0010
0001
0000
1000
0000
0100
0000
0010
0001
1000
0000
0001
0000
0001
0000
,
0001
0001
4000
3001
0100
0000
0000
0000
,
0000
0000
0000
0001
1000
0001
1000
0001
1000
0001
1000
0001
1000
0000
0000
0001
0000
0000
1000
0000
0000
0010
0000
0000
,
0100
0001
0100
0000
0010
0000
0100
0000
0001
1000
0001
0000
0010
0000
0001
0000
,
1000
0100
1000
0000
0001
0000
0010
0000
0100
1000
0001
0000
2022
0000
3033
0000
,
2022
0000
3033
0000
0100
0000
0001
0000
1000
0000
1000
0001
0010
0000
0100
0000
,
1100
0000
4000
3004
1013
1000
0001
0010
,
0100
1000
0100
0000
1000
0000
0001
0000
0100
0010
0100
0000
0010
0000
1000
0000
,
0001
0010
0001
0000
1000
0000
0100
0000
0010
0001
1000
0000
2022
0000
3033
0000
,
2022
0000
3033
0000
1000
0000
0001
0000
0011
0000
0010
0001
1000
0000
0010
1000
,
0001
0010
0400
4300
3101
0001
1000
0100
,
0010
0001
0010
0000
0001
0000
1000
0000
0010
0100
0010
0000
0100
0000
0001
0000
,
1000
0100
1000
0000
0001
0000
0010
0000
0100
1000
0001
0000
2022
3033
0000
0000
,
2022
0000
3033
0000
0001
0000
1000
0000
0001
0000
0001
0100
0010
0000
1000
0000
,
1010
0000
4000
3004
1103
1000
0001
0100
,
0010
1000
0010
0000
0100
0000
0010
0000
1000
0001
1000
0000
0100
0000
1000
0000
,
0001
0010
0001
0000
1000
0000
0100
0000
0110
0000
0000
0000
0100
0000
0100
0000
,
0100
0100
0040
0130
1000
0000
0000
0000
,
0000
0000
0000
0001
1000
0001
1000
0001
1000
0001
1000
0001
1000
0000
0000
0001
0000
0000
1000
0000
0000
0100
0000
0000
,
0010
0001
0010
0000
0001
0000
1000
0000
0010
0100
0010
0000
0100
0000
0001
0000
,
1000
0100
1000
0000
0001
0000
0010
0000
0100
1000
0001
0000
2022
0000
3033
0000
,
2022
0000
3033
0000
0001
0000
1000
0000
0001
0000
0001
1000
0100
0000
0010
0000
,
0011
0000
4000
3040
0131
0100
0001
0010
,
0100
1000
0100
0000
1000
0000
0001
0000
0100
0010
0100
0000
0010
0000
1000
0000
,
0001
0010
0001
0000
1000
0000
0100
0000
0010
0001
1000
0000
2022
0000
3033
0000
,
2022
0000
3033
0000
1000
0000
0001
0000
0011
0000
0010
0001
1000
0000
0010
1000
,
0001
0000
0010
0000
0400
0000
4300
0000
32M2
0303
0000
0000
0001
0100
0001
0000
,
0100
0000
0010
0000
1000
0001
1000
0000
0001
0000
0010
0000
0100
1000
0100
0000
,
0010
0000
0001
0000
1000
0000
0000
0010
0200
0000
0302
0000
1003
0100
1000
0000
,
0001
0000
0010
0000
0100
0010
0100
0000
1000
0000
0001
0000
0100
0001
0100
0000
,
0010
0000
1000
0000
0001
0000
0000
1000
0020
0000
0230
0000
0301
1000
0001
0000
,
0010
0000
0100
0000
1000
0100
1000
0000
0001
0000
0100
0000
0010
0100
0010
0000
,
0100
0000
0001
0000
1000
0000
0000
0001
0020
0000
0230
0000
1300
0001
1000
0000
,
0001
0000
0100
0000
0010
1000
0010
0000
0100
0000
0001
0000
1001
0000
0000
0000
,
0001
1000
0001
0040
0430
4300
3101
0001
,
1000
0000
0000
0100
0000
0000
1000
0001
1000
0001
1000
0001
1000
0000
0000
0001
0000
0000
0101
0000
0000
0100
0000
0000
,
0010
0000
0000
1000
0000
0000
0010
0100
0010
0100
0010
0100
0010
0000
0000
1000
0000
0000
1001
0000
0000
0001
0000
0000
,
0010
0000
0000
0100
0000
0000
1000
0100
1000
0100
1000
0100
1000
0000
0000
0001
0000
0000
0011
0000
0000
0010
0000
0000
,
0100
0000
0000
1000
0000
0000
0001
0100
0001
0100
0001
0100
0001
0000
0000
1000
0000
0000
1001
0000
0000
0001
0000
0000
,
1000
0000
0000
0100
0000
0000
1000
0001
1000
0001
1000
0001
1000
0000
0000
0001
0000
0000
0101
0000
0000
0100
0000
0000
,
0010
0000
0000
1000
0000
0000
0010
0100
0010
0100
0010
0100
0010
0000
0000
1000
0000
0000
1001
0000
0000
0001
0000
0000
,
0010
0000
0000
0100
0000
0000
1000
0100
1000
0100
1000
0100
1000
0000
0000
0001
0000
0000
0011
0000
0000
0010
0000
0000
,
0100
0000
0000
1000
0000
0000
0001
0100
0001
0100
0001
0100
0001
0000
0000
0010
0000
0000
0011
0000
0000
0001
0000
0000
,
1000
0000
0000
0100
0000
0000
1000
0001
1000
0001
1000
0001
1000
0000
0000
0001
0000
0000
0101
0000
0000
0100
0000
0000
,
0010
0000
0000
1000
0000
0000
0010
0100
0010
0100
0010
0100
0010
0000
0000
1000
0000
0000
1001
0000
0000
0001
0000
0000
,
0010
0000
0000
0100
0000
0000
1000
0100
1000
0100
1000
0100
1000
0000
0000
0001
0000
0000
0011
0000
0000
0010
0000
0000
,
0100
0000
0000
1000
0000
0000
0001
0100
0001
0100
0001
0100
0001
0000
0000
1000
0000
0000
1010
0000
0000
0010
0000
0000
,
0100
0000
0000
0001
0000
0000
1000
0010
1000
0010
1000
0010
1000
0000
0000
0001
0000
0000
0011
0000
0000
0010
0000
0000
,
0100
0000
0000
1000
0000
0000
0001
0010
0001
0010
0001
0010
0001
0000
0000
1000
0000
0000
1010
0000
0000
0000
0000
0000
,
0010
0100
0004
0403
0340
4030
3011
0000
,
0001
1000
0001
0000
0100
0000
0010
0000
0100
0001
0100
0000
0010
0000
1000
0000
,
0001
0010
0001
0000
1000
0000
0100
0000
0010
0100
0010
0000
0100
0000
1000
0000
,
0001
0100
0001
0000
1000
0000
0001
0000
0010
0001
0010
0000
0100
0000
1000
0000
,
0001
0000
0001
0100
0010
0000
1000
0000
1010
0000
0000
0000
0040
0000
0430
0000
,
0301
1000
0001
0000
0010
0000
0100
0000
1000
0001
1000
0000
0010
0000
0100
0000
,
0001
0100
0001
0000
1000
0000
0100
0000
0010
0001
0010
0000
0100
0000
1000
0000
,
0001
0100
0001
0000
1000
0000
0001
0000
0010
0100
0010
0000
0100
0000
1000
0000
,
0001
0000
0001
0100
0010
0000
1000
0000
1001
0000
0000
0000
0004
0000
0043
0000
,
0130
1000
0100
0000
0010
0000
0001
0000
1000
0001
1000
0000
0010
0000
0100
0000
,
0001
0100
0001
0000
1000
0000
0100
0000
0010
0001
0010
0000
0100
0000
0010
0000
,
0001
1000
0001
0000
1000
0000
0010
0000
0100
0001
0100
0000
0010
0000
1000
0000
,
0001
0000
0001
0010
0100
0000
1000
0000
1100
0000
0000
0000
0400
0000
0340
0000
,
0031
1000
0001
0000
0100
0000
0010
0000
1000
0010
1000
0000
0001
0000
0010
0000
,
0100
1000
0100
0000
0010
0000
0001
0000
1000
0001
1000
0000
0001
0000
0100
0000
,
0101
0000
0000
0110
0000
0000
1010
0000
0000
1001
0000
0000
0004
0000
4003
0000
,
3011
0000
0000
0000
0000
0000
0000
0000
0000
1001
0000
0000
0000
0000
0000
0000
0000
0000
0101
0000
0000
0000
0000
0000
0000
0000
0000
1001
0000
0000
0000
0000
0000
0000
0000
0000
0001
0000
1000
0000
0001
0000
1000
0000
0001
0000
1000
0000
,
0001
0000
0000
1000
0000
0000
0100
0000
0000
0010
0000
0000
0001
0100
0001
0100
0001
0100
0001
0000
0000
1000
0000
0000
,
2002
0000
0000
3003
0000
0000
0022
0000
0000
0033
0000
0000
0010
0000
0000
0000
0000
0000
0100
0000
0000
0000
0000
0000
1000
0000
0001
0000
1000
0000
0001
0000
1000
0000
0001
0000
1000
0000
0000
0000
0000
0000
0001
0000
0000
0000
0000
0000
,
0202
0000
0000
0303
0000
0000
0220
0000
0000
0330
0000
0000
0010
0000
0000
0000
0000
0000
1000
0000
0000
0000
0000
0000
0001
0000
0100
0000
0001
0000
0100
0000
0001
0000
0100
0000
0001
0000
0000
0000
0000
0000
1000
0000
0000
0000
0000
0000
,
1001
0000
0000
0000
0000
0000
0001
0000
0000
0100
0000
0000
0010
0000
0000
0000
0000
0000
1000
0000
0000
0000
0000
0000
0001
0000
1000
0000
0001
0000
1000
0000
0001
0000
1000
0000
0004
0000
0000
0000
0000
0000
0043
0000
0000
0000
0000
0000
,
1130
0000
0000
0100
0000
0000
0010
0000
0000
0001
0000
0000
1000
0001
1000
0001
1000
0001
1000
0000
0000
0010
0000
0000
,
0110
0000
0000
0100
0000
0000
0001
0000
0000
1000
0000
0000
0001
0010
0001
0010
0001
0010
0001
0000
0000
1000
0000
0000
,
1010
0000
0000
0010
0000
0000
0100
0000
0000
0001
0000
0000
1000
0010
1000
0010
1000
0010
1000
0000
0000
0001
0000
0000
,
0011
0000
0100
1000
0001
0000
0100
0001
1000
0000
0000
0000
0004
0000
4003
0000
,
3001
0000
0000
1000
0000
0000
0100
0000
0000
0010
0000
0000
0001
0100
0001
0100
0001
0100
0001
0000
0000
1000
0000
0000
,
2002
0000
0000
3003
0000
0000
0022
0000
0000
0033
0000
0000
0010
0000
0000
0000
0000
0000
0100
0000
0000
0000
0000
0000
1000
0000
0001
0000
1000
0000
0001
0000
1000
0000
0001
0000
1000
0000
0000
0000
0000
0000
0001
0000
0000
0000
0000
0000
,
0202
0000
0000
0303
0000
0000
0220
0000
0000
0330
0000
0000
0010
0000
0000
0000
0000
0000
1000
0000
0000
0000
0000
0000
0001
0000
0100
0000
0001
0000
0100
0000
0001
0000
0100
0000
0001
0000
0000
0000
0000
0000
1000
0000
0000
0000
0000
0000
,
1001
0000
0000
0000
0000
0000
0001
0000
0000
0100
0000
0000
0010
0000
0000
0000
0000
0000
1000
0000
0000
0000
0000
0000
0001
0000
1000
0000
0001
0000
1000
0000
0001
0000
1000
0000
0004
0000
0000
0000
0000
0000
0043
0000
0000
0000
0000
0000
,
1130
0000
0000
0100
0000
0000
0010
0000
0000
0001
0000
0000
1000
0001
1000
0001
1000
0001
1000
0000
0000
0010
0000
0000
,
0110
0000
0000
0100
0000
0000
0001
0000
0000
1000
0000
0000
0001
0010
0001
0010
0001
0010
0001
0000
0000
1000
0000
0000
,
1010
0000
0000
0110
0000
0000
0101
0000
0000
1001
0000
0000
0004
0000
4003
0000
,
3001
0100
0001
0000
0100
0000
0001
0000
1000
0010
1000
0000
0001
0000
1000
0000
,
0001
0100
0001
0000
0100
0000
0010
0000
1000
0010
1000
0000
0001
0000
1000
0000
,
0100
1000
0001
0000
2022
0000
3033
0000
2022
0000
3033
0000
0010
0000
1000
0000
,
0001
0000
0001
0010
0100
0000
1000
0000
1001
0000
0000
0000
0004
0000
4003
0000
,
3101
0000
0001
0000
1000
0000
0100
0000
0010
0001
0010
0000
0001
0000
1000
0000
,
0010
0100
0010
0000
0100
0000
0001
0000
1000
0100
1000
0000
0001
0000
0010
0000
,
0100
1000
0001
0000
0100
0000
0100
0000
0100
0000
0100
0000
0040
0000
0130
0000
,
0001
0000
0000
0000
0000
0004
4003
3004
,
1103
0000
1000
0000
0001
0000
0100
0000
0010
1000
0010
0000
0100
0000
0010
0000
,
1000
0001
1000
0000
0100
0000
1000
0000
0001
0010
0001
0000
1000
0000
0100
0000
,
0010
0001
1000
0000
2022
0000
3033
0000
2022
0000
3033
0000
0010
0000
1000
0000
,
0001
0000
0001
1000
0100
0000
0010
0000
0011
0000
0000
0000
0004
0000
4003
0000
,
3101
0000
0001
0000
1000
0000
0100
0000
0010
0001
0010
0000
0001
0000
1000
0000
,
0010
0100
0010
0000
0100
0000
0001
0000
1000
0100
1000
0000
0001
0000
0010
0000
,
0100
1000
0001
0000
2022
0000
3033
0000
2022
0000
3033
0000
0001
0000
1000
0000
,
1001
0000
0001
0100
0001
0000
1000
0100
1000
0000
0000
0000
0004
0000
4003
0000
,
3011
0000
0000
0001
0000
0000
1000
0000
0000
0100
0000
0000
1000
0001
1000
0001
1000
0001
1000
0000
0000
0001
0000
0000
,
0101
0000
0000
0100
0000
0000
0010
0000
0000
1000
0000
0000
0010
0100
0010
0100
0010
0100
0010
0000
0000
1000
0000
0000
,
1001
0000
0000
0001
0000
0000
0010
0000
0000
0100
0000
0000
1000
0100
1000
0100
1000
0100
1000
0000
0000
0001
0000
0000
,
0011
0000
0000
0000
0000
0000
0010
0000
0000
0100
0000
0000
1000
0000
0000
0000
0000
0000
1000
0000
0000
0000
0000
0000
0001
0000
0100
0000
0001
0000
0100
0000
0001
0000
0100
0000
0001
0000
0000
0000
0000
0000
1000
0000
0000
0000
0000
0000
,
1001
0000
0000
0001
0000
0000
1000
0000
0000
0100
0000
0000
1000
0001
1000
0001
1000
0001
1000
0000
0000
0001
0000
0000
,
0101
0000
0000
0100
0000
0000
0010
0000
0000
1000
0000
0000
0010
0100
0010
0100
0010
0100
0010
0000
0000
1000
0000
0000
,
1001
0000
0001
0001
0001
0001
4000
3001
,
0010
0000
0000
0000
0000
0004
0043
0034
,
1013
0000
0000
1000
0000
0000
0001
0000
0000
0010
0000
0000
0001
1000
0001
1000
0001
1000
0001
0000
0000
1000
0000
0000
,
1010
0000
0000
0010
0000
0000
0100
0000
0000
0001
0000
0000
0100
0010
0100
0010
0100
0010
0100
0000
0000
0001
0000
0000
,
1001
0000
0000
1000
0000
0000
0100
0000
0000
0010
0000
0000
0001
0010
0001
0010
0001
0010
0001
0000
0000
1000
0000
0000
,
1100
0000
0000
0000
0000
0000
0100
0000
0000
0010
0000
0000
0001
0000
0000
0000
0000
0000
0001
0000
0000
0000
0000
0000
1000
0000
0010
0000
1000
0000
0010
0000
1000
0000
0010
0000
1000
0000
0000
0000
0000
0000
0001
0000
0000
0000
0000
0000
,
0101
0000
0000
0100
0000
0000
0010
0000
0000
1000
0000
0000
0001
0100
0001
0100
0001
0100
0001
0000
0000
1000
0000
0000
,
1100
0000
0000
0100
0000
0000
0010
0000
0000
0001
0000
0000
1000
0100
1000
0100
1000
0100
1000
0000
0000
0001
0000
0000
,
0101
0000
0000
0100
0000
0000
0010
0000
0000
1000
0000
0000
0001
1000
0001
1000
0001
1000
0001
0000
0000
0010
0000
0000
,
0110
0000
0100
1000
0001
0000
0100
0000
0101
0000
0000
0000
0004
0000
0403
0000
,
2320
3030
0000
M0M0
0000
0000
0000
0000
0000
0000
0000
0000
0000
0000
0000
0000
;
