#TITLE:SPEED OF SOUND;
#SUBTITLE:(David X Radio Mix);
#ARTIST:Coldplay;
#TITLETRANSLIT:;
#SUBTITLETRANSLIT:;
#ARTISTTRANSLIT:;
#CREDIT:;
#BANNER:speedofsoundremix.png;
#BACKGROUND:speedofsoundremixbg.PNG;
#LYRICSPATH:;
#CDTITLE:omega8bit.png;
#MUSIC:speedofsoundremix.mp3;
#OFFSET:0.340;
#SAMPLESTART:83.100;
#SAMPLELENGTH:20.000;
#SELECTABLE:YES;
#BPMS:0.000=125.000,253.000=114.980,253.313=93.540,253.563=76.320,253.813=60.700,254.063=45.880,254.500=20.320,254.813=9.920;
#STOPS:;
#BGCHANGES:;
// cache tags:
#FIRSTBEAT:13.000;
#LASTBEAT:255.000;
#SONGFILENAME:Songs/juju steps/Speed Of Sound (David X Mix)/speedofsoundremix.sm;
#HASMUSIC:1;
#HASBANNER:1;
#MUSICLENGTH:126.364;
// end cache tags

//---------------dance-single - ----------------
#NOTES:
     dance-single:
     :
     Hard:
     7:
     0.518,0.454,0.214,0.166,0.000,410.000,27.000,21.000,0.000,0.000:
0000
0000
0000
0000
,
0000
0000
0000
0000
,
0000
0000
0000
0000
,
0000
0000
1000
0010
0100
1000
0010
0100
,
0001
0010
0001
0100
1000
0010
0100
0000
,
0100
1000
0010
0100
0001
0010
0001
0100
,
1000
0010
0100
1000
0020
0000
0030
0000
,
0100
1000
0010
0100
0001
0010
0001
0100
,
1000
0020
0000
0030
0100
0000
0100
1000
,
0010
0100
0001
0010
0001
0100
1000
0010
,
1000
0002
0000
0003
0100
0000
0100
1000
,
0010
0000
0010
0100
0020
0000
1030
0100
,
2000
0000
3010
0001
0020
0000
0130
1000
,
0002
0000
0013
0100
2000
0000
3010
0100
,
0020
0000
0031
0100
2000
0000
3010
0010
,
0002
0000
1003
0010
1100
0000
0100
0010
,
0011
0000
0001
0100
1100
0000
0010
0100
,
0110
0000
1000
0001
1001
0000
0010
0001
,
0101
0000
1000
0100
1010
0000
0100
0100
,
0100
0000
0001
0100
1000
0010
0100
1000
,
0010
0100
0001
0010
0001
0100
1000
0010
,
0100
1000
0100
0010
0100
0001
0010
0001
,
0100
1000
0010
0100
1000
0010
0100
1000
,
0010
0100
0001
0010
0001
0100
1000
0010
,
0100
1000
0010
0100
0001
0010
0001
0100
,
1000
0010
0100
1000
0010
0100
0001
0010
,
0001
0100
1000
0010
0100
0010
0100
1000
,
0001
0000
1001
0100
0010
0000
0110
0010
,
1000
0000
1001
0100
0010
0000
0011
0100
,
1000
0000
1100
0100
0010
0000
0110
0001
,
0001
0000
0101
0100
0100
0000
1010
1000
,
0010
0000
1010
0100
0001
0000
0101
0100
,
1000
0000
1010
0010
0100
0000
0110
0001
,
0100
0000
1001
0100
0100
0000
1100
0010
,
0100
0000
0110
0001
0010
0000
1010
0100
,
1000
0000
1001
0010
0100
1000
0110
0100
,
1000
0001
0000
0001
0002
0000
0100
0003
,
0100
2000
0010
3000
0010
0000
0010
0100
,
1000
0020
0000
0130
0100
0000
0200
0000
,
2300
0000
3010
0000
0010
1000
0010
0010
,
1000
0020
0000
0000
0100
0030
0100
0001
,
0001
0002
0003
0000
0100
1000
0010
0100
,
0000
1000
0020
0000
0130
0000
0100
1000
,
0010
1000
0100
1000
0010
0100
0001
0010
,
0001
0100
1000
0010
0100
1000
0010
0100
,
0010
0001
0100
1000
0010
1000
0100
0001
,
0010
0001
0100
1000
0010
0100
1000
0100
,
0001
0010
0001
0100
0010
0100
1000
0010
,
0100
0001
0010
0001
0100
1000
0010
0100
,
1000
0010
0100
0001
0100
0010
1000
0100
,
0100
0010
0001
0100
1000
0010
0100
0001
,
0001
0100
1001
0000
0100
0100
1000
0010
,
0100
1000
0010
0100
0001
0010
0001
0100
,
1000
0010
0100
1000
0010
0100
1000
0100
,
0100
0010
0001
0100
1000
0010
0100
1000
,
0100
0001
0010
0001
0100
0010
0100
1000
,
0010
0100
1000
0100
0001
0100
0010
0100
,
1000
0010
0010
1000
0100
0001
0010
0001
,
0100
1000
0010
0100
1000
0010
0100
1000
,
0001
0010
0001
0010
0001
0100
1000
0010
,
0100
1000
0010
0100
1000
0010
0100
1000
,
0010
0001
0100
0010
0100
1000
0010
1000
,
0100
0001
2002
0000
0000
0000
0000
0000
,
0000
0000
0000
3003
;

//---------------dance-single - ----------------
#NOTES:
     dance-single:
     :
     Medium:
     6:
     0.375,0.378,0.277,0.016,0.000,295.000,35.000,2.000,0.000,0.000:
0000
0000
0000
0000
,
0000
0000
0000
0000
,
0000
0000
0000
0000
,
0000
0000
1000
0100
0010
0000
0010
0001
,
0100
0000
0100
1000
0010
0000
0010
0100
,
0001
0000
0001
0100
1000
0000
1000
0010
,
0001
0000
0001
1000
0001
0000
0010
0100
,
0010
0000
1000
0100
1000
0000
0010
0001
,
0010
0000
0100
1000
0010
0000
0010
0100
,
0001
0000
0010
0001
0100
0000
0100
1000
,
0010
0000
1000
0001
1000
0000
0010
0100
,
1000
0000
1000
0100
0010
0000
0100
1000
,
0010
0000
0010
1000
0001
0000
0010
0001
,
0100
0000
0100
1000
0010
0000
0100
0001
,
0001
0000
0001
0010
1000
0000
1000
0100
,
0010
0000
0010
0001
0001
0000
0001
0100
,
1000
0000
1000
0010
0100
0000
1000
0010
,
0100
0000
0010
1000
1000
0000
0100
0010
,
0100
0000
0001
0100
1000
0000
0010
1000
,
0001
0000
1001
0000
0001
0000
0100
1000
,
0010
0000
1001
0000
1001
0000
0010
0100
,
1000
0000
1001
0000
1001
0000
0010
0001
,
0001
1001
1001
0010
,
0100
0000
1100
0000
1100
0000
0010
0001
,
0001
0000
0011
0000
0011
0000
0001
0100
,
0010
0000
0110
0000
0110
0000
1000
0100
,
1000
0000
1100
0000
1100
0000
0010
0100
,
0001
1001
0010
0100
,
1000
0000
0010
0000
0100
0000
0001
1000
,
0001
0010
0100
1000
,
0100
0000
0010
0000
0001
0000
0001
1000
,
0001
0010
0100
1000
,
0100
0001
0010
0001
,
0100
1000
0010
0100
,
1000
0000
0100
0000
0010
0000
0010
0001
,
0100
0000
0100
0000
1001
0000
0010
0100
,
1000
0000
0010
0000
1010
0000
1000
0100
,
0010
0000
0001
0000
1001
0000
0010
0100
,
0000
0000
0010
0000
1001
0000
0010
0100
,
1000
0000
0001
0000
0010
0000
0010
0001
,
0100
1000
0010
0000
0100
0000
1001
0000
,
1001
0010
0100
1000
,
0100
0001
0100
1000
,
0010
0000
0100
0000
1000
0000
1000
0010
,
1000
0100
0010
0000
1001
0000
0100
0010
,
0100
1000
0010
0000
1001
0000
0010
0000
,
0001
0100
1000
0010
,
0100
0010
1001
0010
,
0001
0000
0001
0100
1000
0000
1000
0100
,
0001
0000
0001
0010
1000
0000
1000
0010
,
0001
0001
1000
0010
,
0100
0110
1000
1100
,
0010
0011
0001
0101
,
1000
0000
1000
0010
1000
0000
0100
0000
,
1100
0010
0110
1000
,
1001
0010
0011
0001
,
0100
0000
1000
0001
1000
0000
0010
0000
,
1100
0010
0100
0010
,
0001
0001
0100
1000
,
1000
0000
0010
0000
0100
0000
1000
0001
,
1000
1000
0001
0010
,
0100
1000
0010
0100
,
0001
2002
0000
0000
,
0000
0000
0000
3003
;

//---------------dance-single - ----------------
#NOTES:
     dance-single:
     :
     Easy:
     4:
     0.320,0.328,0.095,0.269,0.000,237.000,12.000,34.000,0.000,0.000:
0000
0000
0000
0000
,
0000
0000
0000
0000
,
0000
0000
0000
0000
,
0000
2000
3100
0020
,
0031
0002
0103
0020
,
0130
2000
3010
2000
,
3100
0020
0130
0002
,
0013
0002
0103
2000
,
3010
0200
1300
0020
,
0031
0002
0103
0002
,
1003
0020
0130
2000
,
3100
0020
0031
0002
,
0103
0200
1300
2000
,
3010
0200
0301
0020
,
0031
0002
0103
2000
,
3010
0200
1300
0020
,
0130
0002
0103
2000
,
3010
0020
1030
0200
,
1300
1000
0100
0001
,
0010
0001
0001
0100
,
0100
1000
1000
0010
,
0010
0001
0001
0100
,
0100
1000
1000
0001
,
0001
0100
1000
0010
,
0100
0010
0001
0100
,
1000
0010
0100
0001
,
0010
0001
0100
1000
,
0010
1001
0100
1000
,
0010
0110
1000
0001
,
0100
0011
0001
0100
,
1000
0110
1000
0100
,
1000
1010
1000
0100
,
0001
1001
0100
1000
,
0010
0110
1000
0100
,
0001
0011
0100
1000
,
0010
0100
0100
0001
,
0001
0010
0010
1000
,
1000
1000
1000
0010
,
0010
0001
0001
0100
,
0100
0010
0100
1000
,
0010
0100
0001
0010
,
0001
0100
1000
0100
,
0001
0100
1000
0010
,
0001
1001
0010
0100
,
0100
1000
1000
0001
,
0001
0002
1000
0010
,
0100
1000
0010
0100
,
1003
0010
0100
1000
,
0100
0010
0001
0100
,
1000
0020
1000
0100
,
1000
0001
1000
0100
,
1030
0100
1000
0010
,
0100
0010
0001
0100
,
1000
0010
0100
0001
,
1000
1001
0010
0100
,
1000
0010
0100
0010
,
0001
0100
1000
0010
,
0100
0001
0100
0001
,
1001
0010
0100
1000
,
0010
0100
0001
0010
,
0001
0100
1000
0010
,
0100
1000
0100
0010
,
0001
2002
0000
0000
,
0000
0000
0000
3003
;

//---------------dance-single - ----------------
#NOTES:
     dance-single:
     :
     Beginner:
     1:
     0.164,0.172,0.095,0.000,0.000,133.000,12.000,0.000,0.000,0.000:
0000
0000
0000
0000
,
0000
0000
0000
0000
,
0000
0000
0000
0000
,
0000
1000
1000
1000
,
1000
1000
0000
0000
,
0000
0001
0001
0001
,
0001
0001
0000
0000
,
0000
0010
0010
0010
,
0010
0010
0000
0000
,
0000
0100
0100
0100
,
0100
0100
0000
0000
,
0000
0010
0000
1001
,
0000
0100
0000
0010
,
0000
1000
0000
0001
,
0000
1001
0000
0010
,
0000
0100
0000
0110
,
0000
1000
0000
0010
,
0000
1001
0000
0100
,
0000
0010
0000
0001
,
0001
0001
0000
1000
,
1000
1000
0000
0010
,
0010
0010
0000
0100
,
0100
0100
0000
0000
,
0000
1000
0000
0010
,
0000
0100
0000
0001
,
0000
0010
0000
0100
,
0000
1000
0000
0010
,
0000
1001
0000
0100
,
0000
0010
0000
0100
,
0000
1000
0000
0001
,
0000
0001
0000
1000
,
0000
0010
0000
1001
,
0000
0010
0000
0110
,
0000
1000
0000
1001
,
0000
0001
0000
1001
,
0000
0010
0000
0110
,
0000
1000
0000
0100
,
0000
0010
0000
0001
,
0000
0100
0000
1000
,
0000
0010
0010
0010
,
0000
0100
0100
0100
,
0000
1000
1000
1000
,
0000
0001
0001
0001
,
0000
0100
0100
0000
,
0000
0010
0010
0000
,
0000
0100
0100
0000
,
0000
1000
1000
0000
,
0000
0010
0010
0000
,
0000
0001
0001
0000
,
0000
0100
0100
0000
,
0000
1000
1000
0000
,
0000
0010
0000
0100
,
0000
0001
0000
1000
,
0000
1001
0000
0010
,
0000
1000
0000
0001
,
0000
0100
0000
0110
,
0000
1000
0000
0010
,
0000
0100
0000
0001
,
0000
1000
0000
0001
,
0000
0010
0000
0001
,
0001
0001
0000
1000
,
1000
1000
0000
0010
,
0010
0010
0000
0000
;

//---------------dance-single - ----------------
#NOTES:
     dance-single:
     :
     Challenge:
     9:
     0.601,0.631,0.008,0.032,0.222,527.000,1.000,4.000,0.000,0.000:
0000
0000
0000
0000
,
0000
0000
0000
0000
,
0000
0000
0000
0000
,
0000
0000
1000
0100
1000
0010
0100
0001
,
0010
0001
0100
1000
0010
0100
1000
0010
,
0100
0001
0010
0001
0100
1000
0010
0100
,
1000
0010
0100
0001
0010
0001
0100
1000
,
0010
0100
1000
0010
0100
0001
0010
0001
,
0100
1000
0010
0100
1000
0010
0100
0001
,
0010
0001
0100
1000
0010
0100
1000
0010
,
0100
0001
0010
0001
0100
1000
0010
0100
,
1000
0010
0100
1000
0010
0100
0001
0010
,
0001
0100
1000
0010
0100
1000
0010
0100
,
0001
0010
0001
0100
1000
0010
0100
1000
,
0010
0001
0100
0010
0100
1000
0010
0100
,
0001
0010
0001
0100
1000
0010
0100
1000
,
0001
0010
0001
0100
1000
0010
0100
0010
,
0001
0100
1000
0010
0100
1000
0010
0001
,
0100
0010
0100
1000
0001
0010
0100
0010
,
1000
0100
0010
0001
0100
0010
0100
1000
,
0010
0100
0001
0010
0001
0100
1000
0010
,
0100
1000
0010
0100
0001
0010
0001
0100
,
1000
0010
0100
1000
0001
0010
0001
0100
,
1000
0010
0100
1000
0010
1000
0100
0001
,
0010
0001
0100
0010
0100
1000
0010
0100
,
0001
0010
0001
0100
1000
0010
1000
0100
,
0001
0010
0001
0100
0010
0100
1000
0010
,
0100
0000
0001
0000
0002
0000
0000
0003
2000
0000
0000
3000
0100
0000
0010
0000
,
0100
0001
0010
0001
0100
1000
0010
0100
,
1000
0010
0100
1000
0010
0100
0001
0100
,
0010
0001
0100
1000
0010
0100
0001
0010
,
0001
0100
0010
0100
1000
0010
1000
0100
,
0010
0001
0100
0010
1000
0100
1000
0010
,
0100
0010
0001
0100
1000
0010
0100
1000
,
0010
0100
0010
0001
0100
1000
0010
1000
,
0100
0000
0001
0000
0010
0000
0010
1000
0010
0000
0100
0000
1000
0000
0010
0000
,
0100
0000
0001
0000
0100
0000
0001
0100
0001
0000
0100
0000
1000
0000
0010
0000
,
0100
0000
1000
0000
0010
0000
0010
1000
0010
0000
1000
0000
0100
0000
0001
0000
,
0010
0000
0001
0000
0100
0000
0001
1000
0001
0000
0010
0000
0100
0000
1000
0000
,
0010
0000
0100
0000
1000
0000
0010
1000
0100
0000
1000
0000
0010
0000
0001
0000
,
0010
0000
0001
0000
0010
0000
0001
0100
1000
0000
0010
0000
0100
0000
1000
0000
,
0010
0000
0100
0000
0001
0000
0010
0001
0100
0000
1000
0000
0010
0000
1000
0000
,
0100
0000
0010
0000
0001
0000
0100
1000
0100
0000
0010
0000
0100
0000
1000
0000
,
0010
0000
1000
0000
1000
0000
1000
0100
1000
0000
0100
0000
0010
0000
0100
1000
,
0100
0000
1000
0000
0010
0000
0100
0001
0100
0000
1000
0000
0010
0000
1000
0010
,
1000
0000
1000
0000
0100
0000
0001
0100
0001
0000
0100
0000
1000
0000
0010
1000
,
0010
0000
1000
0000
0100
0000
0001
0100
0001
0000
0010
0000
0001
0000
1000
0001
,
1000
0000
0001
0000
0010
0000
0010
1000
0010
0000
1000
0000
0100
0000
0100
1000
,
0100
0000
1000
0000
0100
0000
0010
0001
0010
0000
0010
0000
0010
0000
0100
1000
,
0010
0000
0001
0000
0100
0000
0010
0100
1000
0000
0010
0000
1000
0000
0100
1000
,
0100
0000
1000
0000
0010
0000
0010
1000
0010
0000
0010
0000
0001
0000
0001
1000
,
0001
0000
1000
0000
1000
0000
1000
0100
1000
0000
0100
0001
0010
0000
0100
1000
,
0100
0000
1000
0100
0010
0000
0100
0001
0100
0000
1000
0001
0010
0000
1000
0010
,
1000
0000
1000
0010
0100
0000
0001
0100
0001
0000
0100
0010
1000
0000
0010
1000
,
0010
0000
1000
0010
0100
0000
0001
0100
0001
0000
0010
0100
0001
0000
1000
0001
,
1000
0000
0001
0100
0010
0000
0010
1000
0010
0000
1000
0001
0100
0000
0100
1000
,
0100
0000
1000
0010
0100
0000
0010
0001
0010
0000
0010
0100
0010
0000
0100
1000
,
0010
0000
0001
1000
0100
0000
0010
0100
1000
0000
0010
0001
1000
0000
0100
1000
,
0100
0000
1000
0100
0010
0000
0010
1000
0010
0000
0010
0100
0001
0000
0001
1000
,
0001
0000
1000
0010
0001
0000
0100
0000
1000
0000
0010
0000
0100
0000
0001
0000
,
0010
0001
0100
1000
0010
0100
1000
0010
,
0100
0001
0010
0001
0100
1000
0010
0100
,
1000
0010
2002
0000
0000
0000
0000
0000
,
0000
0000
0000
3003
;
