#TITLE:Oops I Did It Again;
#SUBTITLE:By Nicholas Mihaila;
#ARTIST:Children of Bodom;
#TITLETRANSLIT:;
#SUBTITLETRANSLIT:;
#ARTISTTRANSLIT:;
#CREDIT:;
#BANNER:COB - Banner.jpg;
#BACKGROUND:COB - Background.jpg;
#LYRICSPATH:;
#CDTITLE:cdtitle.gif;
#MUSIC:Oops I Did It Again.mp3;
#OFFSET:-0.151;
#SAMPLESTART:100.000;
#SAMPLELENGTH:12.000;
#SELECTABLE:YES;
#BPMS:0.000=52.500,11.000=105.000,41.000=104.900,57.000=105.000,149.000=104.900,193.000=96.000,195.000=95.000,196.000=80.000,197.000=77.000,197.063=74.000,197.125=71.000,197.188=68.000,197.250=65.000,197.313=62.000,197.375=59.000,197.438=56.000,197.500=53.000,197.563=50.000,197.625=47.000,197.688=44.000,197.750=41.000,197.813=38.000,197.875=35.000,197.938=32.000,198.000=29.000,198.063=26.000,198.125=23.000,198.188=20.000,198.250=17.000,198.313=14.000,198.375=11.000,198.438=8.000,198.500=5.000,198.563=2.000,198.625=105.000;
#STOPS:27.000=1.140
,105.000=2.280
,198.625=0.580
;
#BGCHANGES:;
// cache tags:
#FIRSTBEAT:3.000;
#LASTBEAT:310.000;
#SONGFILENAME:Songs/toune 5/Oops I Did It Again/Oops I Did It Again.sm;
#HASMUSIC:1;
#HASBANNER:1;
#MUSICLENGTH:202.527;
// end cache tags

//---------------dance-single - ----------------
#NOTES:
     dance-single:
     :
     Hard:
     12:
     0.492,0.708,0.405,0.499,0.314,514.000,82.000,101.000,0.000,2.000:
0000
0000
0000
0000
0000
0000
0000
0000
0000
0000
0000
0000
1001
0000
0000
0110
,
0000
0000
0000
0000
0000
0000
0000
0000
0000
0000
0000
0000
1001
0000
0000
0110
,
0000
0000
0000
0000
0000
0000
0000
0000
0000
0000
0000
0000
0000
0000
0000
0000
0000
0000
0000
0000
0000
0000
0000
0000
0000
0000
0000
1000
0100
0010
0002
0000
0000
0000
0000
0000
2003
0000
0000
0000
0000
0000
3000
0000
0000
0000
0000
0000
,
0110
2000
3001
0000
1001
0000
1000
0000
,
0110
0000
0000
0000
0001
0000
0000
0000
1001
0000
0010
0100
2000
0000
3000
0000
,
0110
2000
3001
0000
1001
0010
0001
0010
,
0100
0000
0010
0000
0100
0000
2000
0000
0000
0000
3100
0010
0001
0000
0000
0000
,
0110
1000
1010
0001
,
0101
0100
1010
0010
,
0101
0000
1000
0000
1010
0001
0001
0110
,
1001
1010
0202
0303
1100
0000
0010
0000
,
0011
0100
1100
0001
,
0011
1000
1100
0010
,
0011
0000
0000
0000
0000
0000
0000
0000
0000
0000
0000
0000
0100
0000
0000
0000
0000
0000
0000
0000
0000
0000
0000
0000
1100
0000
0000
0000
0000
0000
1000
0000
0001
0000
1000
0000
0001
0000
0000
0100
0000
0000
0010
0000
0000
0100
0000
0000
,
1000
0010
0100
0001
2000
0000
0000
0000
0010
0000
0000
0000
0000
0000
0000
0000
,
0010
0000
3200
0000
1000
0000
0000
0302
,
1000
0023
0100
0000
,
0130
2002
3003
0110
0000
0110
0000
1010
,
0011
1001
2200
3300
0022
0033
1000
0010
,
0100
0002
0000
0003
0000
0001
1000
0100
,
1000
0020
0000
0030
0000
0001
0100
0010
,
0001
0000
0000
0000
2000
0000
0000
0000
0000
0000
0000
0000
3000
0000
0000
0000
0000
0000
0000
0000
0001
0000
0010
0000
0001
0000
0000
0000
1000
0010
0100
0001
,
1000
0000
0000
0000
0001
0100
0010
1000
0202
0000
0000
0000
0303
0000
0000
0000
2020
0000
0000
0000
3030
0000
0000
0000
0100
0000
0000
0000
0010
0000
0000
0000
,
1000
0002
0000
0003
0000
0100
0010
0001
,
1000
0200
0000
0320
0000
2030
0000
3002
,
0000
1003
0110
0000
0110
0000
0000
0110
,
0000
1010
0101
1000
1000
0000
0000
0000
,
0220
0000
1330
0100
1001
0010
0001
1000
,
0110
0001
1000
0100
1001
0010
0001
1000
,
0110
0001
2000
0000
0000
0000
3200
0000
,
0000
0000
0320
0000
0000
0000
0031
1000
,
0110
0001
1000
0100
1001
0010
0001
1000
,
0110
0000
0001
0000
1000
0000
0100
0000
1001
0000
0010
0000
0001
0010
0100
1000
,
0001
1000
0001
1000
0001
0000
0100
0000
0020
0000
0000
0000
0000
0000
0000
0000
1000
0000
0000
0000
0000
0000
0000
0000
0000
0000
0000
0000
0000
0000
0000
0000
,
1000
0000
0230
0000
0010
0000
0000
0302
,
0010
2003
0100
0000
,
3100
0022
0033
1010
1010
0000
0000
0101
,
0110
1001
2020
3030
0202
0303
0010
0100
,
1000
0002
0000
0003
0000
0010
0100
0001
,
1000
0200
0000
0300
0000
0010
0001
0010
,
1000
0000
0000
0000
0100
0000
0000
0000
1000
0000
0010
0000
0100
0000
0001
0000
0010
0000
0100
0000
1000
0000
0010
0000
0100
0000
0001
0000
1000
0010
0100
0010
,
1000
0000
0000
0000
0001
0100
0010
0100
0022
0000
0000
0000
0033
0000
0000
0000
2200
0000
0000
0000
3300
0000
0000
0000
0001
0000
0000
0000
0100
0000
0000
0000
,
0001
0020
0000
0030
0000
1000
0010
0100
,
0001
0200
0000
0302
0000
0023
0000
2030
,
0000
3001
0110
0000
1000
0000
1000
0100
,
0010
0000
0000
0000
0000
0000
2001
0000
0000
3000
0000
0000
0110
0000
0000
2000
0000
0000
3001
0000
0000
0001
0010
0100
,
1000
0100
0010
0002
0000
0000
1000
0000
0000
0000
0000
0000
0100
0000
0000
0000
0000
0000
1000
0000
0000
0000
0000
0000
,
0100
0000
2003
3000
0110
2000
3001
0000
,
1001
0100
1010
0010
,
0101
0110
0000
2000
,
0000
0000
0000
3200
,
0000
0000
0000
0320
,
0000
0000
0000
0032
,
0000
0000
0000
0000
0000
0000
0000
0000
0000
0000
0000
0000
0113
0000
1000
0100
,
0010
0000
0000
0000
0000
0000
0000
0000
0000
0010
0000
0000
0001
0000
1000
0000
0001
0000
1000
0000
0001
0000
1000
0000
0110
0000
0000
0000
0000
0000
0000
0000
0000
0000
0000
0000
1001
0000
0000
0000
0000
0000
0100
0000
0000
0000
0000
0000
,
0010
0002
0000
1003
0010
0200
0000
1000
,
1300
0000
0000
0000
0000
0000
0010
0001
0010
0000
0000
0000
1000
0000
0000
0000
0100
0000
0000
0000
0001
0000
0000
0000
0010
0000
0000
0000
1000
0000
0000
0000
,
0001
0000
0100
0000
0010
0000
1000
0000
0000
0000
0000
0000
1000
0000
0100
0000
0010
0000
0001
0000
0010
0000
0100
0000
1000
0000
0010
0000
0100
0000
0001
0000
0100
0000
0010
0000
2000
0000
0000
0000
0000
0000
0000
0000
0000
3000
0000
0000
,
0020
0000
0000
0130
0001
0000
0010
0000
1000
0000
0200
0000
0000
0300
0001
0100
,
0010
1000
0001
0010
1000
0100
0001
0010
1000
0100
0002
0000
0000
0003
0002
0000
,
0000
0003
2000
0000
0000
3000
2000
0000
3100
0000
0010
0000
0001
0100
1000
0100
,
0001
0000
1010
0000
0101
0000
1000
0000
0101
0010
0100
0010
1001
1000
0001
1000
0001
1000
0001
1000
0001
1000
0001
1000
0001
0000
0000
0000
0000
0000
0000
0000
,
2200
3300
0022
0000
0033
0000
0001
0010
,
0001
0100
0000
1000
0001
1000
0000
0000
,
0202
0303
2020
0000
3030
0000
0100
0010
,
0100
1000
0200
0000
0302
0000
0000
0003
,
0220
0330
2002
3003
0010
0000
1000
0100
,
0010
0001
0000
0100
0001
2000
0010
3200
,
0010
0000
0302
0000
0000
0000
2003
0000
0010
0000
3100
0000
0001
0001
0000
0000
,
1000
0000
0000
0000
0000
0000
1000
0000
0000
0100
0000
0000
0010
0000
0000
0000
0000
0000
0001
0010
0100
1000
0100
0010
,
0001
0010
0100
1000
0100
0010
0001
0000
0000
0100
0000
0000
0010
0000
0000
2000
0000
0000
0000
0000
0000
0200
0000
0000
,
0000
0000
0000
0000
0000
0000
3300
0000
0000
0000
0000
0000
0010
0000
0100
0000
0001
0000
1000
0000
0010
0000
0100
0000
0001
0000
0000
0000
0000
0000
0020
0000
0000
0000
0000
0000
0000
0000
0000
0030
0000
0000
1000
0000
0000
0001
0000
0000
,
0010
0100
0010
0001
1000
0000
0010
0000
0100
0000
0002
0000
0000
0000
0000
0003
,
1000
0000
0010
0000
0100
0000
0001
0000
0100
0000
0010
0000
1000
0000
0100
0000
0010
0000
0001
0000
0010
0000
0100
0000
1000
0000
0000
0001
0000
0000
1000
0000
0000
0001
0000
0000
1000
0000
0010
0000
0100
0000
1000
0000
0001
0000
0100
0000
,
0020
0000
0030
0001
0000
0000
0020
0000
0030
2000
0000
3000
0001
0010
0001
0010
0100
0010
0100
0000
0000
1000
0100
0000
,
0000
0000
1000
0000
0100
0000
0000
0000
0000
0000
1000
0000
0200
0000
0000
0000
0000
0000
0000
0000
0000
0310
0000
0000
0002
0000
0000
0000
0000
0000
0000
0000
0000
0000
0000
0000
0100
0000
0000
0000
0000
0000
0000
0000
0000
0000
0000
0000
,
1000
0000
0000
0000
0000
0000
0000
0000
0100
0000
0000
0000
0000
0000
0000
0000
1003
0010
0100
0010
1000
0010
0100
0010
1000
0000
0000
0000
0000
0000
0000
0000
,
0001
0000
0001
0010
0100
0000
0000
0000
;
