#TITLE:Battle vs Mewtwo;
#SUBTITLE:Pokemon;
#ARTIST:Go Ichinose;
#TITLETRANSLIT:;
#SUBTITLETRANSLIT:;
#ARTISTTRANSLIT:;
#CREDIT:;
#BANNER:Battle vs Mewtwo.jpg;
#BACKGROUND:Battle vs Mewtwo-bg.jpg;
#LYRICSPATH:;
#CDTITLE:!torajirou.png;
#MUSIC:Battle vs Mewtwo.mp3;
#OFFSET:-0.590;
#SAMPLESTART:34.488;
#SAMPLELENGTH:12.000;
#SELECTABLE:YES;
#BPMS:0.000=181.000,40.000=182.000,72.000=180.000,88.000=181.000;
#STOPS:;
#BGCHANGES:;
// cache tags:
#FIRSTBEAT:0.000;
#LASTBEAT:144.000;
#SONGFILENAME:Songs/VGMP 2/Battle vs Mewtwo (T0rajirou)/Battle vs Mewtwo.sm;
#HASMUSIC:1;
#HASBANNER:1;
#MUSICLENGTH:59.324;
// end cache tags

//---------------dance-single - ----------------
#NOTES:
     dance-single:
     :
     Hard:
     10:
     1.000,0.974,0.405,0.573,1.000,369.000,24.000,34.000,0.000,0.000:
0001
0010
0100
0010
0001
0010
0100
0010
0001
0010
0100
0010
0001
0010
0100
0010
,
0001
0100
0010
0100
0001
0100
0010
0100
0001
0100
0010
0100
0001
0100
0010
0100
,
1002
0003
0100
0000
1000
0000
0102
0003
1000
0000
0100
0000
1002
0003
0100
0000
,
1000
0000
0100
0000
0010
0000
0100
0000
1002
0003
0010
0000
0100
0000
0010
0000
,
1000
0000
0100
0000
1000
0000
0102
0003
1000
0000
0000
0000
1002
0003
0100
0000
,
1000
0000
0100
0000
0010
0000
0120
0030
1000
0000
0100
0000
0010
0000
0100
0000
,
1002
0003
0100
0000
1000
0000
0102
0003
1000
0000
0100
0000
1002
0003
0100
0000
,
1000
0000
0100
0000
0010
0000
0100
0000
1002
0003
0100
0000
1000
0000
0010
0000
,
0100
0000
0010
0000
0100
0010
0002
0103
0010
0000
0100
0000
1002
0003
0100
0000
,
1000
0000
0010
0000
1000
0000
0012
0003
0100
0010
0001
0100
0001
0010
0100
1000
,
0100
0010
0100
1000
0100
0010
0100
1000
0100
0010
0001
0010
0100
0010
0100
1000
,
0100
0010
0001
0010
0100
0010
0001
0010
0100
0010
0001
0010
0001
0010
0100
1000
,
0100
0010
0001
1000
0100
0010
0001
1000
0001
0010
0100
1000
0001
0010
0100
1000
,
0100
0010
0100
0010
0001
0010
0100
1000
0001
0010
0100
0010
0001
0010
0001
1000
,
0001
1000
0100
0010
0100
1000
0001
1000
0100
0010
0100
1000
0001
1000
0100
0010
,
0100
1000
0001
1000
0100
0010
0100
1000
0100
0010
0001
1000
0100
0010
0100
1000
,
0001
1000
0100
0010
0100
1000
0001
1000
0100
0010
0100
1000
0001
1000
0100
0010
,
0100
1000
0001
1000
0100
0010
0100
1000
0100
0010
0001
1000
0100
0010
0001
1000
,
0100
0010
0001
1000
0100
0010
0001
0010
0001
0100
0010
1000
0001
0010
0100
1000
,
0100
0010
0001
1000
0100
0010
0001
1000
0001
0100
0010
1000
0001
0010
0100
1000
,
0100
0010
0001
1000
0100
0010
0001
1000
0001
0100
0010
1000
0001
0010
0100
1000
,
0100
0010
0001
1000
0100
0010
0100
1000
0001
0100
0010
1000
0100
0010
0001
0100
,
1010
0000
0001
0000
0020
0030
1000
0000
0110
0000
1000
0000
0020
0030
1000
0000
,
0101
0000
1000
0000
0020
0030
1000
0000
0011
0000
1000
0000
0020
0030
0100
0000
,
1001
0000
0000
0000
0200
0300
0100
0010
0001
0000
0010
0000
0200
0300
0010
0000
,
0100
0000
0001
0000
0200
0300
0001
0000
0000
0000
0000
0000
0200
0300
0010
0000
,
1100
0000
0010
0000
0002
0003
1000
0100
1010
0000
1000
0000
0002
0003
0000
0000
,
0110
0000
1000
0000
0002
0003
1000
0000
0101
0000
1000
0000
0002
0003
0100
0000
,
1001
0000
0100
0000
2000
3000
0100
0000
1000
0000
0100
0000
2000
3000
0100
0000
,
0011
0000
0100
0000
2000
3000
0100
0000
0010
0001
0010
0100
1000
0100
0010
0100
,
2000
0000
0000
0000
0000
3000
1000
0000
,
0010
0200
0300
0000
0000
0000
0000
0000
,
0200
0000
0000
0000
0000
0300
0100
0000
,
0001
0020
0030
0000
0200
0000
0000
0300
,
0001
0000
0000
0000
;

//---------------dance-single - ----------------
#NOTES:
     dance-single:
     :
     Challenge:
     12:
     1.000,1.000,1.000,0.573,1.000,397.000,113.000,34.000,0.000,0.000:
0001
0010
0100
0010
0001
0010
0100
0010
0001
0010
0100
0010
0001
0010
1100
0010
,
1001
0100
0010
0100
1001
0100
0010
0100
1001
0100
0010
0100
1001
0100
0011
0100
,
1002
0003
0100
0000
1000
0000
0102
0003
1000
0000
0100
0000
1002
0003
0100
0000
,
1010
0000
0100
0000
0010
0000
1100
0010
1002
0003
1010
0000
0100
0000
1010
0000
,
1001
0000
1010
0000
1100
0010
0102
0003
1000
0000
0000
0000
1002
0003
0100
0000
,
1010
0000
0110
1000
0011
0000
0120
0031
1010
0000
0110
0001
1010
0000
1100
0000
,
1002
0003
0100
0000
1000
0000
0102
0003
1000
0000
0100
0000
1002
0003
0100
0000
,
1010
0000
0100
0000
0010
0000
0101
0010
1002
0003
0110
0000
1000
0000
0010
0000
,
1100
0000
0110
0000
0100
0010
1002
0103
0010
0000
0100
0000
1002
0003
0100
0000
,
1100
0000
0110
0001
1100
0000
0102
0013
1100
0010
0001
0100
1001
0010
0100
1000
,
0101
0010
0100
1000
0100
0010
0101
1000
0100
0010
0001
0010
0101
0010
0100
1000
,
0101
0010
0001
0010
0100
0010
1001
0010
0100
0010
0001
0010
0101
0010
0100
1000
,
0101
0010
0001
1000
0100
0010
0001
1000
0001
0010
0100
1000
0101
0010
0100
1000
,
0101
0010
1100
0010
0001
0010
0100
1000
0101
0010
0100
0010
0001
0010
0001
1000
,
0011
1000
0100
0010
0100
1000
0101
1000
0100
0010
0100
1000
0011
1000
0100
0010
,
0101
1000
0001
1000
0100
0010
0101
1000
0100
0010
0001
1000
0101
0010
0100
1000
,
0011
1000
0100
0010
0100
1000
0011
1000
0100
0010
0100
1000
0101
1000
0100
0010
,
0101
1000
0001
1000
0101
0010
0100
1000
0101
0010
0001
1000
0101
0010
0001
1000
,
0101
0010
0001
1000
0100
0010
0001
0010
0001
0100
0010
1000
0001
0010
0100
1000
,
0100
0010
0001
1000
0100
0010
0001
1000
0001
0100
0010
1000
0001
0010
0100
1000
,
0101
0010
0001
1000
0100
0010
0001
1000
0001
0100
0010
1000
0001
0010
0100
1000
,
0100
0010
0001
1000
0100
0010
0100
1000
0001
0100
0010
1000
0100
0010
0001
0100
,
1010
0000
0101
0000
1020
0130
1001
0000
0110
0000
1010
0100
0021
0130
1010
0000
,
0101
0000
1010
0000
0021
0030
1010
0100
0011
0000
1100
0000
0020
0030
0100
0000
,
1001
0000
0000
0000
0210
0300
0100
0010
0001
0000
1010
0000
0200
0300
1010
0000
,
0101
0000
0011
1000
0210
0300
0001
0000
0000
0000
1000
0000
0200
0300
0010
0000
,
1100
0000
0110
0000
0102
0013
1100
0001
1010
0000
1100
0010
0102
0013
0100
0000
,
0110
0000
1000
0000
0002
0003
1100
0010
0101
0000
1100
0000
0002
0003
0100
0000
,
1001
0000
0100
0000
2000
3000
0110
0000
1000
0000
0110
0000
2000
3000
0110
0000
,
0011
0000
0110
0001
2010
3000
0100
0000
1010
0001
0010
0100
1000
0100
0010
0100
,
2000
0000
0001
0000
0000
3000
1001
0000
,
0010
0200
0301
0000
0000
0000
0001
0000
,
0200
0000
1000
0000
0000
0300
1100
0000
,
0001
0000
0020
0000
1030
0000
0000
0000
0200
0000
0000
0000
1300
0000
0100
0010
,
0101
0000
0000
0000
;

//---------------dance-single - Very Very Danger----------------
#NOTES:
     dance-single:
     Very Very Danger:
     Edit:
     13:
     1.000,1.000,1.000,0.573,1.000,448.000,178.000,34.000,0.000,45.000:
0001
0010
0100
0010
0001
0010
0100
0010
0001
0010
0100
0010
0001
0010
1100
0010
,
1001
0100
0010
0100
1001
0100
0010
0100
1001
0110
1001
0110
1001
0110
1001
0110
,
1012
0003
0100
0000
1000
0000
0112
0003
1000
0000
0100
0000
1012
0003
0100
0000
,
1010
0000
0100
0000
0010
0000
1100
0010
1102
0003
1010
0000
0100
0000
1010
0000
,
1001
0000
1010
0000
0110
1000
0112
0003
1000
0000
0000
0000
1012
0003
0100
0000
,
1010
0000
0110
1000
0011
0000
1120
0031
1010
0000
0110
0001
1010
0000
1100
0000
,
1012
0003
0100
0000
1000
0000
0112
0003
1000
0000
0100
0000
1012
0003
0100
0000
,
1010
0000
0100
0000
0010
0000
0101
0010
1102
0003
0110
0000
1100
0000
0010
0000
,
1100
0000
0110
0000
0100
0010
1102
0013
0100
0000
0100
0000
1012
0003
0100
0000
,
1100
0000
0110
0001
1100
0000
0112
1003
0101
0010
0001
0100
1001
0010
0100
1000
,
0101
0010
0100
1000
0101
0010
0101
1000
0100
0010
0001
0010
1101
0010
0100
1000
,
0101
0010
0001
0010
1100
0010
0101
0010
0100
0010
0001
0010
1101
0010
0101
1000
,
0101
0010
0001
1000
0101
0010
0001
1000
0001
0010
0100
1000
0111
1000
0100
1000
,
0101
0010
1100
0010
0101
0010
0100
1000
0101
0010
0100
0010
1001
0010
0101
1000
,
0111
1000
0100
0010
0101
1000
0101
1000
0100
0010
0100
1000
0111
1000
0100
0010
,
0101
1000
0001
1000
0101
0010
0101
1000
0100
0010
0001
0010
1101
0010
0100
1000
,
0011
1000
0100
0010
0101
1000
0011
1000
0100
0010
0100
1000
0111
1000
0100
0010
,
0101
1000
0001
0010
1101
0010
0100
1000
0101
0010
0001
1000
0111
1010
0101
1010
,
0101
0010
0001
1000
0101
0010
0001
0010
0001
0100
0010
1000
0101
0010
0100
1000
,
0100
0010
0001
1000
0101
0010
0001
1000
0001
0100
0010
1000
0101
0010
0101
1000
,
0101
0010
0001
1000
0101
0010
0001
1000
0001
0100
0010
1000
0101
0010
0100
1000
,
0100
0010
0001
1000
0101
0010
0100
1000
0101
1010
0101
1010
0101
1010
0101
1010
,
1101
0000
1001
0000
1020
0130
1001
0000
1110
0000
1010
0100
0021
0130
1010
0000
,
0111
0000
1010
0000
0021
0030
1010
0100
1011
0000
1100
0000
0020
0030
0100
0000
,
1101
0000
0000
0000
0210
0300
0100
0010
0001
0000
1010
0000
0200
0300
1010
0000
,
0101
0000
0011
1000
0210
0300
0001
0000
0000
0000
1000
0000
0200
0300
0010
0000
,
1101
0000
0110
0000
0102
0013
1100
0001
1110
0000
1100
0010
0102
0013
0100
0000
,
1110
0000
1000
0000
0002
0003
1100
0010
1101
0000
1100
0000
0002
0003
0100
0000
,
1011
0000
0100
0000
2000
3000
0110
0000
1000
0000
0110
0000
2000
3000
0110
0000
,
1011
0000
0110
0001
2010
3000
0100
0000
1100
0011
1100
0011
1100
0011
1100
0011
,
2101
0010
0101
0010
0100
3010
1101
0010
,
1011
0000
0210
0000
1301
0100
0010
0000
1000
0000
0010
0000
1001
0000
0010
0000
,
1200
0010
1001
0010
1000
0310
1101
0010
,
0101
0000
1020
0000
0131
0000
1000
0001
0210
0000
1000
0000
0311
0100
1010
0100
,
1001
0010
0100
1000
0101
0010
0101
1000
0100
0010
0001
0010
1101
0010
0100
1000
,
0101
0010
0001
0010
1100
0010
0101
0010
0100
0010
0001
0010
1101
0010
0101
1000
,
0101
0000
0000
0000
;
