#TITLE:In Your Face;
#SUBTITLE:;
#ARTIST:Children of Bodom;
#TITLETRANSLIT:;
#SUBTITLETRANSLIT:;
#ARTISTTRANSLIT:;
#CREDIT:;
#BANNER:in your face.bmp;
#BACKGROUND:iyf.bmp;
#LYRICSPATH:;
#CDTITLE:;
#MUSIC:Children Of Bodom - In Your Face.mp3;
#OFFSET:-0.160;
#SAMPLESTART:43.920;
#SAMPLELENGTH:12.000;
#SELECTABLE:YES;
#BPMS:0.000=160.000,137.000=160.000,333.000=195.000,360.000=160.000,583.000=190.000,636.000=160.000;
#STOPS:;
#BGCHANGES:;
// cache tags:
#FIRSTBEAT:0.000;
#LASTBEAT:685.500;
#SONGFILENAME:Songs/toune 5/in your face 2/Children of Bodom - In Your Face.sm;
#HASMUSIC:1;
#HASBANNER:1;
#MUSICLENGTH:256.026;
// end cache tags

//---------------dance-single - ----------------
#NOTES:
     dance-single:
     :
     Hard:
     13:
     1.000,1.000,0.930,1.000,1.000,1414.000,238.000,321.000,0.000,13.000:
1000
0100
0010
0001
0000
0000
0001
0010
0100
1000
0100
0010
0001
0000
0000
0000
,
0001
0001
0000
0000
0000
0000
1000
0100
0010
0001
0000
0000
1010
0000
0000
1001
,
0000
0000
1000
0100
1000
0100
1000
0100
0000
0000
0000
1000
0001
0100
0010
0000
,
0000
0000
1000
0100
0010
0001
0010
0100
1000
0000
0000
0000
1000
1000
0000
0000
,
0000
0000
1000
0100
0010
0001
0000
0000
0000
0011
0000
0000
1001
0000
0000
1000
,
0100
0000
0000
0010
0000
0000
0001
0000
0000
0000
0000
0000
1001
0000
0000
0000
0000
0000
0000
0000
0000
0000
0000
0000
1000
0000
0000
0000
0100
0000
0000
0000
0010
0000
0000
0000
0100
0000
0000
0000
0010
0000
0000
0000
0100
0000
0000
0000
,
0010
0001
0100
0001
0010
0100
0001
0100
0010
0100
1000
0100
,
0010
1000
0010
0100
0010
1000
0010
1000
0100
0001
0100
0010
,
1000
0000
0100
0000
0010
0000
2002
3003
0000
0000
1000
0000
0100
0000
1000
0000
0100
0000
0010
0000
0001
0000
0001
0000
,
0010
0000
0000
0000
0100
0000
0000
0000
1000
0000
0000
0000
0100
0000
0000
0000
0010
0000
0000
0000
1000
0000
0000
0000
0100
0000
0000
0000
0000
0000
0000
0000
0000
1000
0000
0000
0100
0000
0000
0010
0000
0000
0001
0000
0000
0010
0000
0000
,
0100
0000
0110
0000
0000
1001
0000
1000
0100
0010
0001
0010
0100
0000
0000
0000
,
0000
2002
0000
0000
3003
0100
0010
1001
,
0000
0000
0000
0000
0000
0000
0000
0000
0000
1000
0000
0000
0100
0000
0000
0000
0000
0000
0000
0000
0000
0000
0000
0000
1000
0000
0000
0000
0100
0000
0000
0000
0010
0000
0000
0000
0000
0000
0000
0000
1001
0000
0000
0000
0000
0000
0000
0000
,
0000
0000
1001
0000
0000
0000
1000
0000
0100
0000
0010
0000
0001
0000
0010
0000
0000
0000
0000
0000
0000
1001
0000
0000
,
0100
0010
0001
1000
0100
0001
0100
0001
0100
0001
0100
0000
,
0000
0000
0000
1000
0100
0010
0001
0010
0100
1000
0100
1000
0100
0010
0001
0010
,
0001
0010
0001
0010
0100
1000
0100
1000
0100
0000
0000
0101
0000
1010
0000
0101
,
0000
0000
0000
0000
0000
1001
0000
0110
0000
1001
0000
0000
0000
0000
0000
0000
,
1010
0101
1010
0000
1000
0100
0000
0001
,
0010
0000
0000
0000
0000
0000
0000
1010
0000
0101
0000
1010
0000
0000
0000
0000
,
0000
0101
0000
1010
0000
0101
0000
0000
0000
0000
0000
0000
1000
0100
0010
0001
,
0010
0100
1000
0100
0010
0001
0010
1000
0100
0010
0001
0010
0001
0010
0100
1000
,
0110
2002
0000
0000
0000
0000
3003
0220
,
0000
0000
0000
0000
0330
2002
0000
0000
,
0000
0000
0000
0000
3003
0220
0000
0000
0000
0000
0000
0000
0000
0000
0000
0000
,
2332
0000
0000
0000
0000
0000
0000
0000
0000
0000
3003
0220
0000
0000
0000
0000
,
0000
0000
0000
0000
0000
0000
0330
2002
0000
0000
0000
0000
0000
0000
0000
0000
,
3103
0000
0000
0100
0000
0000
0010
0000
0000
0010
0000
0000
0100
0000
0000
0100
0000
0000
2002
3003
0000
0000
1000
0000
,
0100
0010
0100
0010
0001
0010
0100
0010
0100
1000
0100
0010
,
0100
0000
0000
0000
0010
0000
0000
0000
0001
0000
0000
0000
0010
0000
0000
0000
0100
0000
0000
0000
0010
0000
0000
0000
1000
0000
0000
0000
0001
0000
0000
0000
1000
0000
0000
0000
0001
0000
0000
0000
0000
0000
1000
0000
0000
0100
0000
0000
,
0010
0000
0000
0001
0000
0000
0010
0000
0000
0100
0000
0000
1000
0000
0000
0100
0000
0000
0010
0000
0000
0001
0000
0000
0010
0000
0000
0000
0100
0000
0000
0000
1000
0000
0000
0000
0100
0000
0000
0000
0010
0000
0000
0000
0001
0000
0000
0000
,
1000
0100
0010
0001
0010
0100
1000
0001
0010
0100
1000
0100
,
0010
0000
0000
0000
0001
0000
0000
0000
0010
0000
0000
0000
0100
0000
0000
0000
1000
0000
0000
0000
0100
0000
0000
0000
0000
0000
0000
1001
0000
0000
0000
0000
0000
0000
0000
0000
1001
0000
0000
0000
0000
0000
0000
0000
0000
0000
0000
0000
,
0010
0000
0000
0100
0000
0000
1000
0000
0000
0100
0000
0000
0010
0000
0000
0001
0000
0000
0000
0000
1000
0000
0000
0000
0100
0000
0000
0000
1000
0000
0000
0000
0100
0000
0000
0000
0010
0000
0000
0000
0001
0000
0000
0000
0010
0000
0000
0000
,
0001
0010
0100
1000
0100
0010
0001
0010
0001
0010
0001
0010
,
0100
0000
0000
0000
1000
0000
0000
0000
0100
0000
0000
0000
0010
0000
0000
0000
0000
0000
1000
0000
0000
0100
0000
0000
0010
0000
0000
0001
0000
0000
0010
0000
0000
0100
0000
0000
1000
0000
0000
0100
0000
0000
1000
0000
0000
0100
0000
0000
,
0000
1001
0000
0000
1001
0000
0000
1001
0000
0000
1001
0000
0000
1001
0000
0000
,
1001
0000
0000
1001
0000
0000
1001
0000
0000
1001
0000
0000
1001
0000
0000
1001
,
0000
0000
1001
2002
0000
0000
0000
0000
0000
0000
0000
0000
0000
3003
0000
0000
,
1000
0100
0010
0001
0010
0100
1000
0000
1000
0100
0010
0001
0010
0100
2000
0000
,
0000
0000
0000
3000
0000
1001
0000
0000
1001
0000
0000
1001
0000
0000
1001
0000
,
0000
1001
0000
0000
1001
0000
0000
1001
0000
0000
1001
0000
0100
0010
0001
0100
,
1000
0100
0010
0001
0010
0100
1000
0100
0010
0001
0010
0100
0220
0000
0000
0000
,
0000
0000
0330
1001
0000
0000
1001
0000
0000
1001
0000
0000
1001
0000
0000
1001
,
0000
0000
1001
0000
0000
1001
0000
0200
0000
0320
0000
0030
2002
0000
0000
0000
,
0000
0000
3203
0000
0320
0000
0030
0000
0220
0000
0000
0000
0000
0330
1001
0000
,
0000
1001
0000
0000
1001
0000
0000
1001
0000
0000
1001
0000
0000
1001
0000
0000
,
1001
0100
0010
0001
0010
0100
1000
0100
0001
1000
0001
0010
,
0100
0000
0000
0000
0001
0000
0000
0000
0100
0000
0000
0000
2002
0000
0000
0000
0000
0000
0000
0000
0000
0000
0000
0000
0000
0000
0000
0000
3003
0000
0000
0000
0000
1001
0000
0000
0000
0000
0000
0000
0000
0000
1001
0000
0000
0000
0000
0000
,
0000
1001
0000
0000
1001
0000
0000
1001
0010
0100
1000
0100
0010
0001
0010
0000
,
0000
0000
0000
0100
0010
0001
0000
2020
0000
0000
0000
0000
0000
3030
0000
2002
,
0000
0000
0000
3003
0000
0000
0220
0000
0000
0000
0000
0000
0330
0000
0000
2002
0000
0000
0000
0000
0000
3003
0000
0000
0000
0000
0000
0000
1000
0000
0000
0000
0100
0000
0000
0000
0010
0000
0000
0000
0010
0000
0000
0000
0100
0000
0000
0000
,
1000
0000
0100
0000
0010
0000
0001
0000
0010
0000
0100
0000
0010
0000
2002
0000
0000
0000
0000
0000
0000
3003
0000
0000
,
0100
1000
0100
0010
0001
0010
0001
0010
1000
0010
1000
0100
,
2002
0000
0000
3003
1000
0100
0010
0100
1000
0001
0010
0100
,
0010
0001
0220
0000
0000
0000
0330
0000
0000
1000
0100
0010
,
0100
0010
0001
0010
0100
0010
0001
0010
0100
0220
0000
0000
,
0330
1000
0100
0010
0001
0010
0100
1000
0100
1000
0100
0010
,
0001
0010
0001
2020
0000
0000
0000
3030
0101
0000
1010
0202
,
0000
0000
0000
0000
0000
0000
0000
0000
0303
0000
0000
0000
0000
0000
0000
1001
0000
0000
0000
0000
0000
0110
0000
0000
0000
0000
0000
2002
0000
0000
0000
0000
0000
0000
0000
0000
3003
0000
0000
0000
0100
0000
0000
0000
0010
0000
0000
0000
,
0100
1000
0100
0010
0001
0001
0010
0100
1000
0001
0010
0100
,
0001
0000
2100
0010
0001
0010
0100
0010
0001
0010
0100
0010
,
0001
0010
0100
0010
0001
0010
0100
0010
0001
0010
0100
0010
,
3001
0000
0000
0000
0010
0001
0010
0100
1000
0100
0010
0001
0010
0100
1000
0000
,
1000
0100
0010
0001
1000
0100
0010
0001
1000
0100
0010
0001
,
1000
0100
0010
0001
0001
0010
0100
1000
0001
0010
0100
1000
,
0110
0000
0000
0000
0000
0000
0000
0000
0110
0000
0000
0000
0000
0000
0000
1000
0000
0000
0100
0000
0000
0010
0000
0000
0001
0000
0000
0010
0000
0000
0100
0000
0000
1000
0000
0000
0100
0000
0000
0000
0010
0000
0000
0000
0100
0000
0000
0000
,
0010
0100
1000
0100
1000
0100
1000
0100
0010
0001
0010
0001
,
0010
0001
0010
0100
1000
0100
0010
0001
1000
0100
0010
0000
,
1000
0100
0010
0100
1000
0100
0010
0000
0000
1001
0000
0000
1001
0000
0000
1001
,
0000
0000
1001
0000
0000
1001
0000
0000
1001
0000
0000
1001
0000
0000
1001
0000
,
0000
1001
0000
0000
1001
0000
0000
1001
0000
0000
0220
0000
0000
0000
0000
0330
,
0000
0000
0000
1000
0100
0010
0010
0100
1000
0100
0010
0001
,
0010
0000
0000
0000
0100
0000
0000
0000
1000
0000
0000
0000
0202
0000
0000
0000
0000
0000
0000
0000
0000
0000
0000
0000
0000
0000
0000
0000
0000
0000
0000
0000
0303
0000
0000
0000
0110
0000
0000
0000
0000
0000
0000
0000
0000
0110
0000
0000
,
0000
0000
0000
0000
0000
0000
0110
0000
0000
0000
0000
0000
0000
0000
0000
0110
0000
0000
0000
0000
0000
0000
0000
0000
0110
0000
0000
0000
0000
0000
0000
0000
0000
0110
0000
0000
0000
0000
0000
0000
1000
0000
0000
0000
0100
0000
0000
0000
,
0010
0001
0010
0100
1000
0100
1000
0100
0010
0001
0010
0100
,
2020
0000
0000
0000
0000
0000
0000
0000
3030
0101
0000
0000
0101
0000
0000
0101
,
0000
0000
0000
1000
0100
0010
0001
0000
1000
0100
0010
0001
0000
0000
0000
0000
0000
0000
0001
0000
0010
0000
0001
0000
,
0010
0000
0100
0000
1000
0000
0100
0000
0010
0000
0001
0000
0010
0000
0100
0000
1000
0000
0001
0000
0000
2002
0000
0000
,
0000
0000
0000
0000
0000
0000
0000
0000
0000
0000
0000
0000
0000
0000
0000
0000
3003
0000
0000
0000
0000
0000
0000
0000
1000
0000
0000
0100
0000
0000
0010
0000
0000
0001
0000
0000
1000
0000
0000
0100
0000
0000
0010
0000
0000
0001
0000
0000
,
0010
0000
0000
0001
0000
0000
0010
0000
0000
2000
0000
0000
0000
0000
0000
0000
0000
0000
3200
0000
0000
0000
0000
0000
0320
0000
0000
0000
0000
0000
0032
0000
0000
0000
0000
0000
0003
0000
0000
0000
1000
0000
0000
0000
0100
0000
0000
0000
,
0001
1000
0100
0001
0010
0100
1000
0010
0202
0000
0000
0000
,
0000
0303
1000
0100
1000
0001
0010
0001
0100
0010
0001
0000
,
1000
0100
0010
0001
0010
0100
1000
0000
0000
1000
0100
0010
0001
0000
0000
0000
,
1000
0100
0010
0001
0010
0100
1000
0100
0000
0000
0000
1001
0000
0000
1001
0000
,
0000
0000
0000
1000
0100
0010
0001
0000
0000
0000
0000
1001
0000
0000
0000
1001
,
0000
0000
0010
0100
1000
0100
0010
0001
0000
0000
0000
0000
0000
0000
1000
0100
,
0001
0010
1000
0100
0010
0000
0000
1000
0100
0010
0001
0010
0100
0010
0001
0000
,
0110
0000
0000
1001
0000
0000
0000
0000
0000
1000
0100
0010
0100
0000
0000
0000
,
0110
0000
0000
0000
1001
0000
1000
0100
0010
0001
0010
0100
1000
0100
0000
0000
,
0000
0000
0000
2020
3030
0000
0202
0303
2002
0000
0000
0000
0000
3003
0000
0000
,
2002
0000
3003
0220
0000
0000
0000
0000
0330
0000
0000
0000
2000
0000
3200
0000
,
0320
0000
0032
0000
0023
0000
0230
0000
2300
0000
3000
0110
0000
2002
0000
0000
,
0000
0000
0000
3003
0200
0000
0300
0020
0030
2002
0000
0000
3003
0000
0200
0000
,
0320
0030
0202
0000
0000
0000
0303
0000
2000
0000
3200
0000
2300
0000
3002
0000
,
0203
0000
0320
0000
2030
3200
0000
0000
0000
0000
0000
0000
0311
0000
2000
0000
,
3200
0302
0203
0302
2003
3200
0302
0203
,
2300
3002
0203
0302
2003
3200
0320
2030
,
3002
0003
0220
0000
0000
0000
0000
0000
0330
1001
0200
0000
0320
0030
0000
2002
,
0000
0000
0000
3003
0000
0000
0110
0000
0000
1001
0000
0000
0000
0000
0000
0000
,
1100
0101
2020
3030
0101
1010
0101
2020
,
0000
0000
0000
0000
0000
0000
3030
0000
0000
2000
0200
3300
0000
0000
0000
0000
0001
0000
0010
0000
0001
0000
1000
0000
,
0100
0000
0000
0000
0010
0000
0000
0000
0100
0000
0000
0000
0001
0000
0000
0000
0010
0000
0000
0000
1000
0000
0000
0000
0100
0000
0000
0010
0000
0000
0001
0000
0000
0010
0000
0000
0000
0000
2000
0000
0200
0000
3300
0000
0000
0000
0000
0000
,
0000
0000
0100
0010
0000
1001
0200
0020
0000
0000
0330
0000
0000
0000
0000
0000
,
0000
0000
2000
3100
0010
0002
0000
0003
0010
1000
0200
0000
0310
0001
0200
0000
,
0300
1000
0100
0020
0000
0030
0000
0000
1000
0100
0010
0001
1000
0100
0010
0001
,
1000
0100
0010
0001
1000
0100
0010
0001
1000
0100
0010
0001
1000
0100
0010
0002
,
0200
0000
0000
0000
0000
0000
0000
0000
0303
2000
0000
0000
0002
0000
0000
3000
,
0000
0000
0000
0000
,
0000
0000
0000
0000
0000
0000
0000
0000
0003
0000
1000
0100
0010
0100
1000
0100
,
0010
0001
0010
0100
0010
0001
0010
0100
1000
0100
0010
0100
0010
0001
0010
0100
,
1000
0000
0022
0000
0000
2233
0000
0000
0000
3322
0000
0000
0000
0033
0000
0000
,
1000
0100
0010
0010
0100
1000
0100
0010
0001
2020
0000
0000
0000
0000
0000
0000
,
3030
0001
0010
0100
1000
0100
0010
0001
1000
0100
1000
0100
0010
0001
2020
0000
,
0000
0000
0000
0000
0000
0000
0000
0000
0000
3030
0000
0000
0200
0000
0000
0000
0320
0000
0000
0000
0032
0000
0000
0000
0023
0000
0000
0000
0230
0000
0000
0000
2300
0000
0000
0000
3200
0000
0000
0000
0320
0000
0000
0000
0032
0000
0000
0000
,
0003
2000
0000
3200
0000
0320
0000
2030
0000
3200
0000
0320
0000
0032
0000
0023
0000
0230
0000
2300
0000
3200
0000
0320
,
0000
0032
0000
0023
0000
0032
0000
0023
0000
0230
0000
2300
0000
3200
0000
0322
0000
0000
0000
0000
0000
0000
0000
0000
,
0033
0100
1000
0100
0010
0100
0010
0001
0010
0001
0010
0100
1000
0100
1000
0100
,
0010
0001
0010
0100
1000
0100
0010
0100
1000
0100
0001
0010
0100
1000
0100
0010
,
0001
0010
0001
0010
0100
0010
0100
1000
0220
0000
0000
0000
0000
0000
0330
0000
,
2000
0000
3200
0320
0230
2300
3200
0320
0032
0023
0230
2300
,
3200
0320
0230
0302
0203
0320
0032
0203
0320
2030
3200
0320
,
0032
0000
0003
0020
0000
0000
0000
0000
0000
0000
0000
0000
0000
0000
0000
0000
0000
0000
0200
0000
0000
0000
0000
0000
,
0000
0000
0000
0000
0000
0000
0000
0000
0330
1001
0000
0000
0000
0000
0000
0000
,
0000
0000
0000
0000
0000
0000
0000
2002
3003
0000
0000
0000
0000
0000
0000
0000
2002
0000
3003
0000
0220
0000
0330
0000
2002
0000
3003
0000
0000
0000
0000
0000
,
0000
0000
0000
0000
0000
0000
0000
0000
0000
0000
1000
0100
0010
0001
0010
0100
,
1000
0000
0000
0100
0000
0000
0001
0000
0000
0100
0000
0000
0001
0000
0000
0010
0000
0000
0100
0000
0000
1000
0000
0000
0100
0000
0000
0010
0000
0000
0001
0000
0000
0000
0000
0000
1000
0000
0000
0000
0100
0000
0000
0000
0001
0000
0000
0000
,
0100
0000
0010
0000
0001
0000
0010
0000
0100
0000
1000
0000
0100
0000
0000
2002
0000
0000
0000
0000
0000
3003
0000
0000
,
0100
0010
0100
1000
0100
0010
0100
0010
0100
2002
0000
0000
,
0000
0000
3003
0100
0010
1000
0001
0100
0001
0010
0100
1000
,
0100
0010
0001
0100
1000
2002
0000
0000
0000
3003
0100
1000
,
0100
0010
0001
0010
0100
0010
0100
0010
0001
0010
2002
0000
,
0000
0000
0000
0000
3003
0000
0000
0000
0000
0110
0000
0000
0000
0000
0000
0011
0000
0000
0000
0000
0000
0220
0000
0000
0000
0000
0000
0000
0000
0000
0330
0000
0000
0000
0000
0000
0000
0000
0000
1001
0000
0000
0000
0000
0000
0220
0000
0000
,
0330
0000
2002
0000
0000
3003
0100
0010
0100
0010
0001
0010
0100
1000
0100
0010
,
0100
0010
0001
0010
0100
1000
0100
0010
0001
0010
0100
0000
2002
0000
0000
0000
,
0000
0000
0000
0000
,
0000
0000
0000
3003
,
0000
0000
0000
0000
0000
0000
0000
0000
1100
0000
0000
0110
0000
0000
0011
0000
,
0000
0000
0000
0110
0000
0000
0000
0000
0000
0000
0000
0000
1001
0000
0000
0000
0000
0000
0110
0000
0000
0000
0000
0000
0000
0000
0000
1001
0000
0000
0000
0000
0000
0000
0110
0000
0000
0000
0000
0000
0000
0000
1001
0000
0000
0000
0000
0000
,
0000
0000
0110
0000
0000
0000
0000
0000
0000
0000
0110
0000
0000
0000
0000
0000
0000
0000
0110
0000
0000
0000
0000
0000
0000
0000
0000
1001
0000
0000
0000
0000
0000
0000
0000
0000
1001
0000
0000
0000
0000
0000
0000
0000
0000
0000
0000
0000
,
1000
0000
0000
0100
0000
0000
0010
0000
0000
0001
0000
0000
0010
0000
0000
0100
0000
0000
0000
0000
0000
0000
0000
0000
1000
0000
0000
0000
0100
0000
0000
0000
0010
0000
0000
0000
0001
0000
0000
0000
0010
0000
0000
0000
0100
0000
0000
0000
,
0010
0001
1000
0100
1000
0010
0001
0010
0001
0010
0100
1000
,
0100
0000
0000
0000
1000
0000
0000
0000
0100
0000
0000
0000
1000
0000
0000
0000
0000
0000
0000
0000
0000
0000
0000
0000
0100
0000
0000
0010
0000
0000
0001
0000
0000
0010
0000
0000
0100
0000
0000
1000
0000
0000
0100
0000
0000
0000
0000
0000
,
1000
0100
1000
0100
0010
0001
0010
0100
0010
0001
0010
0100
,
1000
0100
0010
0100
1000
0100
1000
0100
1000
0100
0010
0001
,
0000
0000
0000
0000
0220
0000
0000
0000
0000
0000
0000
0000
0000
0000
0000
0000
0000
0000
0000
0000
0000
0000
0000
0000
0000
0000
0000
0000
0330
0000
0000
0000
0000
0000
0000
0000
0000
0000
0000
0000
0000
0000
1000
0000
0000
0100
0000
0000
,
0010
0001
0010
0100
0000
0000
1000
0100
0010
0001
0010
0100
1000
0000
0000
0000
,
0000
1001
0000
0110
0000
0000
0000
0000
1000
0100
0010
0001
0010
0100
0000
0000
,
1001
0000
0000
0110
0000
0000
0000
0000
0100
0010
0001
0010
0100
0000
0000
0000
,
0000
0000
0000
0000
1001
0000
0000
0000
0000
0000
0000
0000
1000
0100
0010
0001
,
0010
0100
0000
0000
0000
0000
1001
0000
0110
0000
0000
0000
1001
0000
0000
0000
,
0000
0000
0000
0110
0000
0000
0000
0000
0000
0000
0000
0000
0011
0000
0100
0000
1000
0000
0100
0000
0010
0000
0001
0000
,
0010
0000
0000
0000
0100
0000
0000
0000
1000
0000
0000
0000
0100
0000
0000
0000
0000
0000
0000
0000
0000
0000
0000
0000
0000
0000
0000
0110
0000
0000
0000
0000
0000
1001
0000
0000
0000
0000
0000
0110
0000
0000
0000
0000
0000
0000
0000
0000
,
0000
0000
0000
0110
1001
0110
0000
0000
,
0000
0000
0110
1100
0011
0000
1000
1000
,
0000
0100
0100
0000
0010
0100
1001
0110
,
1001
0000
0000
0000
0000
0110
1001
0110
,
0000
0000
0000
0000
0000
0000
1000
0100
0010
0001
0010
0001
0010
0100
1000
0100
,
1000
0100
0010
0001
0010
0100
1000
0100
0010
0001
0010
0001
0010
0100
1000
0100
,
0011
0000
0000
0000
2020
0000
3232
0000
0000
0000
0000
0303
0000
0000
0000
2020
,
0000
0000
0000
3232
0000
0000
0000
0000
0000
0000
0000
0000
0000
0000
0000
0000
0000
0000
0303
0000
0000
0000
0000
0000
2000
0000
0000
0000
3200
0000
0000
0000
0320
0000
0000
0000
0230
0000
0000
0000
2300
0000
0000
0000
3200
0000
0000
0000
,
0320
0000
0032
0000
0023
0000
0032
0000
0023
0000
0032
0000
0003
0220
0000
0000
2332
0000
0000
0000
0000
0000
0000
0000
,
3003
0200
0000
2300
0000
3200
0000
0000
0000
0000
0300
0000
0020
0000
0032
2003
,
0000
0000
0000
0000
3110
0000
0200
0000
0320
0032
0023
0000
0230
2300
0000
3200
,
0000
0000
0000
0320
0000
0000
0000
0000
0000
2030
0000
0000
0000
0000
0000
0000
0000
0000
0000
0000
0000
0000
0000
0000
0000
0000
0000
0000
0000
0000
3110
0000
0000
0000
0000
0000
2000
0000
0000
0000
3200
0000
0000
0000
0320
0000
0000
0000
,
0230
2300
3200
0320
0230
0320
0032
0023
0230
2300
3200
0320
,
0032
0023
0230
2300
3200
0320
0230
2300
3200
0320
0032
0023
,
2230
0000
0000
0000
0000
0000
0000
0000
0000
0000
0000
0000
0000
0000
0000
0000
3300
0000
0000
0000
0000
0000
0000
0000
0000
0000
0000
2000
0000
0000
0000
0000
0000
3200
0000
0000
0320
0000
0000
0000
0000
0000
0000
0000
0000
0000
0000
0000
,
0030
0000
0000
0000
2002
0000
3003
0220
0000
0330
0000
0000
1001
0000
0000
0110
,
0000
1000
0100
0010
0001
0010
0100
1000
0100
0010
0100
0010
0100
0010
2002
0000
,
0000
0000
0000
3003
0100
0010
0001
0010
0100
1000
0100
0010
0001
0010
0100
1000
,
0100
0011
0000
0000
1001
0000
0110
0000
0000
0000
0000
0000
0000
0000
0000
0000
;
