#TITLE:Serious Shit;
#SUBTITLE:;
#ARTIST:The Quick Brown Fox;
#TITLETRANSLIT:;
#SUBTITLETRANSLIT:;
#ARTISTTRANSLIT:;
#CREDIT:;
#BANNER:SS-BN.png;
#BACKGROUND:SS-BG.png;
#LYRICSPATH:;
#CDTITLE:;
#MUSIC:Serious Shit.ogg;
#OFFSET:-0.055;
#SAMPLESTART:62.920;
#SAMPLELENGTH:12.000;
#SELECTABLE:YES;
#BPMS:0.000=230.000,265.000=115.000,266.000=230.000;
#STOPS:101.000=1.565
,498.000=1.565
;
#BGCHANGES:;
// cache tags:
#FIRSTBEAT:37.000;
#LASTBEAT:501.000;
#SONGFILENAME:Songs/SSSC Pack 2/Serious Shit [Zarkonis]/Serious Shit.sm;
#HASMUSIC:1;
#HASBANNER:1;
#MUSICLENGTH:138.083;
// end cache tags

//---------------dance-single - Zarkonis----------------
#NOTES:
     dance-single:
     Zarkonis:
     Challenge:
     16:
     1.000,1.000,0.210,0.072,1.000,1286.000,29.000,10.000,44.000,0.000:

0000
0000
0000
0000
,
0000
0000
0000
0000
,
0000
0000
0000
0000
,
0000
0000
0000
0000
,
0000
0000
0000
0000
,
0000
0000
0000
0000
,
0000
0000
0000
0000
,
0000
0000
0000
0000
,
0000
0000
0000
0000
,
0000
0000
0000
0000
0001
0100
0010
0000
1000
0000
0001
0010
0100
0010
0001
0000
,
0010
0000
0100
1000
0001
1000
0100
0000
1000
0000
0010
0000
0100
0001
0100
0001
,
0100
0001
0100
0001
1000
0100
0010
0000
0001
0000
1000
0010
0100
0010
1000
0000
,
0001
0000
1000
0000
0010
1000
0010
1000
0001
1000
0001
1000
0001
0010
0100
0010
,
0001
1000
0001
1000
0001
0010
0100
0000
1000
0000
1010
0000
0010
0000
0100
0000
,
0001
0000
1000
0100
0010
0100
1000
0000
0010
0000
0100
0000
0010
1000
0010
1000
,
0010
1000
0010
1000
0001
0010
0100
0000
1000
0000
0010
0100
0001
0100
0010
0000
,
1000
0000
0100
0000
0010
0001
0010
0001
1000
0001
1000
0001
1000
0010
0100
0010
,
1000
0001
1000
0100
0010
0100
1000
0000
0001
0000
1000
0010
0100
0010
1000
0000
,
0001
0000
0010
0100
1000
0100
0010
0000
0001
0000
0100
0000
0001
0010
0001
0010
,
0001
0010
0001
0010
0001
0100
0010
0000
1000
0000
0001
0100
0010
0100
0001
0000
,
1000
0000
0001
0000
0100
0001
0100
0001
1000
0001
1000
0001
1000
0100
0010
0100
,
1000
0001
1000
0001
1000
0100
0010
0000
0001
0000
0101
0000
0100
0000
0010
0000
,
1000
0000
0001
0010
0100
0010
0001
0000
1000
0000
0010
0000
1000
0100
1000
0100
,
1000
0100
1000
0100
1000
0010
0100
0000
0001
0000
1000
0100
0010
0100
1000
0000
,
0001
0000
0000
0000
0000
0000
0100
0000
0000
0010
0000
0000
1000
0000
0000
0000
0100
0000
0000
0000
0010
0000
0000
0000
0001
0000
0000
0000
0100
0000
0000
0000
0010
0000
0000
0000
1000
0000
0000
0001
0000
0000
1000
0000
0000
0001
0000
0000
,
1000
0001
1000
0001
1000
0000
0000
0000
0MM0
0000
0000
0000
0001
1000
0001
0000
,
1000
0000
0100
1000
0100
1000
0100
0000
0010
0000
0001
0010
0001
0010
0001
0000
,
1000
0000
0010
0000
0100
0001
0100
0001
0100
0001
0100
0001
1000
0100
1000
0000
,
0001
0000
1000
0010
1000
0010
1000
0000
0001
0000
0100
0000
0010
1000
0010
1000
,
0001
1000
0001
1000
0001
0010
0100
0010
0001
1000
0001
1000
0010
0100
0010
0000
,
1000
0000
0001
0010
0001
0010
0001
0000
1000
0000
0100
1000
0100
1000
0100
0000
,
0010
0000
0001
0000
1000
0010
1000
0010
1000
0010
1000
0010
1000
0001
1000
0000
,
0001
0000
0100
0010
0100
0010
0100
0000
0001
0000
0010
0000
0100
1000
0100
1000
,
0001
1000
0001
1000
0001
0100
0010
0100
0001
1000
0001
0010
0100
1000
0001
0000
,
0100
0000
0010
1000
0010
0000
0100
0000
0001
0010
0001
0000
1000
0000
0100
1000
,
0100
0000
0010
0000
0001
1000
0001
1000
0001
1000
0001
1000
0100
0010
0100
0000
,
0010
0000
0001
1000
0001
0000
0100
0000
0010
1000
0010
0000
0100
0001
0100
0001
,
1000
0001
1000
0001
1000
0100
0010
0100
1000
0001
1000
0001
0010
0100
0010
0000
,
0100
0000
1000
0100
1000
0000
0001
0000
0100
0001
0100
0000
0010
0000
1000
0010
,
1000
0000
0001
0000
0010
0001
0010
0001
0010
0001
0010
0001
1000
0010
1000
0000
,
0001
0000
0100
0001
0100
0000
0001
0000
1000
0100
1000
0000
0001
1000
0100
0010
,
0100
0000
0000
1000
0000
0000
0001
0000
0000
0100
0000
0000
0010
0000
0000
1000
0000
0000
0001
0000
0000
1000
0000
0000
0010
0000
0000
0100
0000
0000
0001
0000
0000
0000
0000
0000
1000
0000
0000
0000
0000
0000
0000
0000
0001
0000
0000
0000
,
0010
0000
0010
0100
0000
0100
1000
0000
1000
0010
0000
0010
,
0100
0000
0100
0001
0000
0001
1000
0000
1000
0001
0000
0001
,
0010
0000
0010
0100
0000
0100
1000
0000
1000
0010
0000
0010
,
0100
0000
0100
0010
0000
0010
0100
0000
0000
M11M
0000
0010
,
1000
0000
1000
0100
0000
0100
0010
0000
0010
0001
0000
0001
,
1000
0000
1000
0010
0000
0010
0100
0000
0100
0010
0000
0010
,
1000
0000
1000
0001
0000
0001
0010
0000
0010
0100
0000
0100
,
1000
0000
1000
0100
0000
0100
1000
0000
0000
1MM1
0000
0001
,
1000
0000
1000
0010
0000
0100
M01M
0000
0010
1000
0000
1000
,
0001
0000
0010
M10M
0000
0100
1000
0000
0010
M10M
0000
0100
,
0001
0000
0001
1000
0000
0100
M01M
0000
0010
0001
0000
0001
,
1000
0000
0010
M10M
0000
0100
0001
0000
0010
M10M
0000
0100
,
1000
0000
0100
M01M
0000
0100
M01M
0000
0010
0001
0000
0100
,
M01M
0000
0100
M01M
0000
0010
1000
0000
0010
M10M
0000
0010
,
M10M
0000
0100
0001
0000
0010
M10M
0000
1000
0001
0000
0100
,
M01M
0000
0100
M01M
0000
1000
0100
0000
0010
0002
0000
0000
,
0003
0000
0000
0000
0000
0000
0000
0000
0000
0000
0000
0000
1000
0000
0000
0001
0000
0000
1000
0000
0000
0100
0000
0000
0010
0000
0000
0100
0000
0000
1000
0000
0000
0001
0000
0000
1000
0000
0000
0000
0000
0000
0000
0000
0010
0000
0000
0000
,
1000
0000
0010
0100
0000
0001
1000
0000
0001
0010
0000
0100
,
1000
0000
0010
0100
0000
0001
0010
0100
1000
0010
0000
0100
,
0001
0000
1000
0100
0000
0010
0001
0000
0100
0010
0000
1000
,
0100
0000
0010
0001
0010
0100
1000
0001
0100
0010
0000
1000
,
0100
0000
0010
0001
0000
0100
0010
0000
1000
0001
0000
0010
,
0001
0000
1000
0010
0000
0100
0001
0010
0100
1000
0000
0010
,
0100
0000
0001
0010
0000
0100
1000
0000
0001
0100
0000
0010
,
0100
0000
0000
0000
0001
0000
2000
0000
0000
0MM0
0000
0000
3001
0000
0010
0000
0001
0000
0100
0000
0010
0000
1000
0000
,
0100
0010
0001
1000
0001
1000
0001
0100
0010
0100
0001
1000
,
0001
0100
0010
0100
0001
1000
0100
0010
0001
0100
0010
1000
,
0001
0010
0100
1000
0001
1000
0001
0010
0100
0010
0001
1000
,
0010
0100
0010
0100
0010
1000
0001
1000
0001
0010
0100
1000
,
0001
0100
0010
1000
0001
1000
0001
0100
0010
0100
0001
1000
,
0001
0010
0100
0010
0001
1000
0001
0100
0010
1000
0100
0010
,
0001
0000
0010
0000
0100
0000
1000
0000
0001
0000
1000
0000
0002
0000
0000
0023
0000
0000
0230
0000
0000
0320
0000
0000
,
0031
1000
0001
0010
0200
0000
0000
0300
1100
0000
1000
0000
0010
0000
0010
0000
,
0100
0100
0001
0001
0010
0010
0100
0100
,
0010
0010
0001
0100
0010
0010
1000
1000
,
0010
0010
0100
0100
0001
0001
1000
1000
,
0100
0100
0100
0100
M01M
0010
0001
0001
,
1000
1000
0010
0010
0100
0100
0001
0001
,
0100
0100
0010
1000
0100
0100
0010
0010
,
0100
0100
1000
1000
0001
0001
0100
0100
,
0010
0010
0010
0010
M10M
0100
0001
1000
,
1100
0100
0010
0001
1001
1000
0010
0100
,
0101
0001
1000
0100
1100
1000
0010
0100
,
0101
0001
1000
0100
1100
1000
0100
0010
,
0011
0001
1000
1000
1001
0000
1010
0000
,
0110
0101
0011
0110
,
1100
0000
1000
0001
0101
0100
0110
0010
,
1010
1000
1001
0001
0011
0010
0110
0100
,
1100
0000
1000
0000
0001
1000
0001
1000
0002
0000
0000
0000
0003
0000
0000
0000
,
0000
0000
0000
0000
,
0000
0000
0000
0000
0000
0000
0000
0000
0001
0010
0001
0010
0100
0010
0100
0010
,
0001
0010
0001
0010
0001
1000
0001
1000
0010
1000
0010
1000
0001
0100
0010
0100
,
0001
1000
0001
1000
0001
1000
0001
1000
0001
0010
0001
0010
0100
0010
0100
0010
,
0100
1000
0100
1000
0100
0010
0100
0010
0100
1000
0001
0100
0010
0100
0001
1000
,
0001
0010
0100
0010
0001
1000
0001
0010
0100
1000
0100
1000
0001
1000
0001
1000
,
0001
0100
0001
0100
0010
0100
0010
0100
0010
1000
0010
1000
0001
0010
0100
1000
,
0001
0100
0001
0100
0001
0100
0001
0100
0001
1000
0001
1000
0100
0010
0100
0010
,
0100
1000
0100
1000
0100
0010
0100
0010
0100
1000
0001
0010
0100
0010
0001
1000
,
0001
0100
0010
0100
0001
1000
0001
0100
0001
0100
0001
0100
0010
0100
0010
0100
,
0001
0100
0001
0100
0001
1000
0001
1000
0100
1000
0100
1000
0001
0010
0100
0010
,
0001
1000
0001
1000
0001
1000
0001
1000
0001
0100
0001
0100
0010
0100
0010
0100
,
0010
1000
0010
1000
0010
0100
0010
0100
0010
1000
0001
0010
0100
0010
0001
1000
,
0001
0100
0010
0100
0001
1000
0001
0100
0010
1000
0010
1000
0001
1000
0001
1000
,
0001
0010
0001
0010
0100
0010
0100
0010
0001
0010
0001
0010
0100
1000
0001
0010
,
0100
1000
0100
1000
0100
1000
0100
1000
0001
1000
0001
1000
0010
0100
0010
0100
,
0010
1000
0010
1000
0010
0100
0010
0100
0001
1000
0010
0100
0010
1000
0001
0010
,
0100
1000
0001
1000
0100
0010
0001
0000
1000
0100
0010
0000
0001
0000
1000
0010
,
0100
0010
1000
0000
0010
0000
0100
0001
1000
0001
0100
0000
0001
0000
0010
0000
,
0100
1000
0100
1000
0100
1000
0100
1000
0001
0100
0010
0000
1000
0000
0001
0010
,
0100
0010
0001
0000
1000
0000
0001
0000
0010
0001
0010
0001
1000
0001
1000
0001
,
1000
0010
0100
0010
1000
0001
1000
0001
1000
0010
0100
0000
0001
0000
0011
0000
,
0010
0000
0100
0000
1000
0000
0001
0100
0010
0100
0001
0000
0010
0000
0100
0000
,
0010
0001
0010
0001
0010
0001
0010
0001
1000
0010
0100
0000
0001
0000
0010
0100
,
1000
0100
0010
0000
0001
0000
0100
0000
0010
1000
0010
1000
0001
1000
0001
1000
,
0001
0010
0100
0010
0001
1000
0001
0100
0010
0100
0001
0000
1000
0000
0001
0010
,
0100
0010
0001
0000
1000
0000
0010
0100
0001
0100
0010
0000
1000
0000
0100
0000
,
1000
0010
1000
0010
1000
0010
1000
0010
1000
0100
0010
0000
0001
0000
1000
0100
,
0010
0100
1000
0000
0001
0000
1000
0000
0100
1000
0100
1000
0001
1000
0001
1000
,
0001
0100
0010
0100
0001
1000
0001
1000
0001
0100
0010
0000
1000
0000
1100
0000
,
0100
0000
0010
0000
0001
0000
1000
0010
0100
0010
1000
0000
0001
0000
0010
0000
,
0001
0100
0001
0100
0001
0100
0001
0100
0001
0010
0100
0000
1000
0000
0001
0100
,
0010
0000
0000
0100
0000
0000
0001
0000
0000
0000
0000
0000
1000
0000
0000
0000
0000
0000
0100
0000
0000
0010
0000
0000
0001
0000
0000
0000
0100
0000
0000
0000
0010
0000
0000
0000
1000
0000
0000
0000
0100
0000
0000
0000
0010
0000
0000
0000
,
0001
1000
0001
1000
0001
1000
0001
1000
0001
0000
0MM0
0000
0000
0000
0000
0000
,
2002
3003
0000
0000
;
