#TITLE:Toilet Story 4;
#SUBTITLE:;
#ARTIST:Ghidorah;
#TITLETRANSLIT:;
#SUBTITLETRANSLIT:;
#ARTISTTRANSLIT:;
#CREDIT:owenviau1;
#BANNER:../owenviau1 Simfiles 6 (Science X Owen).png;
#BACKGROUND:BG.PNG;
#LYRICSPATH:;
#CDTITLE:;
#MUSIC:Ghidorah - Toilet Story 4.mp3;
#OFFSET:-0.154;
#SAMPLESTART:39.004;
#SAMPLELENGTH:29.999;
#SELECTABLE:YES;
#BPMS:0.000=135.118;
#STOPS:;
#BGCHANGES:;
// cache tags:
#FIRSTBEAT:8.000;
#LASTBEAT:419.875;
#SONGFILENAME:Songs/owenviau1 Simfiles 6/Toilet Story 4 - [owenviau1] v1.0.2/Toilet Story 4.sm;
#HASMUSIC:1;
#HASBANNER:1;
#MUSICLENGTH:190.032;
// end cache tags

//---------------dance-single - 16+ (owenviau1)----------------
#NOTES:
     dance-single:
     16+ (owenviau1):
     Hard:
     16:
     1.000,1.000,0.205,0.279,1.000,1257.000,39.000,53.000,4.000,1.000:
0000
0000
0000
0000
,
0000
0000
0000
0000
,
1000
0000
0001
0100
0000
0000
0010
0000
1000
0000
0100
0010
0000
0000
0001
0000
,
1000
0000
0010
0100
0000
0000
0010
0000
1000
0000
0001
0100
0000
0000
0000
0000
,
1000
0000
0010
0100
0000
0000
0001
0000
0010
0000
0100
1000
0000
0000
0001
0000
,
0100
0000
0010
1000
0000
0000
0001
0000
0100
0000
0010
0100
0000
0000
0000
0000
,
0001
0000
1000
0100
0000
0000
0010
0000
0001
0000
1000
0001
0000
0000
0100
0000
,
0010
0000
1000
0001
0000
0000
0010
0000
0100
0000
0000
0000
1000
0100
0010
0001
,
1000
0000
0001
0100
0000
0010
1000
0001
0200
0000
0000
0310
1000
0001
0010
0001
,
0200
0000
0000
0010
0000
0000
0010
0000
0010
0000
0000
0000
0000
0000
0000
0300
,
0001
1000
0010
0100
0010
1000
0001
0100
0001
1000
0010
0100
0010
1000
0001
0010
,
0001
1000
0100
0010
0001
0100
0010
1000
0001
0100
0001
1000
0010
0100
0010
1000
,
0001
0010
0001
0100
0010
1000
0100
1000
0001
0100
0001
1000
0100
0010
0001
0100
,
0010
1000
0001
0010
0001
1000
0100
0010
0001
0100
0010
1000
0002
0000
0000
0000
,
1003
0100
0010
0001
0100
0010
0100
0001
1000
0100
0010
0001
1000
0100
1000
0001
,
0010
0000
0001
0000
1000
0000
0010
0000
0100
0000
0001
0000
1000
0000
0100
0000
0010
0001
1000
0010
0100
0010
1000
0001
0100
0001
0010
0100
1000
0100
0010
0001
,
1000
0010
0100
0001
1000
0100
1000
0001
0010
0100
1000
0001
0010
0001
1000
0010
,
0100
0000
0010
0000
1000
0000
0100
0000
0010
0000
0001
0000
1000
0000
0010
0000
0100
0001
1000
0100
1000
0001
0010
0100
1000
0010
0100
0010
1000
0001
0100
0010
,
1000
0001
0010
0001
0100
0010
0100
0001
1000
0001
0100
0010
1000
0001
0010
0001
,
0100
0010
1000
0001
0100
0001
1000
0010
0100
0010
1000
0001
0010
0001
0100
0010
,
1000
0100
0010
0001
1000
0001
0010
0100
1000
0001
0100
0001
1000
0010
0100
0010
,
1000
0001
0010
0001
0100
0010
1000
0001
0010
0001
0100
0010
1000
0100
0010
0001
,
1000
0100
1000
0001
0100
0001
1000
0010
0100
0010
1000
0001
0010
0001
0100
0010
,
1000
0000
0100
0000
0010
0000
0001
0000
0100
0000
0010
0000
1000
0000
0001
0000
0100
0001
1000
0010
0100
0010
1000
0001
0100
0001
0010
0100
1000
0100
0010
0001
,
1000
0010
0100
0001
1000
0100
1000
0001
0010
0100
1000
0001
0010
0001
1000
0010
,
0100
0000
0010
0000
1000
0000
0100
0000
0010
0000
0001
0000
1000
0000
0010
0000
0100
0001
1000
0100
1000
0001
0010
0100
1000
0010
0100
0010
1000
0001
0100
0010
,
1000
0001
0010
0001
0100
0010
1000
0001
0100
0001
0010
0100
1000
0001
0010
0001
,
0100
0000
0010
0000
0100
0000
0001
0000
1000
0000
0001
0000
0100
0000
0010
0000
1000
0001
0010
0001
0100
0010
1000
0100
0010
0001
1000
0100
1000
0010
0100
0010
,
1000
0001
0100
0001
1000
0010
0100
0010
1000
0001
0010
0001
0100
0010
1000
0010
,
0100
0001
0010
0001
1000
0100
0010
0001
1000
0000
0100
0010
0001
0000
1000
0000
,
0010
0000
0101
0000
1000
0000
0110
0000
0010
0000
1001
0000
0100
0000
0010
1000
,
0001
0000
0110
0000
0001
0000
1100
0000
0010
0000
0001
0100
0001
0000
0000
0000
,
1000
0000
0110
0000
1000
0000
0101
0000
0010
0000
1100
0000
0001
0000
0010
0100
,
1000
0000
0101
0000
1000
0000
0110
0000
0001
0000
0100
0010
0100
0000
0000
0000
,
0001
0000
1100
0000
0001
0000
0110
0000
1000
0000
0010
0100
0001
0000
1000
0010
,
0100
0000
0011
0000
1000
0000
0110
0000
0001
0000
1000
0100
0010
0000
0002
0000
,
1003
0000
0110
0000
1000
0000
0101
0000
0010
0000
0001
0100
0010
0000
1000
0001
,
0100
1010
0001
1100
0010
0001
1000
0000
,
0002
0000
0000
0000
0003
0000
0200
0000
0320
0000
0000
0000
2030
3000
0002
0003
,
0200
0000
0000
0000
0000
0000
0000
0000
0320
0000
0000
0000
0030
0000
0000
0000
2000
0000
0000
0000
0000
0000
0000
0000
3001
0100
0001
0100
0001
0000
0000
0000
,
2000
0000
0000
0000
3000
0000
0200
0000
0320
0000
0000
0000
0032
0003
2000
3000
,
0002
0000
0000
0000
0000
0000
0000
0000
0203
0000
0000
0000
0300
0000
0000
0000
0020
0000
0000
0000
0000
0000
0000
0000
1030
0100
0010
0001
1000
0000
0000
0000
,
0002
0000
0000
0203
0320
0000
2030
3002
,
0203
0000
0000
0000
0010
0010
0000
0000
0320
0000
0000
0000
0000
0000
0030
0000
,
2000
0000
0000
0000
0000
0000
3100
0010
0002
0000
0000
0103
0020
0000
2030
0000
,
3002
0000
0000
0000
2000
0000
0000
0000
3203
0300
0010
0001
1000
0010
1000
0001
,
0100
0001
0010
0001
1000
0010
0100
0001
1000
0001
0100
0010
1000
0001
0010
0001
,
0100
0010
1000
0001
0100
0001
1000
0010
0100
0010
1000
0001
0010
0001
0100
0010
,
1000
0100
0010
0001
1000
0001
0010
0100
1000
0001
0100
0001
1000
0010
0100
0010
,
1000
0001
0010
0001
0100
0010
1000
0001
0010
0001
0100
0010
1000
0100
0010
0001
,
1000
0100
1000
0001
0100
0001
1000
0010
0100
0010
1000
0001
0010
0001
0100
0010
,
1000
0100
0010
0001
0100
0010
1000
0001
0100
0001
0010
0001
1000
0010
0100
0001
,
1000
0001
0100
0010
1000
0001
0010
0001
0100
0010
1000
0001
0100
0001
1000
0010
,
0100
0010
1000
0001
0010
0001
0100
0010
1000
0100
0010
0001
1000
0001
0010
0100
,
1000
0001
0100
0001
1000
0010
0100
0010
1000
0001
0010
0001
0100
0010
1000
0001
,
0010
0001
0100
0010
1000
0100
0010
0001
1000
0100
1000
0001
0100
0001
1000
0010
,
0100
0010
1000
0001
0010
0001
0100
0010
1000
0100
0010
0001
0100
0010
1000
0001
,
0010
0100
1000
0001
0100
0010
0100
0001
1000
0001
0100
0010
1000
0001
0010
0001
,
0100
0010
1000
0001
0100
0001
1000
0010
0100
0010
1000
0001
0010
0001
0100
0010
,
1000
0100
0010
0001
1000
0001
0010
0100
1000
0001
0100
0001
1000
0010
0100
0010
,
1000
0001
0010
0001
0100
0010
1000
0001
0010
0001
0100
0010
1000
0100
0010
0001
,
1000
0000
0100
0000
1000
0000
0001
0000
0100
0000
0001
0000
1000
0000
0010
0000
0100
0000
0010
0000
1000
0000
0001
0000
2000
0000
0000
0000
0000
0000
0000
3000
,
0002
0000
0003
0000
2000
3000
0020
0030
0200
0300
0002
0003
2000
0000
0000
0000
,
0000
0000
0000
0000
0100
0000
0000
0010
,
0000
0001
0000
0100
0010
0001
3200
0000
,
0000
0000
0000
1000
0000
0010
0000
1000
,
0000
0000
0000
0000
0001
1000
0001
1000
0010
0000
1000
0000
0302
0000
0000
0000
,
0000
0000
0000
1000
0100
0000
0010
0000
,
1000
0000
0100
0010
1000
0010
0203
0000
,
0000
0000
0010
0000
1000
0001
1000
0010
,
2300
3002
0203
0000
,
0310
1000
0100
0010
0001
0000
1000
0000
0010
0000
0101
0000
1000
0000
0110
0000
,
0020
0030
1002
0003
0200
0300
2010
3000
0100
0000
1001
0000
1000
0000
0110
0000
,
0010
0000
1001
0000
0100
0000
0010
1000
0001
0000
0110
0000
0001
0000
1100
0000
,
0010
0000
0000
0000
0001
0000
0100
0000
0001
0010
0100
1000
0001
0000
0000
0000
1000
0000
0000
0000
0110
0000
0000
0000
1000
0000
0000
0000
0101
0000
0000
0000
,
0010
0000
1100
0000
0001
0000
0010
0100
1000
0000
0101
0000
1000
0000
0110
0000
,
0001
0000
0000
0000
0100
0000
0010
0000
0100
0001
1000
0010
0100
0000
0000
0000
0001
0000
0000
0000
1100
0000
0000
0000
0001
0000
0000
0000
0110
0000
0000
0000
,
1000
0000
0010
0100
0001
0000
1000
0010
0100
0000
0011
0000
1000
0000
0110
0000
,
0001
0000
1000
0100
0010
0000
0002
0000
1003
0000
0110
0000
1000
0000
0001
1000
,
0010
0000
0001
0100
0010
0000
1000
0001
0100
0000
1010
0000
0001
0000
1100
0000
,
0010
0000
0001
1000
0001
0010
0100
1000
0001
1000
0010
0100
0010
1000
0001
0100
,
0001
1000
0010
0100
0010
1000
0001
0010
0001
1000
0100
0010
0001
0100
0010
1000
,
0001
0100
0001
1000
0010
0100
0010
1000
0001
0010
0001
0100
0010
1000
0100
1000
,
0001
0100
0001
1000
0100
0010
0001
0100
0010
1000
0001
0010
0001
1000
0100
0010
,
0001
0100
0010
1000
0001
1000
0010
0100
0010
1000
0001
0100
0001
1000
0010
0100
,
0010
1000
0001
0010
0001
1000
0100
0010
0001
0100
0010
1000
0001
0100
0001
1000
,
0010
0100
0010
1000
0001
0010
0001
0100
0010
1000
0100
1000
0001
0100
0001
1000
,
0100
0010
0001
0100
0010
1000
0001
0010
0001
1000
0100
0010
0001
0100
0010
1000
,
0001
1000
0010
0100
0010
1000
0001
0100
0001
1000
0010
0100
0010
1000
0001
0010
,
0001
1000
0100
0010
0001
0100
0010
1000
0001
0100
0001
1000
0010
0100
0010
1000
,
0001
0010
0001
0100
0010
1000
0100
1000
0001
0100
0001
1000
0100
0010
0001
0100
,
0010
1000
0001
0010
0001
1000
0100
0010
0001
0100
0010
1000
0001
1000
0010
0100
,
0010
1000
0001
0100
0001
1000
0010
0100
0010
1000
0001
0010
0001
1000
0100
0010
,
0001
0100
0010
1000
0001
0100
0001
1000
0010
0100
0010
1000
0001
0010
0001
0100
,
0010
1000
0100
1000
0001
0100
0001
1000
0100
0010
0001
0100
0010
1000
0001
0010
,
0001
1000
0100
0010
0001
0100
0010
1000
0001
0100
0010
0100
0001
1000
0100
0010
,
0001
1000
0100
1000
0020
0000
0000
0000
1030
0000
1000
0100
0000
0100
0010
0000
,
0010
0000
0001
1000
0000
1000
0001
0000
0100
0000
0010
1000
0000
1000
0010
0000
,
0100
0000
0001
0100
0000
0100
0001
0000
1000
0000
0010
0100
0000
0100
0010
0000
,
1000
0000
0001
0100
0000
0100
0001
0000
1000
0000
0100
0010
0000
0010
0100
0000
,
1000
0000
0001
0010
0000
0100
0000
0000
1000
0000
1000
0100
0000
0100
0010
0000
,
0010
0000
0001
1000
0000
1000
0001
0000
0100
0000
0010
1000
0000
1000
0010
0000
,
0100
0000
0000
0000
0001
0010
0100
1000
0001
0000
0100
0010
0000
0010
0100
0000
,
0001
0000
1000
0100
0000
0100
1000
0000
0010
0000
0100
0001
0000
0001
0100
0000
,
0010
0000
0000
0000
0010
0000
0000
0000
0000
0000
0000
0000
0000
0000
0000
0000
0000
0000
0000
0000
0000
0000
0000
0000
0000
0000
0000
0000
0000
0000
0000
MMMM
,
0000
0000
0000
0000
,
0000
0000
0000
0000
;

//---------------dance-single - 18 (owenviau1)----------------
#NOTES:
     dance-single:
     18 (owenviau1):
     Challenge:
     18:
     1.000,1.000,0.205,0.279,1.000,1642.000,39.000,53.000,4.000,1.000:
0000
0000
0000
0000
,
0000
0000
0000
0000
,
1000
0000
0001
0100
0000
0000
0010
0000
1000
0000
0100
0010
0000
0000
0001
0000
,
1000
0000
0010
0100
0000
0000
0010
0000
1000
0000
0001
0100
0000
0000
0000
0000
,
1000
0000
0010
0100
0000
0000
0001
0000
0010
0000
0100
1000
0000
0000
0001
0000
,
0100
0000
0010
1000
0000
0000
0001
0000
0100
0000
0010
0100
0000
0000
0000
0000
,
0001
0000
1000
0100
0000
0000
0010
0000
0001
0000
1000
0001
0000
0000
0100
0000
,
0010
0000
1000
0001
0000
0000
0010
0000
0100
0000
0000
0000
1000
0100
0010
0001
,
1000
0000
0001
0100
0000
0010
1000
0001
0200
0000
0000
0310
1000
0001
0010
0001
,
0200
0000
0000
0010
0000
0000
0010
0000
0010
0000
0000
0000
0000
0000
0000
0300
,
0001
0000
0010
0100
1000
0001
0100
0010
1000
0010
0100
0001
0010
0001
1000
0100
0010
0001
1000
0100
1000
0001
0010
0100
,
1000
0001
0100
0001
1000
0010
0100
0010
1000
0001
0100
0001
1000
0010
0100
0010
1000
0001
0010
0001
1000
0100
0010
0001
,
1000
0100
1000
0010
0100
0010
1000
0001
0100
0001
1000
0010
0100
0010
1000
0001
1000
0100
0010
0001
0100
0010
1000
0001
,
0010
0001
1000
0100
0010
0001
1000
0100
1000
0001
0100
0001
1000
0010
0100
0010
1000
0001
2000
0000
0000
0000
0000
0000
,
3001
0010
0001
1000
0100
1000
0001
0010
0100
1000
0001
0100
0001
1000
0010
0100
0010
1000
0001
0010
0001
1000
0100
0010
,
0001
0000
0000
0000
1000
0000
0000
0000
0100
0000
0000
0000
1000
0000
0000
0000
0010
0000
0000
0000
0100
0000
0000
0000
0010
0000
0000
0000
1000
0000
0000
0000
0001
0000
0000
0000
0100
0000
0000
0000
0001
0000
0000
0000
1000
0000
0000
0000
0010
0000
0000
0100
0000
0000
0001
0000
0000
1000
0000
0000
0001
0000
0000
0100
0000
0000
0010
0000
0000
1000
0000
0000
0001
0000
0000
0010
0000
0000
0001
0000
0000
1000
0000
0000
0100
0000
0000
0010
0000
0000
0001
0000
0000
0100
0000
0000
,
0010
1000
0001
0100
0001
1000
0010
0100
0010
1000
0001
0010
0001
1000
0100
0010
0001
0100
0001
1000
0010
1000
0001
0100
,
0010
0000
0000
0000
1000
0000
0000
0000
0100
0000
0000
0000
0010
0000
0000
0000
0001
0000
0000
0000
1000
0000
0000
0000
0100
0000
0000
0000
1000
0000
0000
0000
0001
0000
0000
0000
0010
0000
0000
0000
0100
0000
0000
0000
1000
0000
0000
0000
0001
0000
0000
0100
0000
0000
0010
0000
0000
1000
0000
0000
0001
0000
0000
0010
0000
0000
0001
0000
0000
1000
0000
0000
0100
0000
0000
1000
0000
0000
0010
0000
0000
0100
0000
0000
0010
0000
0000
1000
0000
0000
0001
0000
0000
1000
0000
0000
,
0010
0100
0001
1000
0100
0010
0001
1000
0100
1000
0001
0010
0001
1000
0010
1000
0100
0010
0001
0100
0001
1000
0010
0100
,
0010
1000
0100
1000
0010
0100
0001
0010
0001
1000
0100
0010
0001
1000
0100
1000
0001
0100
0010
1000
0010
0100
0001
0100
,
0010
1000
0100
0010
0001
1000
0100
1000
0001
0010
0001
1000
0100
0010
0001
0100
0001
1000
0010
0100
0010
1000
0001
0100
,
0001
1000
0010
0100
0010
1000
0001
0010
0001
1000
0100
0010
0001
1000
0100
1000
0010
0100
0010
1000
0001
0100
0001
1000
,
0100
0010
0001
0100
0010
1000
0010
0100
0001
0010
0001
1000
0100
0010
0001
1000
0010
1000
0001
0010
0001
1000
0100
1000
,
0001
0000
0000
0000
0100
0000
0000
0000
0010
0000
0000
0000
1000
0000
0000
0000
0010
0000
0000
0000
0100
0000
0000
0000
0001
0000
0000
0000
1000
0000
0000
0000
0100
0000
0000
0000
0010
0000
0000
0000
0001
0000
0000
0000
1000
0000
0000
0000
0010
0000
0000
0100
0000
0000
0001
0000
0000
1000
0000
0000
0100
0000
0000
1000
0000
0000
0001
0000
0000
0010
0000
0000
0001
0000
0000
1000
0000
0000
0100
0000
0000
0010
0000
0000
0001
0000
0000
0010
0000
0000
0100
0000
0000
1000
0000
0000
,
0001
0100
0010
1000
0001
0010
0001
1000
0100
1000
0010
0100
0010
1000
0001
0100
0001
1000
0100
0010
0001
1000
0010
1000
,
0100
0000
0000
0000
0010
0000
0000
0000
0001
0000
0000
0000
0100
0000
0000
0000
0010
0000
0000
0000
1000
0000
0000
0000
0010
0000
0000
0000
0100
0000
0000
0000
0001
0000
0000
0000
1000
0000
0000
0000
0001
0000
0000
0000
0100
0000
0000
0000
0010
0000
0000
1000
0000
0000
0100
0000
0000
0010
0000
0000
0001
0000
0000
1000
0000
0000
0100
0000
0000
1000
0000
0000
0001
0000
0000
0100
0000
0000
0001
0000
0000
1000
0000
0000
0010
0000
0000
0100
0000
0000
0010
0000
0000
1000
0000
0000
,
0001
0010
0100
1000
0001
0100
0001
1000
0010
0100
0001
1000
0100
1000
0001
0010
0001
1000
0100
0010
0001
1000
0001
0010
,
0100
0000
0000
0000
1000
0000
0000
0000
0010
0000
0000
0000
0100
0000
0000
0000
0010
0000
0000
0000
1000
0000
0000
0000
0001
0000
0000
0000
0100
0000
0000
0000
0010
0000
0000
0000
0100
0000
0000
0000
0001
0000
0000
0000
1000
0000
0000
0000
0100
0000
0000
0010
0000
0000
0001
0000
0000
0100
0000
0000
0001
0000
0000
1000
0000
0000
0010
0000
0000
0100
0000
0000
0010
0000
0000
1000
0000
0000
0001
0000
0000
0100
0000
0000
0001
0000
0000
1000
0000
0000
0100
0000
0000
0010
0000
0000
,
0001
1000
0100
1000
0001
0100
0001
1000
0010
0100
0010
1000
0001
0100
0001
1000
0100
0010
0001
1000
0010
1000
0001
0010
,
0001
0000
0100
0000
0010
0000
1000
0000
0010
0000
0100
0000
0001
0000
1000
0000
0100
0000
0010
0000
0001
0000
1000
0000
0001
0000
0000
0000
0000
0000
1000
0000
0000
0010
0000
0000
0100
0000
0000
0000
0000
0000
0001
0000
0000
0000
0000
0000
,
1000
0000
0101
0000
1000
0000
0110
0000
0010
0000
1001
0000
0100
0000
0010
1000
,
0001
0000
0110
0000
0001
0000
1100
0000
0010
0000
0001
0100
0001
0000
0000
0000
,
1000
0000
0110
0000
1000
0000
0101
0000
0010
0000
1100
0000
0001
0000
0010
0100
,
1000
0000
0101
0000
1000
0000
0110
0000
0001
0000
0100
0010
0100
0000
0000
0000
,
0001
0000
1100
0000
0001
0000
0110
0000
1000
0000
0010
0100
0001
0000
1000
0010
,
0100
0000
0011
0000
1000
0000
0110
0000
0001
0000
1000
0100
0010
0000
0002
0000
,
1003
0000
0110
0000
1000
0000
0101
0000
0010
0000
0001
0100
0010
0000
1000
0001
,
0100
1010
0001
1100
0010
0001
1000
0000
,
0002
0000
0000
0000
0003
0000
0200
0000
0320
0000
0000
0000
2030
3000
0002
0003
,
0200
0000
0000
0000
0000
0000
0000
0000
0320
0000
0000
0000
0030
0000
0000
0000
2000
0000
0000
0000
0000
0000
0000
0000
3001
0100
0001
0100
0001
0000
0000
0000
,
2000
0000
0000
0000
3000
0000
0200
0000
0320
0000
0000
0000
0032
0003
2000
3000
,
0002
0000
0000
0000
0000
0000
0000
0000
0203
0000
0000
0000
0300
0000
0000
0000
0020
0000
0000
0000
0000
0000
0000
0000
1030
0100
0010
0001
1000
0000
0000
0000
,
0002
0000
0000
0203
0320
0000
2030
3002
,
0203
0000
0000
0000
0010
0010
0000
0000
0320
0000
0000
0000
0000
0000
0030
0000
,
2000
0000
0000
0000
0000
0000
3100
0010
0002
0000
0000
0103
0020
0000
2030
0000
,
3002
0000
0000
0000
2000
0000
0000
0000
3203
0300
0010
0001
1000
0010
1000
0001
,
0100
0010
1000
0100
0010
0001
1000
0100
1000
0001
0010
0001
1000
0010
1000
0100
0010
0001
0100
0001
1000
0010
0100
0010
,
1000
0100
1000
0010
0100
0001
0010
0001
1000
0100
0010
0001
1000
0100
1000
0001
0100
0010
1000
0010
0100
0001
0100
0010
,
1000
0100
0010
0001
1000
0100
1000
0001
0010
0001
1000
0100
0010
0001
0100
0001
1000
0010
0100
0010
1000
0001
0100
0001
,
1000
0010
0100
0010
1000
0001
0010
0001
1000
0100
0010
0001
1000
0100
1000
0010
0100
0010
1000
0001
0100
0001
1000
0100
,
0010
0001
0100
0010
1000
0010
0100
0001
0010
0001
1000
0100
0010
0001
1000
0010
1000
0001
0010
0001
1000
0100
1000
0001
,
0100
0010
1000
0010
0100
0001
1000
0100
1000
0001
0010
0001
1000
0010
1000
0100
0010
0001
0100
0001
1000
0010
0100
0010
,
1000
0100
1000
0010
0100
0001
0010
0001
1000
0100
0010
0001
1000
0100
1000
0001
0100
0010
1000
0010
0100
0001
0100
0010
,
1000
0100
0010
0001
1000
0100
1000
0001
0010
0001
1000
0100
0010
0001
0100
0001
1000
0010
0100
0010
1000
0001
0100
0001
,
1000
0010
0100
0010
1000
0001
0010
0001
1000
0100
0010
0001
1000
0100
1000
0010
0100
0010
1000
0001
0100
0001
1000
0100
,
0010
0001
0100
0010
1000
0010
0100
0001
0010
0001
1000
0100
0010
0001
1000
0010
1000
0001
0010
0001
1000
0100
1000
0001
,
0100
0010
1000
0010
0100
0001
1000
0100
1000
0001
0010
0001
1000
0010
1000
0100
0010
0001
0100
0001
1000
0010
0100
0010
,
1000
0100
1000
0010
0100
0001
0010
0001
1000
0100
0010
0001
1000
0100
1000
0001
0100
0010
1000
0010
0100
0001
0100
0010
,
1000
0100
0010
0001
1000
0100
1000
0001
0010
0001
1000
0100
0010
0001
0100
0001
1000
0010
0100
0010
1000
0001
0100
0001
,
1000
0010
0100
0010
1000
0001
0010
0001
1000
0100
0010
0001
1000
0100
1000
0010
0100
0010
1000
0001
0100
0001
1000
0100
,
0010
0001
0100
0010
1000
0010
0100
0001
0010
0001
1000
0100
0010
0001
1000
0010
1000
0001
0010
0001
1000
0100
1000
0001
,
0100
0000
0000
0000
0010
0000
0000
0000
1000
0000
0000
0000
0010
0000
0000
0000
0100
0000
0000
0000
0001
0000
0000
0000
1000
0000
0000
0000
0010
0000
0000
0000
0100
0000
0000
0000
0010
0000
0000
0000
1000
0000
0000
0000
0001
0000
0000
0000
0010
0000
0000
0000
0001
0000
0000
0000
1000
0000
0000
0000
0100
0000
0000
0000
0010
0000
0000
0000
0001
0000
0000
0000
2000
0000
0000
0000
0000
0000
0000
0000
0000
0000
0000
0000
0000
0000
0000
0000
0000
0000
0000
0000
0000
3000
0000
0000
,
0002
0000
0003
0000
2000
3000
0020
0030
0200
0300
0002
0003
2000
0000
0000
0000
,
0000
0000
0000
0000
0100
0000
0000
0010
,
0000
0001
0000
0100
0010
0001
3200
0000
,
0000
0000
0000
1000
0000
0010
0000
1000
,
0000
0000
0000
0000
0001
1000
0001
1000
0010
0000
1000
0000
0302
0000
0000
0000
,
0000
0000
0000
1000
0100
0000
0010
0000
,
1000
0000
0100
0010
1000
0010
0203
0000
,
0000
0000
0010
0000
1000
0001
1000
0010
,
2300
3002
0203
0000
,
0310
1000
0100
0010
0001
0000
1000
0000
0010
0000
0101
0000
1000
0000
0110
0000
,
0020
0030
1002
0003
0200
0300
2010
3000
0100
0000
1001
0000
1000
0000
0110
0000
,
0010
0000
1001
0000
0100
0000
0010
1000
0001
0000
0110
0000
0001
0000
1100
0000
,
0010
0000
0000
0000
0001
0000
0100
0000
0001
0010
0100
1000
0001
0000
0000
0000
1000
0000
0000
0000
0110
0000
0000
0000
1000
0000
0000
0000
0101
0000
0000
0000
,
0010
0000
1100
0000
0001
0000
0010
0100
1000
0000
0101
0000
1000
0000
0110
0000
,
0001
0000
0000
0000
0100
0000
0010
0000
0100
0001
1000
0010
0100
0000
0000
0000
0001
0000
0000
0000
1100
0000
0000
0000
0001
0000
0000
0000
0110
0000
0000
0000
,
1000
0000
0010
0100
0001
0000
1000
0010
0100
0000
0011
0000
1000
0000
0110
0000
,
0001
0000
1000
0100
0010
0000
0002
0000
1003
0000
0110
0000
1000
0000
0001
1000
,
0010
0000
0001
0100
0010
0000
1000
0001
0100
0000
1010
0000
0001
0000
1100
0000
,
0010
0000
0000
0000
0000
0000
0001
0000
0000
1000
0000
0000
0001
0000
0000
0010
0000
0000
0100
0000
0000
1000
0000
0000
0001
0000
1000
0000
0100
0000
0010
0000
0001
0000
1000
0000
0100
0000
1000
0000
0001
0000
0010
0000
0001
0000
1000
0000
,
0010
1000
0100
0010
0001
0100
0001
1000
0010
0100
0010
1000
0100
1000
0010
0100
0001
0010
0001
1000
0100
0010
0001
1000
,
0100
1000
0001
0100
0010
1000
0010
0100
0001
0100
0010
1000
0100
0010
0001
1000
0100
1000
0001
0010
0001
1000
0100
0010
,
0001
0100
0001
1000
0010
0100
0010
1000
0001
0100
0001
1000
0010
0100
0010
1000
0001
0010
0001
1000
0100
0010
0001
1000
,
0100
1000
0010
0100
0010
1000
0001
0100
0001
1000
0100
0010
0001
0100
0010
1000
0010
0100
0001
0010
0001
1000
0100
0010
,
0001
1000
0010
1000
0001
0010
0001
1000
0100
1000
0001
0100
0010
1000
0010
0100
0001
1000
0100
1000
0001
0010
0001
1000
,
0010
1000
0100
0010
0001
0100
0001
1000
0010
0100
0010
1000
0100
1000
0010
0100
0001
0010
0001
1000
0100
0010
0001
1000
,
0100
1000
0001
0100
0010
1000
0010
0100
0001
0100
0010
1000
0100
0010
0001
1000
0100
1000
0001
0010
0001
1000
0100
0010
,
0001
0100
0001
1000
0010
0100
0010
1000
0001
0100
0001
1000
0010
0100
0010
1000
0001
0010
0001
1000
0100
0010
0001
1000
,
0100
1000
0010
0100
0010
1000
0001
0100
0001
1000
0100
0010
0001
0100
0010
1000
0010
0100
0001
0010
0001
1000
0100
0010
,
0001
1000
0010
1000
0001
0010
0001
1000
0100
1000
0001
0100
0010
1000
0010
0100
0001
1000
0100
1000
0001
0010
0001
1000
,
0010
1000
0100
0010
0001
0100
0001
1000
0010
0100
0010
1000
0100
1000
0010
0100
0001
0010
0001
1000
0100
0010
0001
1000
,
0100
1000
0001
0100
0010
1000
0010
0100
0001
0100
0010
1000
0100
0010
0001
1000
0100
1000
0001
0010
0001
1000
0100
0010
,
0001
0100
0001
1000
0010
0100
0010
1000
0001
0100
0001
1000
0010
0100
0010
1000
0001
0010
0001
1000
0100
0010
0001
1000
,
0100
1000
0010
0100
0010
1000
0001
0100
0001
1000
0100
0010
0001
0100
0010
1000
0010
0100
0001
0010
0001
1000
0100
0010
,
0001
1000
0010
1000
0001
0010
0001
1000
0100
1000
0001
0100
0010
1000
0010
0100
0001
1000
0010
0100
0010
1000
0001
0010
,
0001
0000
1000
0000
0100
0000
0010
0000
0001
0000
0100
0000
0020
0000
0000
0000
0000
0000
0000
0000
0000
0000
0000
0000
1030
0000
0000
0000
0000
0000
1000
0000
0000
0100
0000
0000
0000
0000
0000
0100
0000
0000
0010
0000
0000
0000
0000
0000
,
0010
0000
0001
1000
0000
1000
0001
0000
0100
0000
0010
1000
0000
1000
0010
0000
,
0100
0000
0001
0100
0000
0100
0001
0000
1000
0000
0010
0100
0000
0100
0010
0000
,
1000
0000
0001
0100
0000
0100
0001
0000
1000
0000
0100
0010
0000
0010
0100
0000
,
1000
0000
0001
0010
0000
0100
0000
0000
1000
0000
1000
0100
0000
0100
0010
0000
,
0010
0000
0001
1000
0000
1000
0001
0000
0100
0000
0010
1000
0000
1000
0010
0000
,
0100
0000
0000
0000
0001
0010
0100
1000
0001
0000
0100
0010
0000
0010
0100
0000
,
0001
0000
1000
0100
0000
0100
1000
0000
0010
0000
0100
0001
0000
0001
0100
0000
,
0010
0000
0000
0000
0010
0000
0000
0000
0000
0000
0000
0000
0000
0000
0000
0000
0000
0000
0000
0000
0000
0000
0000
0000
0000
0000
0000
0000
0000
0000
0000
MMMM
,
0000
0000
0000
0000
,
0000
0000
0000
0000
;
