#TITLE:Parousia;
#SUBTITLE:;
#ARTIST:xi;
#TITLETRANSLIT:;
#SUBTITLETRANSLIT:;
#ARTISTTRANSLIT:;
#CREDIT:;
#BANNER:../Zeppelin_bn.png;
#BACKGROUND:../bg_Zeppelin.png;
#LYRICSPATH:;
#CDTITLE:../cdtitle_ZAiA.png;
#MUSIC:xi - Parousia.ogg;
#OFFSET:-0.033;
#SAMPLESTART:30.395;
#SAMPLELENGTH:24.100;
#SELECTABLE:YES;
#DISPLAYBPM:158.000;
#BPMS:0.000=158.000,320.000=154.000,324.000=150.000,328.000=146.000,332.000=142.000,334.000=132.000,336.000=158.000;
#STOPS:;
#BGCHANGES:;
// cache tags:
#FIRSTBEAT:8.000;
#LASTBEAT:341.000;
#SONGFILENAME:Songs/Cirque du Zeppelin/Parousia - [Zaia]/Parousia.sm;
#HASMUSIC:1;
#HASBANNER:1;
#MUSICLENGTH:132.127;
// end cache tags

//---------------dance-single - 3/12/6/3----------------
#NOTES:
     dance-single:
     3/12/6/3:
     Challenge:
     12:
     0.902,1.000,0.114,0.764,1.000,699.000,15.000,101.000,0.000,2.000:
0000
0000
0000
0000
,
0000
0000
0000
0000
,
2000
0000
3002
0000
,
0023
0000
0230
0000
,
2300
0000
3002
0000
,
0003
0000
0200
0320
,
2030
0000
3000
0002
,
0023
0000
0230
0000
,
2300
0000
0000
3000
,
0020
0000
0000
0000
0000
0000
0000
0000
0130
0001
0010
0100
1000
0001
1000
0010
,
0100
0000
0001
0000
1000
0000
0100
1000
0001
0000
0100
0010
1000
0001
0100
0010
,
1000
0001
0010
0000
0100
0000
1000
0000
0010
0000
0100
0001
0010
0001
1000
0000
,
0100
0000
0010
0000
0001
0000
0100
0010
1000
0000
0001
0010
0001
1000
0010
0100
,
0001
1000
0100
0000
0020
0000
0000
0000
0032
0000
0000
0000
2003
0000
3010
0100
,
0001
0010
0001
1000
0100
1000
0010
0100
,
0101
0000
0001
0000
1000
0000
0100
0000
0010
0000
0100
0000
1000
0000
0001
0100
,
0010
0000
0000
0000
0000
0000
0100
0000
0000
0000
0000
0000
0001
0000
0000
0000
0000
0000
1000
0000
0000
0100
0000
0000
1000
0000
0000
0000
0000
0000
0001
0000
0000
0100
0000
0000
0010
0000
1000
0000
0001
0000
1000
0000
0010
0000
0100
0000
,
0002
0000
0000
0000
0000
0000
0013
0100
1000
0000
0010
0100
0002
0000
0000
0000
,
1003
0000
0000
0000
0000
0000
0010
0000
0000
1000
0000
0000
0001
0000
0000
1000
0000
0000
0100
0000
0000
0010
0000
0000
0001
0000
0000
0100
0000
0000
0001
0000
0000
1000
0000
0000
0100
0000
0010
0000
0100
0000
1000
0000
0000
0001
0000
0000
,
0100
0000
0000
0010
0000
0000
1000
0000
0000
0001
0000
0000
1000
0000
0010
0000
0100
0000
0001
0000
0000
1000
0000
0000
0100
0000
0000
1000
0000
0000
0001
0000
0000
0100
0000
0000
0001
0000
0000
0010
0000
0000
0100
0000
0000
1000
0000
0000
,
0002
0000
0000
0203
0000
0000
0340
4000
0000
0000
0000
0030
,
3001
0010
0400
0000
4300
0000
3010
0100
,
0001
0000
0010
0000
0100
0000
1000
0000
0001
0000
1000
0000
0001
0000
0000
0100
0000
0000
0010
0000
0000
0100
0000
0000
0004
0000
0000
0000
0000
0000
0000
0000
0000
0000
0000
0000
0000
0000
0000
0000
0000
0000
0000
0000
0000
0000
0000
0000
,
0203
1301
0000
0001
0010
1001
0002
2003
,
3010
0000
0000
0000
0000
0000
0200
0000
0000
0320
0000
0000
0030
0000
0000
0000
0000
0000
0100
0000
0000
0000
0000
0000
0001
0000
0000
0000
1000
0000
0000
0000
0100
0000
0000
0000
1000
0000
0000
0000
0010
0000
0000
0000
0100
0000
0000
0000
,
0001
0000
0010
0000
0100
0000
1000
0000
0001
0000
0100
0000
0001
1000
0001
1000
0010
0100
0002
0000
0000
2003
0000
0000
,
3020
0230
0302
2003
3100
0010
0001
1000
0400
0000
0000
0000
0000
0000
0000
0000
,
2300
0000
0000
0000
0000
0000
0000
0000
3201
0000
0000
0000
0000
0000
0000
0000
0004
0000
0000
0000
0000
0000
0000
0000
0300
0000
0000
0000
0000
0000
0000
0000
2003
0000
0000
0000
3020
0000
0000
0000
0230
0000
0000
0300
0002
0000
0000
0003
2000
0000
3000
0000
0020
0000
0030
0000
0200
0300
0000
0000
0002
0003
0000
0000
,
1000
0100
1000
0001
0010
0100
0010
0001
0100
0010
1000
0001
0010
0100
1000
0010
,
1000
0001
0100
0001
0010
0001
1000
0010
1000
0100
1000
0001
0100
0000
0001
0010
,
0001
0000
1000
0000
0001
0000
0200
0000
0000
0000
0000
0000
0000
0000
0000
0000
0000
0000
0000
0000
0000
0000
0000
0000
0320
0000
0000
0000
0000
0000
0000
0000
0000
0000
0000
0000
1030
0000
0000
0100
0000
0000
1000
0000
0001
0000
1000
0000
,
0200
0000
0000
0000
0000
0000
0000
0000
0000
0000
0000
0000
2300
0000
0000
0000
3002
0000
0000
0000
2003
0000
0000
0000
3001
0000
0000
0100
0000
0000
0001
0000
0000
1000
0000
0000
0010
0000
0000
1000
0000
0000
0001
0000
0000
0100
0000
0000
,
0001
0000
0000
0010
0000
0000
0100
0000
0000
1000
0000
0000
0100
0000
0000
0010
0000
0000
0001
0000
0000
0100
0000
0000
0010
0000
0000
1000
0000
0000
0001
0000
0000
0000
0000
0000
0020
0000
0000
0000
0230
0000
0000
0000
0320
0000
0000
0000
,
0230
0000
0000
0000
0000
0000
0000
0000
2300
0000
0000
3020
0000
0000
0230
0000
,
0302
0000
0000
0000
0000
0000
0000
0000
0103
0001
0010
0001
,
2000
0000
3020
0000
,
0230
0000
0000
0301
,
1000
0000
0100
0010
,
0001
0000
1000
0010
,
0100
0001
0010
0100
,
1000
0001
0100
0010
0100
0001
1000
0100
1000
0001
0010
0100
,
1000
0000
0000
0000
0010
0000
0000
0000
0100
0000
0000
0000
0001
0000
0000
0000
0010
0000
0000
0000
0001
0000
0000
0000
1000
0000
0000
0000
0000
0000
0000
0000
0000
0010
0000
0000
0000
0000
0000
0000
0000
0000
0100
0000
0000
0000
0000
0000
,
0001
1000
0100
1000
0001
0100
0010
0100
0001
1000
0010
1000
,
0100
0010
0001
1000
0010
0100
0002
0000
0000
0023
0000
0000
,
0230
1300
0001
2000
,
3020
0130
0002
0023
,
0230
1300
0001
0020
,
0032
0103
0010
1000
,
0001
0001
0100
0010
0100
0001
1000
0001
,
0010
0010
0100
1000
0010
1000
0001
0100
,
0001
0000
0000
0000
0000
0000
0010
0000
0000
0000
0000
0000
0100
0000
0000
0000
0000
0000
1000
0000
0000
0001
0000
0000
0100
0000
0000
0000
0000
0000
0010
0000
0000
1000
0000
0000
0001
0000
0000
0000
0010
0000
0000
0000
0100
0000
0000
0000
,
2000
0000
0000
3000
,
1002
0000
0000
0000
0000
0000
0000
0000
0000
0000
0000
0000
0103
0000
0000
0000
0000
0000
0010
0000
0000
1000
0000
0000
0001
0000
0000
0000
0010
0000
0000
0000
0001
0000
0000
0000
0100
0000
0000
0010
0000
0000
1000
0000
0000
0100
0000
0000
,
0010
0001
0010
0001
1000
0100
1000
0001
1000
0010
0100
0010
0100
0001
0100
0001
,
1000
0100
1000
0001
0100
0010
0100
0001
1000
0100
1000
0001
0010
0100
1000
0010
,
1000
0001
0010
0001
0100
0010
1000
0001
1000
0100
0010
0001
1000
0010
0100
0010
,
1000
0100
0010
0100
1000
0001
1000
0100
1000
0001
0100
0010
1000
0001
0100
0001
,
0010
0100
0010
0001
1000
0001
0100
0010
0100
0001
1000
0001
0010
0001
0100
0010
,
1000
0100
0010
0001
1000
0001
0100
0001
0100
0010
1000
0001
1000
0100
0010
0100
,
1000
0000
0010
0000
0100
0001
1000
0001
0010
0000
0000
0110
0000
0000
1100
0000
,
1000
0001
1000
0001
0100
0010
1000
0100
0010
0001
1000
0010
1000
0001
0010
0100
,
1000
0000
0000
0000
0000
0000
0001
0000
0000
0000
0000
0000
0010
0000
0000
0000
0000
0000
0100
0000
0000
1000
0000
0000
0001
0000
0000
0100
0000
0000
0010
0000
0000
0100
0000
0000
0001
0000
1000
0000
0001
0000
0010
0000
0001
0000
1000
0000
,
0100
0010
0001
1000
0200
0000
0000
0000
0320
0000
0000
0000
0130
0000
1000
0000
,
0010
0100
0001
0010
0200
0000
0000
0000
2300
0000
0000
3001
0100
0001
1000
0010
,
0100
0000
0000
0001
0000
0000
0020
0000
0000
0000
0000
0000
0000
0000
0000
0000
0000
0000
0130
0000
0000
1000
0000
0000
0010
0000
0000
0100
0000
0000
0002
0000
0000
0000
0000
0000
1003
0000
0100
0000
0010
0000
0001
0000
1000
0000
0001
0000
,
2000
0000
0000
3200
0000
0000
2300
0000
3020
0000
0000
0230
0000
0000
0302
0000
,
0013
0100
1000
0001
0100
0010
1000
0001
0010
0100
0010
0001
1000
0010
0100
0010
,
1000
0100
0010
0001
0100
0001
0010
0100
1000
0001
1000
0010
0100
0001
1000
0100
,
1000
0000
0010
0000
1000
0000
0001
0000
0100
0000
0001
0000
0010
0000
0100
0000
4000
3000
0040
0030
0400
0300
0004
0003
0040
0030
0400
0300
4000
3000
0040
0030
,
0200
0000
0000
0000
0000
0000
0310
1000
,
0002
0000
0000
0023
0000
0000
0430
4000
0000
0000
0000
0300
,
3001
0100
0020
0000
4030
0000
3100
0010
,
0011
0000
0000
0000
0000
0000
1000
0000
0000
0000
0000
0000
0001
0000
0000
1000
0000
0000
0100
0000
0000
0010
0000
0000
0001
0000
0000
0000
0100
0000
0000
0000
0010
0000
0000
0000
1000
0000
0000
0000
0100
0000
0000
0000
1000
0000
0000
0000
,
0002
0000
0000
0000
0200
0300
0000
0000
2000
3000
0000
0000
0203
0000
0000
0000
,
0310
0000
0010
0000
1000
0010
1000
0001
0010
0000
0010
0000
0100
1000
0001
1000
,
0100
0000
0100
0000
0010
0001
0100
0010
1000
0000
1000
0000
0001
0000
0001
0000
,
0200
0000
0000
0000
0000
0000
0310
0000
0000
0000
0000
0000
1000
0000
0000
0010
0000
0000
0100
0000
0000
0001
0000
0000
1000
0000
0000
0001
0000
0000
0010
0000
0000
0001
0000
0000
0100
0000
0010
0000
1000
0000
0001
0000
1000
0000
0010
0000
,
0100
0000
0001
0000
0100
0000
0001
0000
1000
0000
0100
0000
1000
0000
0100
0000
0040
0030
0004
0003
0400
0300
0040
0030
4000
3000
0400
0300
0040
0030
0004
0003
,
0100
0010
1000
0001
0100
0010
1000
0001
0010
0100
1000
0001
1000
0100
0010
0001
,
0200
0000
0320
0000
,
2030
0000
3002
0000
,
0023
0000
0230
0000
,
0000
2300
0000
0000
0000
0000
0000
0000
0000
3002
0000
0000
0000
0000
0000
0000
,
0000
0203
0000
0000
0000
0000
0000
0000
,
0000
0000
0000
0000
,
0000
0300
0000
0000
;

//---------------dance-single - 2----------------
#NOTES:
     dance-single:
     2:
     Hard:
     11:
     0.790,1.000,0.114,0.795,0.727,592.000,15.000,105.000,0.000,2.000:
0000
0000
0000
0000
,
0000
0000
0000
0000
,
2000
0000
3002
0000
,
0023
0000
0230
0000
,
2300
0000
3002
0000
,
0003
0000
0200
0320
,
2030
0000
3000
0002
,
0023
0000
0230
0000
,
2300
0000
0000
3000
,
0020
0000
0000
0000
0000
0000
0000
0000
0130
0001
0010
0100
1000
0001
1000
0010
,
0100
0000
0001
0000
1000
0000
0100
1000
0001
0000
0100
0010
1000
0001
0100
0010
,
1000
0001
0010
0000
0100
0000
1000
0000
0010
0000
0100
0001
0010
0001
1000
0000
,
0100
0000
0010
0000
0001
0000
0100
0010
1000
0000
0001
0010
0001
1000
0010
0100
,
0001
1000
0100
0000
0020
0000
0000
0000
0032
0000
0000
0000
2003
0000
3010
0100
,
0001
0010
0001
1000
0100
1000
0010
0100
,
0101
0000
0001
0000
1000
0000
0100
0000
0010
0000
0100
0000
1000
0000
0001
0100
,
0010
0000
0100
0000
0001
0000
1000
0100
1000
0000
0001
0100
0010
1000
0010
0100
,
0002
0000
0000
0000
0000
0000
0013
0100
1000
0000
0010
0100
0002
0000
0000
0000
,
1003
0000
0010
1000
0001
1000
0100
0010
0001
0100
0001
1000
0001
0100
0010
1000
,
0100
0010
0001
1000
0010
0100
0001
1000
0100
1000
0001
0100
0001
0010
0100
1000
,
0002
0000
0000
0203
0000
0000
0340
4000
0000
0000
0000
0030
,
3001
0010
0400
0000
4300
0000
3010
0100
,
0001
0010
0100
1000
0010
0100
0010
0100
0004
0000
0000
0000
0000
0000
0000
0000
,
0203
1301
0000
0001
0010
1001
0002
2003
,
3010
0000
0000
0000
0000
0000
0200
0000
0000
0320
0000
0000
0030
0000
0000
0000
0000
0000
0100
0000
0000
0000
0000
0000
0001
0000
0000
0000
1000
0000
0000
0000
0100
0000
0000
0000
1000
0000
0000
0000
0010
0000
0000
0000
0100
0000
0000
0000
,
0001
0000
0000
0000
0010
0000
0000
0000
0100
0000
0000
0000
1000
0000
0000
0000
0001
0000
0000
0000
0100
0000
0000
0000
0001
0000
0000
1000
0000
0000
0010
0000
0000
0100
0000
0000
0002
0000
0000
0000
0000
0000
2003
0000
0000
0000
0000
0000
,
3020
0230
0302
2003
3100
0010
0001
1000
0400
0000
0000
0000
0000
0000
0000
0000
,
2300
0000
0000
0000
0000
0000
0000
0000
3201
0000
0000
0000
0000
0000
0000
0000
0004
0000
0000
0000
0000
0000
0000
0000
0300
0000
0000
0000
0000
0000
0000
0000
2003
0000
0000
0000
3020
0000
0000
0000
0230
0000
0000
0300
0002
0000
0000
0003
2000
0000
3000
0000
0020
0000
0030
0000
0200
0300
0000
0000
0002
0003
0000
0000
,
1000
0010
1000
0010
0100
0001
0100
0001
1000
0100
1000
0001
0010
0100
1000
0010
,
0100
0001
1000
0100
0010
0001
0100
0010
,
1000
0000
0200
0000
0000
0000
0000
0000
0320
0000
0000
0000
0031
1000
0001
0000
,
0020
0000
0000
0000
0000
0000
0000
0000
0000
0000
0000
0000
0032
0000
0000
0000
2003
0000
0000
0000
3002
0000
0000
0000
1003
0000
0000
0010
0000
0000
1000
0000
0000
0001
0000
0000
0100
0000
0000
0001
0000
0000
1000
0000
0000
0010
0000
0000
,
1000
0000
0000
0100
0000
0000
0010
0000
0000
0001
0000
0000
0010
0000
0000
0100
0000
0000
1000
0000
0000
0010
0000
0000
0100
0000
0000
0001
0000
0000
1000
0000
0000
0000
0000
0000
0200
0000
0000
0000
0320
0000
0000
0000
0230
0000
0000
0000
,
0320
0000
0000
0000
0000
0000
0000
0000
0032
0000
0000
0203
0000
0000
0320
0000
,
2030
0000
0000
0000
0000
0000
0000
0000
3010
1000
0100
1000
,
0002
0000
0203
0000
,
0320
0000
0000
1030
,
0001
0000
0010
0100
,
1000
0000
0001
0100
,
0010
1000
0100
0010
,
0001
1000
0010
0100
0010
1000
0001
0010
0001
1000
0100
0010
,
0001
0000
0000
0000
0100
0000
0000
0000
0010
0000
0000
0000
1000
0000
0000
0000
0100
0000
0000
0000
1000
0000
0000
0000
0001
0000
0000
0000
0000
0000
0000
0000
0000
0100
0000
0000
0000
0000
0000
0000
0000
0000
0010
0000
0000
0000
0000
0000
,
1000
0001
0010
0001
1000
0010
0100
0010
1000
0001
0100
0001
,
0010
0100
1000
0001
0100
0010
2000
0000
0000
3200
0000
0000
,
0320
0031
1000
0002
,
0203
0310
2000
3200
,
0320
0031
1000
0200
,
2300
3010
0100
0001
,
1000
1000
0010
0100
0010
1000
0001
1000
,
0100
0100
0010
0001
0100
0001
1000
0010
,
1000
0000
0000
0000
0000
0000
0100
0000
0000
0000
0000
0000
0010
0000
0000
0000
0000
0000
0001
0000
0000
1000
0000
0000
0010
0000
0000
0000
0000
0000
0100
0000
0000
0001
0000
0000
1000
0000
0000
0000
0100
0000
0000
0000
0010
0000
0000
0000
,
0002
0000
0000
0003
,
2001
0000
0000
0000
0000
0000
0000
0000
0000
0000
0000
0000
3010
0000
0000
0000
0000
0000
0100
0000
0000
0001
0000
0000
1000
0000
0000
0000
0100
0000
0000
0000
1000
0000
0000
0000
0010
0000
0000
0100
0000
0000
0001
0000
0000
0010
0000
0000
,
0100
1000
0100
1000
0001
0010
0001
1000
0001
0100
0010
0100
0010
1000
0010
1000
,
0001
0010
0001
0100
0001
1000
0010
1000
,
0100
0010
0001
0100
0010
0100
0001
1000
,
0100
0010
0001
1000
0001
0100
0010
1000
,
0100
0010
0100
1000
0001
0100
0010
0100
,
0001
1000
0001
0010
0100
0010
0001
0010
,
0001
0000
0100
0000
0010
1000
0001
1000
0100
0000
0000
0110
0000
0000
0011
0000
,
0001
1000
0001
1000
0010
0100
0001
0010
0100
1000
0001
0100
0001
1000
0100
0010
,
0001
0000
1000
0000
0100
0000
0010
0001
1000
0010
0100
0010
1000
0001
1000
0001
,
0010
0100
1000
0001
0020
0000
0000
0000
0230
0000
0000
0000
0310
0000
0001
0000
,
0100
0010
1000
0100
0020
0000
0000
0000
0032
0000
0000
1003
0010
1000
0001
0100
,
0010
1000
0200
0000
0000
0000
0310
0001
0100
0010
2000
0000
3001
0010
0100
0010
,
0002
0000
0000
0023
0000
0000
0032
0000
0203
0000
0000
0320
0000
0000
2030
0000
,
3100
0010
0001
0100
0001
1000
0010
1000
,
0100
0010
0100
1000
0001
0100
0010
0100
,
0001
0000
0000
0000
1000
0000
0000
0000
0100
0000
0000
0000
0010
0000
0000
0000
0004
0003
0400
0300
0040
0030
4000
3000
0400
0300
0040
0030
0004
0003
0400
0300
,
0020
0000
0000
0000
0000
0000
0130
0001
,
2000
0000
0000
3200
0000
0000
0340
0004
0000
0000
0000
0030
,
1003
0010
0200
0000
0304
0000
0013
0100
,
1100
0000
0000
0000
0000
0000
0001
0000
0000
0000
0000
0000
1000
0000
0000
0001
0000
0000
0010
0000
0000
0100
0000
0000
1000
0000
0000
0000
0010
0000
0000
0000
0100
0000
0000
0000
0001
0000
0000
0000
0010
0000
0000
0000
0001
0000
0000
0000
,
2000
0000
0000
0000
0020
0030
0000
0000
0002
0003
0000
0000
3020
0000
0000
0000
,
0130
0000
0100
0000
0001
0100
0001
1000
0100
0000
0100
0000
0010
0001
1000
0001
,
0010
0000
0010
0000
0100
1000
0010
0100
0001
0000
0001
0000
1000
0000
1000
0000
,
0020
0130
0001
1000
0001
0010
0100
0010
,
0001
0000
0000
0000
0100
0000
0000
0000
0001
0000
0000
0000
0010
0000
0000
0000
0400
0300
4000
3000
0040
0030
0400
0300
0004
0003
0040
0030
0400
0300
4000
3000
,
0020
2030
3200
2300
,
3020
0000
0230
0000
,
0302
0000
2003
0000
,
3200
0000
0320
0000
,
0000
0032
0000
0000
0000
0000
0000
0000
0000
2003
0000
0000
0000
0000
0000
0000
,
0000
3020
0000
0000
0000
0000
0000
0000
,
0000
0000
0000
0000
,
0000
0030
0000
0000
;

//---------------dance-single - ----------------
#NOTES:
     dance-single:
     :
     Medium:
     9:
     0.662,0.968,0.098,0.923,0.284,470.000,13.000,122.000,0.000,1.000:
0000
0000
0000
0000
,
0000
0000
0000
0000
,
2000
0000
3002
0000
,
0023
0000
0230
0000
,
2300
0000
3002
0000
,
0003
0000
0200
0320
,
2030
0000
3000
0002
,
0023
0000
0230
0000
,
2300
0000
0000
3000
,
0020
0000
0000
0000
0230
0302
0023
0230
,
2300
0000
3002
0000
,
0203
0000
0320
0000
,
2030
0000
3002
0000
,
0103
0000
0000
0000
0020
0000
0000
0000
2030
0000
0000
0000
3002
0000
0103
0010
,
1000
0100
1000
0001
0010
0001
0100
0010
,
1010
0000
1000
0000
0001
0000
0010
0000
0100
0000
0010
0000
0001
0000
1000
0010
,
0100
0000
0010
0000
1000
0000
0001
0010
0001
0000
1000
0000
0400
0000
0000
0000
,
2300
0000
0000
3001
0010
0100
2000
0000
,
3001
0100
0001
1000
0010
1000
0100
0010
,
0100
1000
0001
0100
0010
0100
0001
1000
,
0002
0203
0340
0000
,
1030
0100
0020
0000
0032
0000
0103
0010
,
2000
3002
0023
0230
2300
0000
0000
0000
,
3020
1031
0000
1000
0100
1001
2000
3002
,
0103
0000
0000
0020
0000
0000
0030
0000
0000
0100
0000
0000
0001
0000
1000
0000
0100
0000
0010
0000
0001
0000
1000
0000
,
0010
0000
0100
0000
0001
0000
1000
0000
0100
0000
0010
0000
0200
0000
0000
2300
0000
0000
3002
0000
0000
2003
0000
0000
,
3020
0230
0302
2003
3400
0000
0000
0000
0000
0000
0000
0000
0000
0000
0000
0000
,
2300
0000
0000
0000
0000
0000
0000
0000
3001
0000
0000
0000
0000
0000
0000
0000
0400
0000
0000
0000
0000
0000
0000
0000
0000
0000
0000
0000
0300
0000
0000
0000
0002
0000
0000
0000
0203
0000
0000
0000
0320
0000
0000
0030
2000
0000
0000
3000
0002
0000
0003
0000
0200
0000
0300
0000
0020
0030
0000
0000
2000
3000
0000
0000
,
0001
0100
0010
0100
0001
0010
0100
1000
,
0010
1000
0001
0010
0100
1000
0010
0100
,
0001
0000
0020
0000
0000
0000
0000
0000
0230
0000
0000
0000
1300
0001
1000
0000
,
0200
0000
0000
0000
0000
0000
2300
0000
3002
0000
2003
0000
3001
0000
0000
0100
0000
0000
0010
0000
0000
0100
0000
0000
,
0001
0000
0000
1000
0000
0000
0100
0000
0000
0010
0000
0000
0100
0000
0000
1000
0000
0000
0020
0000
0230
0000
0320
0000
,
0230
0000
0000
0000
0000
0000
0000
0000
0302
0000
0000
0203
0000
0000
0320
0000
,
2030
0000
0000
0000
0000
0000
0000
0000
3010
1000
0001
1000
,
0002
0000
0203
0000
,
0320
0000
0000
1030
,
0001
0000
0010
0100
,
1000
0000
0001
0100
,
0010
1000
0100
0010
,
0001
1000
0010
0100
0010
1000
0001
0010
0001
1000
0100
0010
,
0001
0000
0000
0000
1000
0000
0000
0000
0010
0000
0000
0000
1000
0000
0000
0000
0001
0000
0000
0000
1000
0000
0000
0000
0001
0000
0000
0000
0000
0000
0000
0000
0000
0100
0000
0000
0000
0000
0000
0000
0000
0000
0010
0000
0000
0000
0000
0000
,
1000
0001
0010
0001
1000
0010
0100
0010
1000
0001
1000
0001
,
0010
0100
1000
0001
0100
0010
2000
0000
0000
3200
0000
0000
,
0320
0031
1000
0002
,
0203
0310
2000
3200
,
0320
0031
1000
0200
,
2300
3010
0100
0001
,
1000
1000
0010
0100
0010
1000
0001
1000
,
0100
0100
0010
0001
0100
0001
1000
0010
,
1000
0000
0000
0000
0000
0000
0100
0000
0000
0000
0000
0000
0010
0000
0000
0000
0000
0000
0001
0000
0000
1000
0000
0000
0001
0000
0000
0000
0000
0000
1000
0000
0000
0010
0000
0000
1000
0000
0000
0000
0001
0000
0000
0000
1000
0000
0000
0000
,
0002
0000
0000
0003
,
2001
0000
0000
0000
0000
0000
0000
0000
0000
0000
0000
0000
3010
0000
0000
0000
0000
0000
0100
0000
0000
0001
0000
0000
1000
0000
0000
0000
0100
0000
0000
0000
1000
0000
0000
0000
0001
0000
0000
0000
0000
0000
0100
0000
0000
0000
0000
0000
,
0010
1000
0001
0010
0100
1000
0010
0100
,
0001
0010
0001
0100
0001
1000
0010
1000
,
0100
0010
0001
0100
0010
0100
0001
1000
,
0100
0010
0001
1000
0001
0100
0010
1000
,
0100
0010
0100
1000
0001
0100
0010
0100
,
0001
1000
0001
0010
0100
0010
0001
0010
,
0001
0000
0100
0000
0010
1000
0001
1000
0001
0000
0000
0010
0000
0000
0001
0000
,
1000
0010
1000
0100
0010
0100
1000
0010
,
0100
0001
0010
0100
1000
0001
0400
0000
,
0310
1000
0001
1000
0200
0000
0000
0000
0320
0000
0000
0000
0031
0000
1000
0000
,
0100
1000
0001
1000
0020
0000
0000
0000
2030
0000
0000
3001
0100
0000
0010
0000
,
1000
0020
0000
0130
0001
0020
0130
1000
,
0020
0000
0000
0230
0000
0000
0302
0000
2003
0000
0000
3020
0000
0000
2030
0000
,
3100
0010
0001
0100
0001
1000
0010
1000
,
0100
0010
0100
1000
0001
0100
0010
0100
,
0001
1000
0100
0010
0004
4003
3004
4003
,
3020
0000
0000
0000
0000
0000
0130
0001
,
2000
3200
0340
0000
,
0031
0100
0020
0000
4030
0000
3100
0010
,
1001
0000
0000
1000
0000
0000
0001
0000
0000
1000
0000
0000
0001
0000
0100
0000
0010
0000
1000
0000
0001
0000
1000
0000
,
0002
0000
0000
0000
0200
0300
0000
0000
2000
3000
0000
0000
0203
0000
0000
0000
,
0310
0010
1000
0001
0100
0100
0010
1000
,
0001
0001
0010
0100
1000
1000
0001
0001
,
0200
0310
1000
0001
1000
0100
0010
0100
,
1000
0010
1000
0100
0040
0430
4300
3004
,
0203
0302
0023
0032
,
0203
0000
0320
0000
,
2030
0000
3002
0000
,
0023
0000
0230
0000
,
0000
2300
0000
0000
0000
0000
0000
0000
0000
3002
0000
0000
0000
0000
0000
0000
,
0000
0203
0000
0000
0000
0000
0000
0000
,
0000
0000
0000
0000
,
0000
0300
0000
0000
;
