#TITLE:Quasar;
#SUBTITLE:(Outphare);
#ARTIST:T-R-DDR D@nce Club;
#TITLETRANSLIT:;
#SUBTITLETRANSLIT:;
#ARTISTTRANSLIT:;
#CREDIT:;
#BANNER:Quasar-bn.png;
#BACKGROUND:Quasar-bg.png;
#LYRICSPATH:;
#CDTITLE:cdtitle.png;
#MUSIC:Quasar.mp3;
#OFFSET:-0.140;
#SAMPLESTART:38.710;
#SAMPLELENGTH:11.980;
#SELECTABLE:YES;
#BPMS:0.000=155.000;
#STOPS:;
#BGCHANGES:;
// cache tags:
#FIRSTBEAT:3.500;
#LASTBEAT:320.000;
#SONGFILENAME:Songs/toune 2/Quasar12/Quasar.sm;
#HASMUSIC:1;
#HASBANNER:1;
#MUSICLENGTH:126.281;
// end cache tags

//---------------dance-single - ----------------
#NOTES:
     dance-single:
     :
     Challenge:
     10:
     1.000,1.000,0.388,0.523,1.000,830.000,49.000,66.000,0.000,0.000:
0000
0000
0000
0000
0000
0000
0000
0100
,
0100
1100
0110
0011
,
1010
1001
0101
0110
,
1001
0110
1001
0110
,
1100
0000
0000
0000
0001
0000
1000
0001
1000
0000
0000
0000
1000
0000
0000
0000
,
2100
0000
0001
3000
0012
0000
1000
0003
,
2100
0000
0010
3000
0012
0000
1000
0000
,
0100
0010
1000
0100
,
0010
0000
1000
0000
0100
0000
0010
0003
,
0120
0000
0100
0030
2100
0000
0010
3000
,
0012
0000
0010
0003
0210
0000
0001
0000
,
0010
1000
0001
0010
,
1000
0001
0310
0000
,
1000
0100
1000
0100
1000
0100
1000
0100
0010
0100
0010
0100
0010
0100
0010
0100
,
0010
0001
0010
0001
0010
0001
0010
0001
1000
0001
1000
0001
1000
0100
0010
0001
,
1000
0100
0010
0001
1000
0100
0010
0001
1000
0100
0010
0001
0100
1000
0100
1000
,
0100
1000
0100
1000
0100
0001
0010
0001
0010
0001
0010
0001
0010
0100
1000
0001
,
0010
0100
1000
0001
0010
0100
1000
0001
0010
0100
1000
0000
0100
0001
0100
0001
,
0100
0001
0100
0001
0100
0010
1000
0100
0010
0001
1000
0100
0010
0001
1000
0100
,
0010
0001
1000
0010
0100
0001
1000
0010
0001
0100
1000
0001
0010
0100
1000
0001
,
0010
0100
1000
0001
0010
0100
1000
0001
0100
0010
1000
0001
0100
0010
1000
0001
,
0100
0010
1000
0001
1000
0001
1000
0001
1000
0001
1000
0001
1000
0010
1000
0010
,
1000
0010
1000
0010
1000
0100
1000
0100
1000
0100
1000
0100
1000
0100
0010
0001
,
1000
0100
0010
0001
0010
0001
0010
0001
0010
0001
0010
0001
0100
0001
0100
0001
,
0100
0001
0100
0001
0010
0100
1000
0001
0010
0100
1000
0001
0100
0010
1000
0010
,
0100
0001
1000
0100
1000
0100
1000
0100
1000
0001
1000
0001
1000
0001
1000
0001
,
1000
0100
0010
0001
1000
0100
0010
0001
1000
0001
1000
0001
1000
0001
1000
0100
,
0001
0100
1000
0010
0001
0010
1000
0001
0010
0100
1000
0001
0010
0100
1000
0001
,
2002
0000
0000
3003
,
0220
0330
0022
0033
,
2020
3030
2200
3300
,
2002
3003
0220
0330
,
2200
3300
0220
0330
,
0022
0033
0202
0303
,
2020
3030
2200
3300
,
0022
0033
2002
3003
,
0220
0330
2002
3003
,
1000
0001
1000
0001
1000
0001
1000
0100
1000
0100
1000
0100
1000
0010
1000
0010
,
1000
0010
1000
0001
1000
0001
1000
0001
0010
0001
0010
0001
0010
0001
0100
0001
,
0100
0001
0100
0001
0010
0100
1000
0001
0010
0100
1000
0001
0010
0100
1000
0001
,
1000
0100
0010
0001
1000
0100
0010
0001
1000
0100
0010
0001
0100
0010
1000
0100
,
0010
0001
0100
0010
1000
0100
0010
0001
0100
0010
0100
0001
0010
0100
1000
0010
,
0100
0001
0010
0100
1000
0010
0100
0001
0010
0100
1000
0001
1000
0001
1000
0001
,
1000
0001
1000
0001
1000
0001
1000
0001
1000
0100
0010
0001
0100
0010
1000
0100
,
0010
0001
0100
0010
1000
0100
0010
0001
0100
0010
0100
0001
0010
0100
1000
0001
,
0010
0100
1000
0001
0010
0100
1000
0001
0100
0010
1000
0001
0100
0010
1000
0001
,
0100
0010
1000
0001
0100
0010
1000
0001
0010
0100
1000
0001
0010
0100
1000
0010
,
0100
0010
1000
0100
0010
0001
1000
0100
0010
0001
1000
0100
0010
0001
1000
0100
,
0010
0001
1000
0010
0100
0001
1000
0010
0100
0001
1000
0010
0100
0001
1000
0010
,
0001
0100
1000
0100
0010
0001
0100
0010
1000
0100
0010
0001
0100
0010
1000
0100
,
0010
0001
1000
0001
1000
0001
1000
0001
1000
0001
1000
0001
1000
0100
1000
0100
,
1000
0100
1000
0100
1000
0100
1000
0100
1000
0010
1000
0010
1000
0010
1000
0010
,
1000
0010
1000
0010
1000
0100
0010
0001
0010
0001
0010
0001
0010
0001
0010
0001
,
0010
0001
0100
0001
0100
0001
0100
0001
0100
0001
0100
0001
0100
0010
0100
0010
,
0100
0010
0100
0010
0100
0010
0100
0010
0100
0001
0010
0100
1000
0001
0010
0100
,
1000
0001
0010
0100
1000
0001
0010
0100
1000
0001
0010
0100
1000
0001
0010
0100
,
1000
0001
1000
0001
1000
0001
1000
0001
1000
0001
1000
0001
1000
0100
0010
0001
,
1000
0100
0010
0001
1000
0100
0010
0001
1000
0100
0010
0001
1000
0100
0010
0001
,
1000
0100
0010
0001
1000
0100
0010
0001
1000
0100
0010
0001
1000
0001
1000
0001
,
1000
0001
1000
0100
0010
0100
0010
0100
0010
0100
0010
0100
1000
0001
1000
0001
,
1000
0001
1000
0100
0010
0100
1000
0100
0010
0100
1000
0100
1000
0100
0001
0100
,
1000
0100
0001
0100
1000
0100
0001
0100
1000
0100
0001
0100
1000
0010
1000
0010
,
1000
0010
1000
0100
0010
0001
1000
0100
0010
0001
1000
0100
0010
0001
1000
0100
,
0010
0001
1000
0001
1000
0001
0010
0100
0010
0001
0010
0100
0010
0001
0010
1000
,
0010
0001
0010
1000
0010
0001
0010
1000
0010
0001
0010
1000
0010
0001
0010
1000
,
0010
0001
0010
1000
0010
0001
0010
0001
0010
0001
0010
0001
1000
0001
1000
0001
,
1000
0001
1000
0001
1000
0001
1000
0100
0010
0001
1000
0100
0010
0001
1000
0100
,
0010
0001
1000
0100
0010
0001
1000
0100
0010
0001
0100
0010
0100
0001
0010
0100
,
1000
0001
0010
0100
1000
0001
0010
0100
1000
0001
0010
0100
1000
0001
1000
0001
,
2002
0000
0000
0000
,
0000
3003
0000
0000
,
0220
0330
0022
0033
,
2200
3300
0022
0033
,
2020
3030
0220
0330
,
2020
3030
2002
3003
,
2020
0000
0000
3030
,
0202
0000
0000
0000
,
0303
0220
0000
0000
,
0000
0000
0330
0000
;

//---------------dance-single - ----------------
#NOTES:
     dance-single:
     :
     Beginner:
     2:
     0.109,0.285,0.000,0.008,0.000,95.000,0.000,1.000,0.000,0.000:
0000
0000
0000
0000
,
1000
1000
1000
1000
,
1000
1000
1000
1000
,
0001
0001
0001
0001
,
0001
0000
0000
0000
,
1000
0000
0001
0000
,
1000
0000
1000
0000
,
0000
0000
0000
0000
,
0000
0000
0000
0000
,
1000
0000
0001
0000
,
0100
0000
0001
0000
,
0000
0000
0000
0000
,
0000
0000
0000
0000
,
1000
0000
0000
0000
,
0000
0000
0000
0000
,
0000
0000
0000
0000
,
0001
0000
0000
0000
,
1000
0000
0000
0000
,
0010
0000
0000
0000
,
1000
0000
0000
0000
,
0010
0000
0000
0000
,
1000
0000
0000
0000
,
0010
0000
0000
0000
,
1000
0000
0000
0000
,
0100
0000
0000
0000
,
1000
0000
0000
0000
,
0100
0000
0000
0000
,
1000
0000
0000
0000
,
0001
0000
0000
0000
,
0100
0000
0001
0000
,
0100
0000
0001
0000
,
0100
0000
0001
0000
,
0010
0000
0001
0000
,
0010
0000
0001
0000
,
1000
0000
0001
0000
,
1000
0000
0001
0000
,
1000
0000
0001
0000
,
1000
0000
0000
0000
,
0001
0000
0000
0000
,
1000
0000
0000
0000
,
1000
0000
0000
0000
,
1000
0000
0000
0000
,
0001
0000
0000
0000
,
0001
0000
0000
0000
,
0001
0000
0000
0000
,
1000
0000
0000
0000
,
0001
0000
0000
0000
,
1000
0000
0000
0000
,
0100
0000
0000
0000
,
1000
0000
0000
0000
,
0100
0000
0000
0000
,
1000
0000
0000
0000
,
0100
0000
0000
0000
,
1000
0000
0000
0000
,
0001
0000
0000
0000
,
0010
0000
0000
0000
,
0001
0000
0000
0000
,
0010
0000
0000
0000
,
0001
0000
0000
0000
,
1000
0000
0000
0000
,
0100
0000
0000
0000
,
1000
0000
0000
0000
,
0100
0000
0000
0000
,
0010
0000
0000
0000
,
0001
0000
0000
0000
,
1000
0000
0000
0000
,
0100
0000
0000
0000
,
0010
0000
0000
0000
,
0001
0000
0000
0000
,
1000
0000
0000
0000
,
0000
0000
0000
0000
,
0001
0000
0010
0000
,
0100
0000
1000
0000
,
0001
0000
0010
0000
,
0100
0000
1000
0000
,
0000
0001
0000
0000
0000
0000
0000
0000
,
0000
1000
0000
0000
0000
0000
0000
0000
,
0000
0002
0000
0000
0000
0000
0000
0000
,
0000
0000
0000
0000
,
0000
0000
0000
0000
,
0003
0000
0000
0000
;

//---------------dance-single - Copied from----------------
#NOTES:
     dance-single:
     Copied from:
     Hard:
     10:
     0.665,0.839,0.388,0.523,0.075,473.000,49.000,66.000,0.000,0.000:
0000
0000
0000
0000
0000
0000
0000
0100
,
0100
1100
0110
0011
,
1010
1001
0101
0110
,
1001
0110
1001
0110
,
1100
0000
0000
0000
0001
0000
1000
0001
1000
0000
0000
0000
1000
0000
0000
0000
,
2100
0000
0001
3000
0012
0000
1000
0003
,
2100
0000
0010
3000
0012
0000
1000
0000
,
0100
0010
1000
0100
,
0010
0000
1000
0000
0100
0000
0010
0003
,
0120
0000
0100
0030
2100
0000
0010
3000
,
0012
0000
0010
0003
0210
0000
0001
0000
,
0010
1000
0001
0010
,
1000
0001
0310
0000
,
1000
0001
1000
0001
1000
0001
1000
0100
,
0010
0001
1000
0100
0010
0001
0100
0010
,
0100
0010
0100
0001
0010
0100
1000
0001
,
0010
0100
1000
0010
0100
0010
0100
0001
,
0010
0100
1000
0100
0010
0100
1000
0100
,
1000
0100
1000
0100
1000
0100
0010
0001
,
0010
0001
0010
0001
1000
0100
0001
0100
,
1000
0010
0001
0010
1000
0100
0001
0100
,
1000
0010
0001
0010
1000
0100
0010
0001
,
0100
1000
0100
0001
0010
1000
0010
0001
,
0100
1000
0100
0001
0010
1000
0010
0001
,
0010
0100
1000
0010
0100
0001
1000
0010
,
0100
0001
0010
0100
1000
0001
0010
0100
,
1000
0001
0100
0010
1000
0001
0100
0010
,
1000
0001
0100
0010
1000
0100
0010
0001
,
2002
0000
3003
0000
,
0220
0330
0022
0033
,
2020
3030
2200
3300
,
2002
3003
0220
0330
,
2200
3300
0220
0330
,
0022
0033
0202
0303
,
2020
3030
2200
3300
,
0022
0033
2002
3003
,
0220
0330
2002
3003
,
1000
0001
1000
0001
1000
0001
1000
0100
1000
0100
1000
0100
1000
0010
1000
0010
,
1000
0010
1000
0001
1000
0001
1000
0001
0010
0001
0010
0001
0010
0001
0100
0001
,
0100
0001
0100
0001
1000
0000
0100
0000
0010
0000
0001
0000
1000
0000
0100
0000
,
0010
0001
1000
0001
1000
0001
1000
0010
,
0001
1000
0100
0001
1000
0010
1000
0100
,
0010
0001
1000
0100
0010
0001
0100
0010
,
1000
0100
0010
0001
0100
0010
1000
0100
,
0010
0001
0100
0010
0100
0001
0010
0100
,
1000
0010
0100
0001
0010
0100
1000
0010
,
0100
0001
0010
0100
1000
0010
0100
0010
,
0001
0100
0010
1000
0010
0100
0001
0100
,
0010
1000
0010
0100
0010
1000
0010
0100
,
0001
0100
0010
1000
0010
0100
0001
0100
,
0010
1000
0001
0010
0100
1000
0001
0010
,
0100
1000
0100
1000
0100
1000
0100
0010
,
0100
0010
0100
0010
0100
0001
0100
0001
,
0100
0001
0100
0001
0100
1000
0010
1000
,
0010
1000
0010
1000
0010
0001
0010
1000
,
0100
0001
0100
1000
0100
0010
0001
1000
,
0100
0010
0001
0100
0001
0010
0001
0100
,
0001
0010
0001
0100
0001
0010
0001
0100
,
0001
0010
0100
1000
0010
1000
0100
1000
,
0010
1000
0100
1000
0010
1000
0100
1000
,
0010
1000
0100
0010
0001
1000
0100
0010
,
0001
0100
0010
0100
0001
0010
0100
1000
,
0001
0010
0100
1000
0001
0010
0100
1000
,
0001
0010
0001
1000
0100
1000
0001
0100
,
0001
1000
0010
1000
0001
0010
0001
0100
,
0001
1000
0010
1000
0100
1000
0100
0010
,
0001
1000
0100
0010
0001
1000
0100
0010
,
0001
0100
0010
0100
0001
0010
0100
1000
,
0001
0010
0100
1000
0001
0010
0100
1000
,
2002
0000
0000
0000
,
0000
3003
0000
0000
,
0220
0330
0022
0033
,
2200
3300
0022
0033
,
2020
3030
0220
0330
,
2020
3030
2002
3003
,
2020
0000
0000
3030
,
0202
0000
0000
0000
,
0303
0220
0000
0000
,
0000
0000
0330
0000
;

//---------------dance-single - Copied from----------------
#NOTES:
     dance-single:
     Copied from:
     Easy:
     4:
     0.236,0.285,0.016,0.222,0.000,179.000,2.000,28.000,0.000,0.000:
0000
0000
0000
0000
,
1000
1000
1000
1000
,
1000
1000
1000
1000
,
0001
0001
0001
0001
,
0001
1001
0000
0000
,
1000
0000
0001
0000
,
1000
0000
1000
0001
,
0001
0001
0001
0001
,
0001
1000
1000
1000
,
1000
0000
0001
0000
,
0100
0000
0001
0001
,
1000
1000
1000
1000
,
0001
0001
0001
1000
,
1000
0000
0001
0000
,
1000
0000
0010
0000
,
1000
0000
0001
0000
,
1000
0000
0001
0000
,
1000
0000
0100
0000
,
0010
0000
0001
0000
,
1000
0000
0001
0000
,
0010
0000
0001
0000
,
1000
0000
0100
0000
,
0010
0000
0001
0000
,
1000
0000
0001
0000
,
0100
0000
0001
0000
,
1000
0000
0001
0000
,
0100
0000
0001
0000
,
1000
0000
0100
0000
,
0010
0000
0000
0000
,
0200
0300
0002
0003
,
0200
0300
0002
0003
,
0200
0300
0002
0003
,
0020
0030
0002
0003
,
0020
0030
0002
0003
,
2000
3000
0002
0003
,
2000
3000
0002
0003
,
2000
3000
0002
0003
,
1000
0100
0010
0001
,
1000
0100
0010
0001
,
1000
0001
0010
0100
,
1000
0100
0010
0001
,
1000
0001
1000
0100
,
0010
0001
1000
0100
,
0010
0001
1000
0001
,
1000
0100
0010
0001
,
1000
0000
0100
0000
,
0010
0000
0001
0000
,
1000
0000
0001
0000
,
0100
0000
0001
0000
,
1000
0000
0001
0000
,
0100
0000
0001
0000
,
1000
0000
0001
0000
,
0100
0000
0001
0000
,
1000
0000
0100
0000
,
0010
0000
0001
0000
,
0010
0000
0001
0000
,
0010
0000
0100
0000
,
1000
0000
0001
0000
,
1000
0000
0001
0000
,
1000
0000
0001
0000
,
0100
0000
0001
0000
,
1000
0000
0001
0000
,
0100
0000
0001
0000
,
0010
0000
0001
0000
,
1000
0000
0100
0000
,
1000
0000
0010
0000
,
1000
0000
0010
0000
,
1000
0000
0100
0000
,
1000
0000
0001
0000
,
1000
0000
0000
0000
,
0000
0000
0000
0000
,
0002
0003
0020
0030
,
0200
0300
2000
3000
,
0002
0003
0020
0030
,
0200
0300
2000
3000
,
0000
0002
0000
0003
0000
0000
0000
0000
,
0000
2000
0000
3000
0000
0000
0000
0000
,
0000
2002
0000
0000
0000
0000
0000
0000
,
0000
0000
0000
0000
,
0000
0000
0000
0000
,
3003
0000
0000
0000
;

//---------------dance-single - Copied from Copied f----------------
#NOTES:
     dance-single:
     Copied from Copied f:
     Medium:
     7:
     0.512,0.538,0.079,0.317,0.000,403.000,10.000,40.000,0.000,0.000:
0000
0000
0000
0000
0000
0000
0000
1000
,
1000
1001
1000
1001
,
0001
1001
1000
1001
,
0001
1001
1000
1001
,
0001
0000
1001
0000
1000
0001
1000
0000
,
2000
0000
3200
0000
,
0320
0000
0032
1000
,
1000
1000
1000
1000
,
1000
1000
1000
1000
,
2003
0000
3002
0000
,
0023
0000
0230
0010
,
0010
0010
0010
0010
,
0010
0010
0010
0010
,
0300
0000
1000
0001
1000
0001
1000
0100
,
0010
0001
1000
0100
0010
0001
0100
0010
,
0100
0001
1000
0001
1000
0100
0010
0100
,
0010
0001
0010
0100
1000
0100
0010
0001
,
1000
0001
0010
0100
,
1000
0001
0100
0010
,
1000
0100
0010
0001
,
0010
0100
1000
0001
,
1000
0001
0100
0001
,
0010
0100
1000
0001
,
1000
0001
0010
0100
,
1000
0100
0010
0001
,
1000
0001
1000
0010
,
0100
0010
0100
0010
,
1000
0100
0010
0001
,
2002
0000
0000
3003
,
0200
0300
0002
0003
,
0200
0300
0002
0003
,
0200
0300
0002
0003
,
0020
0030
0002
0003
,
0020
0030
0002
0003
,
2000
3000
0002
0003
,
2000
3000
0002
0003
,
2000
3000
0002
0003
,
1000
0100
0010
0001
0010
0100
1000
0100
,
0010
0001
0100
0001
0100
0001
0100
0001
,
1000
0100
1000
0100
1000
0100
1000
0100
,
1000
0100
0010
0001
0010
0100
1000
0100
,
0010
0001
1000
0001
1000
0001
0100
0001
,
0100
0001
1000
0100
1000
0100
0010
0001
,
0010
0100
1000
0001
1000
0001
1000
0001
,
1000
0010
0100
0010
0100
0001
0010
0100
,
1000
0100
0010
0001
0010
0100
0010
0001
,
0010
0001
0010
0001
0010
0100
1000
0001
,
1000
0001
0010
0100
1000
0001
1000
0100
,
0010
0001
1000
0100
0010
0001
0010
0100
,
1000
0100
0010
0001
0010
0100
1000
0001
,
0100
0001
0100
0001
0100
0001
0010
0100
,
1000
0100
0010
0001
1000
0001
1000
0001
,
0100
0001
0100
0001
0100
0001
0010
0100
,
1000
0100
1000
0100
1000
0100
0010
0001
,
0010
0001
0010
0001
0100
0001
0100
0001
,
0100
0001
0010
0100
1000
0010
1000
0010
,
1000
0100
0010
0001
0010
0100
1000
0001
,
1000
0100
0010
0001
0010
0100
1000
0001
,
1000
0100
0010
0001
0001
0010
0100
1000
,
1000
0100
0010
0001
0001
0010
0100
1000
,
0100
1000
0100
1000
0001
1000
0001
1000
,
0001
0010
0100
1000
0001
1000
0001
0010
,
0100
1000
0100
0010
0001
0010
0100
1000
,
0010
1000
0010
1000
0001
1000
0001
1000
,
0001
0010
0100
1000
0100
1000
0100
1000
,
0100
1000
0100
1000
0010
1000
0010
1000
,
0010
1000
0100
0010
0001
0010
0100
1000
,
0100
0010
0001
0010
0100
0010
0001
1000
,
0100
0010
0100
1000
0001
1000
0001
1000
,
2002
0000
0000
0000
,
0000
0000
3003
0000
,
0002
0003
0020
0030
,
0200
0300
2000
3000
,
0002
0003
0020
0030
,
0200
0300
2000
3000
,
0000
0002
0000
0003
0000
0000
0000
0000
,
0000
2000
0000
3000
0000
0000
0000
0000
,
0000
2002
0000
0000
0000
0000
0000
0000
,
0000
0000
0000
0000
,
0000
0000
0000
0000
,
3003
0000
0000
0000
;
