#TITLE:Tomorrow Perfume;
#SUBTITLE:;
#ARTIST:dj TAKA;
#TITLETRANSLIT:;
#SUBTITLETRANSLIT:;
#ARTISTTRANSLIT:;
#CREDIT:;
#BANNER:TP-bn.png;
#BACKGROUND:TP-bg.png;
#LYRICSPATH:;
#CDTITLE:!ExigeTitle.png;
#MUSIC:13.Tomorrow Perfume.mp3;
#OFFSET:-2.080;
#SAMPLESTART:43.787;
#SAMPLELENGTH:26.900;
#SELECTABLE:YES;
#BPMS:0.000=144.000;
#STOPS:;
#BGCHANGES:;
// cache tags:
#FIRSTBEAT:4.000;
#LASTBEAT:280.000;
#SONGFILENAME:Songs/Keyboard Collaboration II/Exige - Tomorrow Perfume/Tomorrow Perfume.sm;
#HASMUSIC:1;
#HASBANNER:1;
#MUSICLENGTH:127.196;
// end cache tags

//---------------dance-single - ----------------
#NOTES:
     dance-single:
     :
     Hard:
     12:
     1.000,1.000,1.000,0.016,1.000,780.000,231.000,2.000,0.000,0.000:  // measure 1
0000
0000
0000
0000
,  // measure 2
1001
0100
0010
0000
0010
0000
0010
1100
0000
0000
0000
0000
0000
0000
0000
0101
,  // measure 3
1000
0100
0010
0000
0010
0000
0010
0101
0000
0000
0000
0000
0000
0000
0000
0011
,  // measure 4
1000
0100
0010
0000
1000
0000
0100
0011
0000
0000
0000
0000
0000
0000
0000
1001
,  // measure 5
0100
0010
1001
0000
0101
1000
0100
0011
0000
0011
0100
1000
0100
0010
1100
0000
,  // measure 6
1001
0100
0010
0000
0010
0000
0010
1100
0000
0000
0000
0000
0000
0000
0000
1100
,  // measure 7
0001
0010
0100
0000
0010
0000
0100
1010
0000
0000
0000
0000
0000
0000
0000
1001
,  // measure 8
0100
0010
0001
0000
0001
0000
0001
0010
0100
1000
0100
0010
1000
0100
0010
0001
,  // measure 9
1000
0000
0000
0010
0000
0000
0001
0000
0000
1000
0000
0000
0100
0000
0000
0010
0000
0000
0001
0000
0000
0010
0000
0000
0100
0000
0000
1000
0000
0000
0100
0000
0000
0010
0000
0000
0001
0000
0000
0000
0000
0000
0001
0000
0010
0000
0100
0000
,  // measure 10
1001
0100
0011
0000
0110
0000
1010
0100
0000
0100
1000
0001
0010
0000
0001
0110
,  // measure 11
1000
0100
0011
0000
1001
0000
1010
0001
0000
0001
0010
1000
0100
0000
0100
1010
,  // measure 12
0001
0010
1100
0000
0101
0000
1001
0100
0000
0001
0010
1000
0100
0000
0100
0011
,  // measure 13
0100
0010
1100
0000
0011
1000
0100
1010
0000
0110
0001
0100
1000
0100
0011
0000
,  // measure 14
1001
0010
1100
0000
0110
0000
1001
0100
0000
0100
0010
1000
0010
0000
0001
1010
,  // measure 15
0100
0010
1100
0000
0011
0000
0110
1000
0000
1000
0100
0001
0010
0000
0100
1001
,  // measure 16
0010
0100
1010
0000
0101
0000
0110
0001
1000
0100
0001
0100
0001
1000
0010
0001
,  // measure 17
1000
0000
0100
0000
0001
0000
1000
0000
0010
0000
0001
0000
1000
0000
0100
0000
0001
0000
0010
0000
1000
0000
0001
0000
0100
0000
0000
0010
0000
0000
1000
0000
0000
0100
0000
0000
0001
0000
0000
0000
0000
0000
0001
0000
0010
0000
0100
0000
,  // measure 18
1001
0010
0101
0000
1010
0000
1100
0010
0000
0001
1000
0100
0000
1000
0001
0110
,  // measure 19
1000
0100
0011
0000
1010
0000
0101
1000
0000
1000
0010
0001
0000
0010
1000
0110
,  // measure 20
0001
0010
1100
0000
0110
0000
1100
0010
0000
0010
0001
1000
0000
0100
0010
1001
,  // measure 21
0010
0001
1100
0000
0101
1000
0001
0110
0000
0101
1000
0100
0001
0010
0101
0000
,  // measure 22
1100
0010
1001
0000
1010
0000
0011
1000
0000
0100
1000
0010
0000
1000
0100
1001
,  // measure 23
0010
0100
1001
0000
1100
0000
0011
0100
0000
0010
1000
0001
0000
1000
0010
1001
,  // measure 24
0100
0010
0101
0000
0011
0000
0011
0100
0000
1000
0001
0010
0000
0010
0001
1010
,  // measure 25
0100
0000
0000
0010
0000
0000
0100
0000
0000
1000
0000
0000
0100
0000
0000
0010
0000
0000
0001
0000
0000
0010
0000
0000
0100
0000
0000
0010
0000
0000
0001
0000
0000
0010
0000
0000
1000
0000
0100
0000
0010
0000
0100
0000
0010
0000
0100
0000
,  // measure 26
1001
0010
0100
0000
0010
0000
0100
0010
0000
0000
0000
0000
0000
0000
0000
1000
,  // measure 27
0010
0001
1000
0000
1000
0000
0001
0010
0000
0000
0000
0000
0000
0000
0000
0010
,  // measure 28
0100
0010
0001
0000
1000
0000
0010
0001
0000
0000
0000
0000
0000
0000
0000
0100
,  // measure 29
0010
0100
0010
0000
0001
0010
1000
0100
0000
0010
0100
0010
1000
0100
0010
0000
,  // measure 30
1001
0010
0100
0000
0100
0000
0010
0100
0000
0000
0000
0000
0000
0000
0000
1000
,  // measure 31
0001
1000
0100
0000
0100
0000
0010
0001
0000
0000
0000
0000
0000
0000
0000
0001
,  // measure 32
1000
0001
0010
0000
0100
0000
0010
0100
0000
0000
0000
0000
0000
0000
0000
1000
,  // measure 33
0100
0001
1000
0000
0010
0001
1000
0100
0000
0010
0001
1000
0010
0001
0100
0000
,  // measure 34
1000
0100
1000
0000
1000
0000
1000
0100
0000
0000
0000
0000
0000
0000
0000
0100
,  // measure 35
0010
0100
1000
0000
0100
0000
0100
1000
0000
0000
0000
0000
0000
0000
0000
0001
,  // measure 36
0010
0100
0010
0000
0010
0000
0010
1000
0000
0000
0000
0000
0000
0000
0000
0010
,  // measure 37
0001
0100
0010
0000
1000
0001
1000
0010
0000
0010
0001
0100
1000
0010
0100
0000
,  // measure 38
1100
0001
0010
1000
0010
0001
0010
0100
1000
0010
0001
0010
0100
0010
1000
0100
,  // measure 39
0011
1000
0010
0100
0001
0010
0100
0010
1000
0010
0001
0010
0100
1000
0010
0100
,  // measure 40
1000
0100
0010
0001
0010
0100
0010
1000
0100
0010
1000
0001
0100
0010
0001
1000
0010
0100
0001
0010
1000
0010
0100
0010
,  // measure 41
1000
0001
1000
0010
0001
0100
1000
0100
0001
0100
0010
1000
0001
0100
1000
0010
1000
0100
0001
0100
0001
0010
0100
1000
,  // measure 42
0101
0010
1001
0000
1100
0000
1010
0100
1001
0000
0011
0000
0110
0000
1010
0001
,  // measure 43
1100
0001
0000
0001
1010
0000
0011
0100
1010
0000
0100
0000
1010
0001
0100
1000
,  // measure 44
0101
0010
1100
0001
1010
0000
0110
0000
1001
0100
0011
0000
1010
0001
0000
0001
,  // measure 45
1010
0100
0010
0001
0110
1000
0110
0000
1100
0001
0110
1000
0101
0000
0010
0000
,  // measure 46
1001
0100
1000
0100
0011
0100
1000
0010
1000
0100
0011
0000
1010
0000
0011
1000
,  // measure 47
0100
1000
0000
1001
0100
0000
0011
0000
0100
0000
0010
0000
1100
0010
1001
0100
,  // measure 48
0010
0001
0100
0010
1000
0100
0011
0000
1001
0000
0011
0000
0101
0000
1010
0000
,  // measure 49
0110
0001
0100
0010
1100
0000
0011
0000
0110
0000
0101
0000
1010
0000
1100
0000
,  // measure 50
1100
0010
0001
0010
1100
0000
1100
0000
0011
0000
1001
0000
0011
0100
0000
0101
,  // measure 51
0010
1000
0000
1000
0010
0100
0010
0001
1010
0000
0011
0000
1100
0010
0001
0100
,  // measure 52
0010
0001
1000
0001
0110
0000
1000
0000
0011
0000
0110
0000
1010
0100
0000
0100
,  // measure 53
0011
1000
0100
0010
0001
0010
1100
0000
1100
0000
0110
1000
0010
0001
0110
0000
,  // measure 54
0011
1000
0010
0100
1010
0000
0110
0000
1001
0100
1010
0000
0011
0000
0110
0000
,  // measure 55
0101
1000
0000
1000
0011
0000
1001
0010
0000
0000
0011
0000
1001
0100
0010
0001
,  // measure 56
0100
0001
1000
0100
1010
0000
0011
0100
0000
0000
0110
0000
1100
0000
0011
0000
,  // measure 57
1010
0001
0010
0100
0010
0001
1000
0010
0001
0010
0001
0100
0010
0100
0010
0100
,  // measure 58
1001
0010
1100
0000
0011
0000
1001
0010
0000
0000
0000
0000
0000
0000
1001
0000
,  // measure 59
0101
1000
0011
0000
1100
0000
0110
1000
0000
0000
0000
0000
0000
0000
1100
0000
,  // measure 60
0110
1000
0110
0000
0101
0000
1001
0100
0000
0000
0000
0000
0000
0000
0110
0000
,  // measure 61
1001
0100
0010
1000
0001
0100
0010
1000
0001
0100
0010
1000
0001
0100
0010
0100
1001
0000
0000
0000
0000
0000
0000
0000
0000
0000
0000
0000
0000
0000
0000
0000
,  // measure 62
1001
0010
0100
0000
0011
1000
0000
0011
0000
0101
1000
0011
0000
0000
0110
0000
,  // measure 63
1010
0001
0100
0000
0101
0010
0000
1100
0000
1100
0010
1001
0000
0000
0101
0000
,  // measure 64
0011
0100
1000
0000
1001
0100
0000
1010
0000
0101
0010
1100
0000
0000
0011
0000
,  // measure 65
1001
0100
0001
0000
1010
0001
0000
1001
0000
0011
0100
1010
0000
0000
0110
0000
,  // measure 66
0101
0010
0100
0000
0101
0010
0000
1010
0000
1100
0010
1001
0000
0000
0011
0000
,  // measure 67
1001
0010
0100
0000
1001
0100
0000
0101
0000
1010
0100
1001
0000
0000
0101
0000
,  // measure 68
1010
0100
1000
0000
1100
0010
0000
0110
0000
1001
0010
0101
0000
0000
1100
0000
,  // measure 69
1001
0000
0000
0100
0000
0000
0010
0000
0000
0000
0000
0000
0010
0000
0000
0000
0000
0000
0010
0000
0000
0000
0000
0000
1001
0000
0000
0000
0000
0000
1010
0000
0000
0000
0000
0000
1100
0000
0000
0000
0000
0000
1001
0000
0100
0000
0010
0000
,  // measure 70
2002
0000
0000
0000
,  // measure 71
3003
0000
0000
0000
;
