#TITLE:AAA;
#SUBTITLE:-The Ultra Rennainsance Revival-;
#ARTIST:Magna Trickie;
#TITLETRANSLIT:;
#SUBTITLETRANSLIT:;
#ARTISTTRANSLIT:;
#CREDIT:;
#BANNER:AAA-banner.png;
#BACKGROUND:aaa-bg.png;
#LYRICSPATH:;
#CDTITLE:Magnakcd.png;
#MUSIC:AAA.ogg;
#OFFSET:-6.050;
#SAMPLESTART:29.963;
#SAMPLELENGTH:12.000;
#SELECTABLE:YES;
#BPMS:0.000=160.000,160.000=80.000,176.000=160.000;
#STOPS:;
#BGCHANGES:;
// cache tags:
#FIRSTBEAT:0.000;
#LASTBEAT:340.500;
#SONGFILENAME:Songs/mongol/AAA magna/aaa.sm;
#HASMUSIC:1;
#HASBANNER:1;
#MUSICLENGTH:141.049;
// end cache tags

//---------------dance-single - ----------------
#NOTES:
     dance-single:
     :
     Challenge:
     13:
     1.000,1.000,0.950,0.050,1.000,1171.000,134.000,7.000,0.000,0.000:
0010
0001
1000
0100
1000
0100
1000
0100
1000
0100
1000
0100
1000
0100
1000
0010
,
1000
0100
0010
0001
0100
0001
0100
0001
0100
0001
0100
0001
0100
0001
0100
0001
,
0100
0010
1000
0100
1000
0100
1000
0100
1000
0100
1000
0100
1000
0100
1000
0100
,
1000
0010
0001
0100
0001
0010
0001
1000
0100
1000
0010
1000
0100
0010
0001
0100
,
0001
1000
0100
1000
0100
1000
0100
1000
0100
1000
0100
1000
0100
1000
0100
1000
,
0010
1000
0100
0010
0001
0100
0001
0100
0001
0100
0001
0100
0001
0100
0001
0100
,
0010
1000
0100
1000
0100
1000
0100
1000
0100
1000
0100
1000
0100
1000
0100
1000
,
0100
0010
0001
0100
0010
1000
0100
0010
0001
0100
0010
1000
0100
0010
0001
0010
,
1100
0000
0010
0001
1000
0100
1000
0100
1000
0010
1000
0100
1000
0010
0100
0010
,
0100
0010
0100
0010
0100
0010
0100
0010
0100
0010
1000
0100
0010
0001
0001
0100
,
0001
0100
0001
0100
0001
0100
0001
0100
0001
0100
0001
0100
0010
0100
0001
1000
,
0010
1000
0010
1000
0010
1000
0100
1000
0100
0010
0001
0010
0001
0100
0010
0100
,
0010
1000
0100
0010
0100
0001
0100
0001
0100
1000
0010
1000
0010
0100
0001
1000
,
1000
0100
1000
0100
1000
0100
1000
0100
1000
0100
0010
0100
1000
0100
0010
0100
,
0010
0001
0010
0001
0010
0001
0010
0001
0010
0001
0010
0100
0010
0001
0010
0100
,
1000
0100
1000
0010
1000
0001
0100
0010
0100
0001
1000
0010
1000
0100
0010
0001
,
1010
0001
1100
1001
,
0010
0000
0000
0000
1001
0000
0000
0000
0100
0000
0000
0000
0011
0000
0000
0100
,
1000
0000
0000
0000
1001
0000
0000
0000
0110
0000
0000
0010
0100
0000
0000
0100
,
0001
0000
0000
0001
0000
0000
0000
1000
0100
0000
0000
0100
0010
0000
0000
0010
,
0001
1001
0100
1001
,
0010
0000
0000
0000
0110
0000
0000
0000
0010
0000
0000
0000
1100
0000
0000
0001
,
1001
0000
0000
0000
0100
0000
0000
0000
0011
0000
0000
0100
1000
0000
0000
1000
,
0110
0000
0220
0330
,
0010
1000
0100
0010
1001
0010
0100
1000
0100
1000
0100
1000
0011
1000
0100
0010
,
0001
0100
0001
0010
1001
0100
0001
0100
0001
0100
0010
0100
0011
1000
0010
1000
,
0100
0010
0001
0100
0011
1000
0001
0010
0100
0010
0001
0010
0101
1000
0100
1000
,
0010
1000
0001
0010
1001
0100
0010
0001
0100
0001
0010
0001
1100
0001
0100
0010
,
0100
1000
0010
1000
0101
0010
0001
0100
0010
0100
0001
1000
0110
1000
0100
0010
,
0001
0100
0010
1000
0101
0010
0001
0100
0010
1000
0100
0010
0101
1000
0100
1000
,
0100
1000
0100
0010
0101
1000
0100
1000
0001
0100
0010
0100
1001
0100
0010
1000
,
0001
0010
0100
1000
0101
0010
0100
1000
0001
0010
0100
1000
0101
0010
0100
1000
,
0010
1000
0100
0010
1001
0100
0010
1000
0001
1000
0100
1000
0110
1000
0100
1000
,
0100
1000
0100
0010
0101
1000
0100
0010
0001
1000
0100
0010
0101
1000
0010
0100
,
0001
1000
0010
0100
0011
1000
0010
0100
0001
1000
0010
1000
0101
0010
0001
0100
,
0010
1000
0100
0010
1001
0100
0001
0010
0001
0100
0001
0010
0101
1000
0001
1000
,
0001
1000
0100
1000
0011
1000
0100
0010
0001
0100
0010
0100
1001
0100
0010
0100
,
0010
0100
0010
0100
0011
1000
0010
1000
0010
1000
0010
1000
0110
1000
0100
1000
,
0100
0010
0100
0010
1100
0010
0100
0010
0001
0010
0001
0010
1001
0100
0001
0100
,
0001
0000
0100
0000
0010
0000
1000
0000
0101
0000
1000
0000
0100
0000
0010
0000
0001
0000
0010
0000
0100
1000
0001
0010
0100
1000
0001
0010
0100
1000
0001
0010
,
2200
3300
0000
0010
0000
0100
0000
0001
0000
1000
0000
0100
0000
0010
0100
0001
,
0000
1000
0000
0010
0000
0100
0000
0001
0000
1000
0000
0100
0000
0010
0001
0010
,
0000
0100
0000
1001
0000
0010
0000
0100
0000
1000
0000
0100
0000
0001
1000
0010
,
0000
0000
1000
0000
0000
0000
0100
0000
0010
0000
0010
0000
0001
0000
0001
0000
0010
0000
0100
0000
1000
0000
0010
0000
0100
0000
0001
1000
0100
0010
0001
0100
,
1001
0001
1000
0100
,
1000
0000
0000
0001
0000
0000
0100
0000
0000
0000
0010
0000
0000
0000
1000
0001
,
0100
0000
0100
0110
0000
1000
0000
0100
,
0000
0000
0010
0000
0000
0000
0010
0000
0100
0000
1000
0000
0010
0000
0100
0010
,
0100
0000
0000
0000
1000
0100
0001
1000
,
0101
0010
0000
1000
0000
0000
0000
0100
,
1001
0000
0100
0001
0010
0100
1000
0010
1000
0100
0010
0001
0100
0010
1000
0100
,
0010
0001
1000
0100
0010
0001
0100
0010
0100
0010
1000
0100
0010
0001
0010
0100
,
2000
0000
0000
0000
3100
0000
0001
0010
0100
1000
0001
1000
0100
1000
0100
1000
,
0100
0010
0100
0010
0001
0010
0100
1000
0010
0100
0001
0100
1000
0100
0010
0100
,
0001
0100
0001
0100
0001
0100
0001
0100
0010
1000
0100
0010
0001
1000
0100
0010
,
0100
1000
0100
1000
0100
0010
0100
1000
0100
0010
0001
1000
0100
0010
0001
1000
,
0100
0010
0100
1000
0100
1000
0100
1000
0100
1000
0010
0100
0001
1000
0010
0100
,
0001
1000
0010
1000
0010
1000
0010
1000
0010
0100
0001
1000
0100
0010
0001
1000
,
0100
0010
0001
0010
0001
0010
0001
0010
0001
0010
0100
1000
0001
0010
0100
1000
,
0001
0010
0100
1000
0010
0100
0001
1000
0100
0010
0001
0100
0010
1000
0001
1000
,
0100
1000
0100
1000
0110
1000
0100
1000
0100
0010
0001
1000
0101
0010
0001
1000
,
0100
0010
0001
0100
1010
0100
0001
0100
1000
0100
0001
0100
1010
0100
0001
0010
,
1000
0010
0001
1000
0011
1000
0100
0010
0001
0100
0010
1000
0101
0010
0001
0100
,
1000
0100
0010
0100
1001
0100
0010
0100
0001
0100
0010
1000
0101
1000
0010
1000
,
0100
0010
0001
1000
0101
0010
0001
1000
0100
0010
0001
0100
1010
0100
0001
0100
,
1000
0100
0001
0010
1100
0010
0001
0010
0100
0010
0100
1000
0011
0100
0010
0100
,
0001
1000
0010
1000
0101
0010
0001
0010
0100
1000
0100
0001
0110
1000
0010
0100
,
0001
0100
0010
0100
0011
1000
0010
1000
0100
0010
0001
0100
0011
1000
0001
1000
,
0100
0010
0101
1000
0001
1000
0110
1000
0100
0010
1100
0010
0100
0010
0101
1000
,
0100
0010
0101
1000
0100
0010
0101
1000
0010
1000
0011
0100
0010
0100
1001
0100
,
0010
1000
0101
1000
0010
1000
0101
0010
0001
0100
0011
1000
0100
0010
1001
0100
,
0010
1000
0101
1000
0010
1000
0101
1000
0010
1000
0101
1000
0010
1000
0101
0010
,
0001
0100
1001
0010
0001
1000
0110
1000
0100
0010
0101
1000
0100
1000
0110
1000
,
0100
0010
0101
1000
0001
0010
0101
1000
0001
0010
0101
1000
0010
0100
1001
0100
,
0010
0100
1001
0100
0010
0100
0011
1000
0010
1000
0101
0010
0001
0100
0011
1000
,
0100
0010
1001
0100
1000
0100
0011
0100
1000
0100
0011
0100
1000
0100
1001
0010
,
1000
0010
0101
1000
0010
1000
0101
0010
0001
0100
0011
1000
0100
0010
1001
0100
,
0010
1000
0101
0010
0001
0100
0011
1000
0100
1000
0110
1000
0001
0010
1100
0010
,
0100
0010
1100
0010
0100
0010
0101
1000
0100
0010
1001
0100
1000
0100
1001
0100
,
0010
1000
0101
1000
0010
1000
0101
0010
0001
0100
0011
1000
0100
0010
1001
0100
,
1000
0100
1001
0100
0010
0100
1001
0100
0010
1000
0101
1000
0100
1000
0110
1000
,
0100
1000
0110
1000
0100
1000
0110
1000
0100
1000
0110
1000
0100
1000
0110
1000
,
0100
1000
0110
1000
0100
1000
0110
1000
0100
1000
0110
1000
0100
1000
0110
1000
,
0100
1000
0110
1000
0100
1000
0110
1000
0100
1000
0110
1000
0100
1000
0110
1000
,
0220
0000
0000
0000
,
0000
0330
0000
0000
0000
0000
0000
0000
;
