#TITLE:Defection;
#SUBTITLE:;
#ARTIST:ParagonX9;
#TITLETRANSLIT:;
#SUBTITLETRANSLIT:;
#ARTISTTRANSLIT:;
#CREDIT:;
#BANNER:defection-banner.png;
#BACKGROUND:defection-bg.png;
#LYRICSPATH:;
#CDTITLE:js4.png;
#MUSIC:Defection.mp3;
#OFFSET:-0.540;
#SAMPLESTART:11.213;
#SAMPLELENGTH:12.000;
#SELECTABLE:YES;
#BPMS:0.000=180.000,130.000=360.000,132.000=720.000,135.000=1440.000,136.000=2880.000,140.000=1440.000,141.000=720.000,144.000=360.000,146.000=180.000,148.000=150.000,149.000=125.000,150.000=100.000,150.500=75.000,151.250=55.000,152.000=90.000,168.000=180.000;
#STOPS:151.875=0.060
;
#BGCHANGES:;
// cache tags:
#FIRSTBEAT:0.000;
#LASTBEAT:276.500;
#SONGFILENAME:Songs/Fresh Flock of Fantastic Files F4/(JenovaSephiroth) Defection/defection.sm;
#HASMUSIC:1;
#HASBANNER:1;
#MUSICLENGTH:97.549;
// end cache tags

//---------------dance-single - ----------------
#NOTES:
     dance-single:
     :
     Challenge:
     12:
     1.000,1.000,1.000,0.041,0.779,589.000,176.000,4.000,2.000,0.000:
1000
0000
0000
1000
0000
0000
1000
0000
,
0000
0001
0010
0100
,
1000
0000
0000
1000
0000
0000
0010
0000
,
0100
0000
0000
0100
0000
0000
0001
0000
,
1000
0000
0000
1000
0000
0000
1000
0000
,
0000
0001
0010
0100
,
1001
0100
0010
1100
0010
0100
1001
0000
,
0001
0010
0100
0010
0001
0000
1000
0010
0100
0010
1000
0000
0001
1000
0010
1000
,
0001
0000
1000
0000
0110
0000
1000
0010
0100
0001
1000
0000
0101
0000
1000
0001
,
1000
0000
0010
0000
1100
0000
0010
0001
0100
0010
1000
0000
0011
0000
1000
0001
,
1000
0000
0010
0000
0101
0000
0010
1000
0001
1000
0100
0000
0011
0000
0100
1000
,
0001
0000
0010
0000
1100
0000
0010
0001
1000
0001
0100
0000
0011
1000
0001
0100
,
0001
0000
0001
0000
1010
0000
0100
0010
1000
0001
0100
0000
0011
0000
1000
0001
,
1000
0000
1000
0000
0011
0000
0100
0010
0001
1000
0100
0000
1010
0000
0001
1000
,
0001
0000
0010
0000
0110
0000
0010
0001
1000
0001
0010
0000
1100
0000
1000
0001
,
1000
0000
0010
0000
0110
0000
0010
1000
0001
1000
0010
0000
0101
0000
0001
1000
,
1100
0000
0010
0000
0011
0000
1000
0001
0010
0100
0010
0000
0011
0000
0001
1000
,
0001
0000
0010
0000
1010
0000
0001
1000
0010
0100
0010
0000
1010
0000
1000
0001
,
1000
0000
0001
0000
0101
0000
0001
0010
0100
0010
0001
0000
1100
0000
0001
0010
,
0001
0000
1000
0000
1100
0000
1000
0010
0100
0010
1000
0000
0101
1000
0001
1000
,
0100
0000
0010
0000
1001
0000
0010
0100
1000
0100
0010
0000
0011
0000
0100
0001
,
0100
0000
0010
0000
1001
0000
0010
0100
0001
0100
0010
0000
1010
0000
0100
1000
,
0001
0000
1000
0000
0011
0000
1000
0010
0100
0001
1000
0000
0101
0000
1000
0001
,
1000
0000
0001
0000
1010
0000
0001
0010
0100
1000
0001
0000
1100
0000
0001
1000
,
0001
0000
1000
0000
1010
0000
0010
0100
0001
0010
0100
0000
1001
0000
0100
0010
,
1000
0000
0001
0000
0011
0000
0010
0100
1000
0010
0100
0000
1001
0000
0100
0010
,
1100
0000
0001
0000
0011
0000
1000
0010
0100
0010
1000
0000
1100
0000
0100
0010
,
0101
0000
1000
0000
1010
0000
0001
0010
0100
0010
0001
0000
0101
0010
0100
0010
,
0100
0000
0001
0000
1100
0000
0001
1000
0001
0010
0001
0000
1100
0000
0001
1000
,
0001
0000
1000
0000
0101
0000
1000
0001
1000
0010
1000
0000
0101
0000
1000
0001
,
1000
0000
0110
0000
0101
0000
0001
0010
0001
0100
0001
0000
0101
0000
0001
0010
,
0001
0000
0110
0000
1100
0000
1000
0010
1000
0100
1000
0000
1100
0000
1000
0010
,
2002
0000
0000
0000
,
0000
0000
0000
0000
,
0000
0000
0000
0000
,
0000
0000
0000
0000
,
0000
0000
0000
0000
,
0000
0000
0000
0000
0000
0000
0000
0000
0000
0000
0000
0000
0000
0000
0000
0000
0000
0000
0000
0000
0000
0000
0000
0000
0000
0000
0000
0000
0000
0000
0000
0000
0000
0000
0000
0000
0000
0000
0000
0000
0000
0000
0000
0000
0000
0000
0000
0000
0000
0000
0000
0000
0000
0000
0000
0000
0000
0000
0000
0000
0000
0000
0000
3003
,
1100
0001
0000
1010
0000
0001
0000
0010
1100
0001
0000
1010
0000
0010
0001
0010
,
1100
0010
0000
1001
0000
0001
0010
0001
1100
0010
0000
1001
0000
0001
0010
0001
,
1100
0010
0100
1010
0000
0001
0000
0010
1100
0010
0000
1001
0000
0001
0010
0100
,
1010
0000
0001
0000
0000
0000
1100
0000
0000
0000
0001
0000
0100
0000
0001
0000
1100
0000
0010
0000
0000
0000
1001
0000
0000
0000
0001
0000
0010
0000
0100
0010
,
0001
0100
0010
1100
0000
0001
1000
0001
,
1010
0100
0010
0101
0000
1000
0001
1000
,
0011
1000
0001
1100
0000
0001
1000
0001
,
1010
0001
1000
0101
0000
0010
0100
1000
,
0110
0001
1000
0110
0000
0010
0001
1000
,
0110
1000
0001
0110
0000
1000
0001
0010
,
1001
0100
0010
1001
0000
1000
0010
0100
,
1001
0010
0100
1001
0000
0001
1000
0010
,
1001
0000
0000
1100
0000
0000
0110
0000
0000
0011
0000
0000
1001
0000
0000
0000
,
1000
0000
0001
0000
0010
0000
0100
0000
1100
0001
1000
0001
1010
0001
1000
0001
,
1100
0000
1001
0000
0001
0000
0101
1000
0001
1000
0010
0000
0110
0000
1010
0000
,
0101
0000
1001
0000
1000
0000
1100
0001
1000
0001
0010
0000
0110
0000
0011
0000
,
1001
0000
1010
0000
0001
0000
1100
0010
0100
0001
1000
0000
0101
0000
0110
0000
,
1001
0000
0011
0000
1000
0000
0101
0010
0100
1000
0001
0000
1100
0000
0110
0000
,
0011
0000
1001
0000
1000
0000
1010
0001
1000
0001
0100
0000
0110
0000
0101
0000
,
1010
0000
1001
0000
0001
0000
0011
1000
0001
1000
0100
0000
0110
0000
1100
0000
,
1001
0000
0101
0000
1000
0000
0011
0100
0010
1000
0001
0000
1010
0000
0110
0000
,
1001
0000
1100
0000
0001
0000
1010
0100
0010
0001
1000
0000
0011
0000
0110
0000
,
1001
0000
0011
0000
0010
0000
0110
1000
0001
1000
0001
0000
1100
0000
0011
0000
,
1001
0000
1010
0000
0010
0000
0110
0001
1000
0001
1000
0000
0101
0000
1010
0000
,
1001
0000
0110
0000
0010
0000
0011
1000
0010
0100
0001
0000
1100
0000
1010
0000
,
1001
0000
0110
0000
0010
0000
1010
0001
0010
0100
1000
0000
0101
0000
0011
0000
,
1001
0000
1100
0000
0100
0000
0110
0001
1000
0001
1000
0000
0011
0000
1100
0000
,
1001
0000
0101
0000
0100
0000
0110
1000
0001
1000
0001
0000
1010
0000
0101
0000
,
1001
0000
0110
0000
0100
0000
1100
0001
0100
0010
1000
0000
0011
0000
0101
0000
,
1001
0000
0110
0000
0100
0000
0101
1000
0100
0010
0001
0000
1010
0000
1100
0000
,
2002
0000
0000
0000
,
3003
M00M
0000
0000
0000
0000
0000
0000
;

//---------------dance-single - ----------------
#NOTES:
     dance-single:
     :
     Hard:
     9:
     0.719,0.992,0.287,0.082,0.231,455.000,28.000,8.000,61.000,0.000:
2000
0000
0000
0100
0000
0000
3100
0000
,
MM00
1000
0100
0010
,
0002
0000
0000
0100
0000
0000
0103
0000
,
0M02
0000
0000
0010
0000
0000
0013
0000
,
200M
0000
0000
0001
0000
0000
3001
0000
,
M00M
0001
0100
0010
,
1010
0000
0000
1010
0000
0000
1010
0000
,
0001
0100
0001
0100
0001
0000
0100
0001
0100
0001
0100
0000
0001
0100
0001
0100
,
0001
0100
0010
0100
0001
1000
0010
1000
,
0001
0010
0100
0010
0001
1000
0100
0000
,
1000
0100
0010
0100
1000
0001
0010
0001
,
1000
0010
0100
0010
1000
0001
0100
0000
,
0001
0010
0100
0010
0001
1000
0010
1000
,
0001
0010
1000
0010
0001
1000
0100
0000
,
1000
0010
0100
0010
1000
0001
0010
0001
,
1000
0010
0001
0010
1000
0001
0100
0M0M
,
0101
0001
0010
0100
0010
0010
0001
1000
,
0001
0100
0010
1000
0001
0010
0100
0000
,
1000
1000
0010
0100
0010
0010
1000
0001
,
1000
0100
0010
0001
1000
0010
0100
0000
,
0001
0100
1000
0100
0001
0010
0100
0010
,
0001
0010
1000
0010
0001
1000
0100
0000
,
1000
0100
0001
0100
1000
0010
0100
0010
,
1000
0010
0001
0010
1000
0001
0100
0M0M
,
1001
1000
0100
0010
0001
0001
0100
0010
,
0001
0010
1000
0100
0010
0001
1000
0000
,
0001
0001
0100
0010
1000
1000
0100
0010
,
1000
0010
0001
0100
0010
1000
0001
0000
,
1000
0100
0010
0001
1000
0010
0100
0001
,
0010
1000
0010
0001
0100
0010
1000
0000
,
0001
0100
0010
1000
0001
0010
0100
1000
,
0010
0001
0010
1000
0100
0010
0001
0000
,
2002
0000
0000
0000
,
0000
0000
0000
0000
,
0000
0000
0000
0000
,
0000
0000
0000
0000
,
0000
0000
0000
0000
,
0000
0000
0000
0000
0000
0000
0000
0000
0000
0000
0000
0000
0000
0000
0000
0000
0000
0000
0000
0000
0000
0000
0000
0000
0000
0000
0000
0000
0000
0000
0000
0000
0000
0000
0000
0000
0000
0000
0000
0000
0000
0000
0000
0000
0000
0000
0000
0000
0000
0000
0000
0000
0000
0000
0000
0000
0000
0000
0000
0000
0000
0000
0000
3003
,
1000
0100
M000
0110
0000
0010
0000
0001
1000
0100
M000
1100
0000
1000
0001
0010
,
0001
1000
000M
0101
0000
1000
0010
0100
0001
1000
000M
0011
0000
1000
0010
0100
,
0001
1000
000M
0110
0000
1000
0000
0001
0010
0100
00M0
1001
0000
0100
0010
0001
,
1000
0001
M000
1100
0000
0001
1000
0010
0100
0001
0M00
1010
0000
0001
1000
0010
,
1000
0100
MM00
0110
0000
0010
0000
0001
,
1000
0010
M0M0
0110
0000
0100
0001
1000
,
0010
0100
0MM0
0101
0000
0001
1000
0010
,
1000
0100
MM00
1100
0000
1000
0001
0010
,
0001
1000
M00M
1010
0000
1000
0000
0100
,
0010
0001
00MM
0011
0000
0001
0100
0010
,
1000
0001
M00M
0101
0000
0001
1000
0010
,
0100
0010
0MM0
1010
0000
0010
0100
0001
,
1001
0000
0000
1100
0000
0000
0101
0000
0000
1001
0000
0000
0110
0000
0000
0000
,
1000
0000
0010
0000
0100
0000
0001
0000
1000
0100
1000
0100
0010
0001
0010
0001
,
1000
0100
0010
1M00
0010
M001
1000
1000
,
0001
0100
0010
0M01
0010
100M
0001
0001
,
1000
0010
0100
0010
1000
0100
0010
0010
,
0001
0010
0100
0010
0001
0100
0010
0010
,
0M01
0010
100M
0100
0010
0001
0010
0010
,
1M00
0010
M001
0100
0010
1000
0010
0010
,
1000
0100
M001
0100
100M
0010
0100
0100
,
0001
0100
100M
0100
M001
0010
0100
0100
,
1000
0100
0010
1M00
0001
010M
1000
1000
,
0001
0100
0010
0M01
1000
M100
0001
0001
,
1000
0100
0010
0100
1000
0001
0100
0100
,
0001
0100
0010
0100
0001
1000
0100
0100
,
1000
0100
0010
0100
00M1
0100
100M
1000
,
0001
0100
0010
0100
10M0
0100
M001
0001
,
1000
0100
M001
1000
0010
M001
0100
100M
,
0001
0000
0010
0000
100M
0000
0100
0000
M001
0000
1000
0000
0010
0001
1000
0000
,
2002
0000
0000
0000
,
3003
M00M
0000
0000
0000
0000
0000
0000
;
