#TITLE:REED ARMYY MEGA FULL VERSION SPREAD;
#SUBTITLE:SPREAD159 YEAH1 XDXD;
#ARTIST:DJ SHARPNEL REMIX;
#TITLETRANSLIT:;
#SUBTITLETRANSLIT:;
#ARTISTTRANSLIT:;
#CREDIT:;
#BANNER:REED ARMYY.....JPG;
#BACKGROUND:REED ARMYY.jpg;
#LYRICSPATH:;
#CDTITLE:cdtitle.png;
#MUSIC:REED ARMYY MEGA FULLL.mp3;
#OFFSET:-3.368;
#SAMPLESTART:336.089;
#SAMPLELENGTH:13.000;
#SELECTABLE:YES;
#BPMS:0.000=182.196;
#STOPS:;
#BGCHANGES:;
// cache tags:
#FIRSTBEAT:0.000;
#LASTBEAT:1356.000;
#SONGFILENAME:Songs/Definitive Keyboard Megapack/REED ARMYY verison spread159(Disregard159)/REED ARMYY...sm;
#HASMUSIC:1;
#HASBANNER:1;
#MUSICLENGTH:452.498;
// end cache tags

//---------------dance-single - 159*----------------
#NOTES:
     dance-single:
     159*:
     Medium:
     21:
     1.000,1.000,1.000,1.000,1.000,4143.000,1447.000,1125.000,0.000,770.000:
1000
0001
1110
0010
0010
0100
1011
0100
,
0100
0100
1011
0100
0100
0100
1011
0001
,
0001
0001
1110
0010
0010
0010
1110
0100
,
0100
0100
1110
1000
1000
1000
1011
0010
,
0010
0010
0111
1000
1000
1000
1101
0010
,
0010
0010
0111
0100
0100
0100
1110
0001
,
0001
0001
0111
1000
1000
1000
1101
0100
,
0100
0100
0111
0100
1010
0101
1010
0101
,
1010
0100
1100
0010
0010
0010
1011
0010
,
0010
0010
1110
0100
0100
0100
1110
0001
,
0001
0001
1101
1000
1000
1000
1110
0100
,
0100
0100
1101
0001
0001
0001
1101
0010
,
0010
0010
0111
0100
0100
0100
0111
1000
,
1000
1000
1011
0001
0001
0001
1011
1000
,
1000
1000
1011
0100
0100
0100
0111
0100
,
0100
0100
0111
1000
1111
1111
1111
1111
,
1111
0010
1111
0100
0001
0100
1111
0010
,
1000
0010
1111
0100
0001
0010
1111
0100
,
1000
0010
1111
0100
0001
0010
1111
0100
,
1000
0010
1111
0001
1000
0010
1111
0100
,
0001
0010
1111
0001
1000
0100
1111
0100
,
0001
0010
1111
0001
0100
0010
1111
0100
,
0010
1000
1111
0100
0001
0010
1111
1000
,
0010
0100
1001
1111
1111
1111
1111
1111
,
1111
0110
1111
0100
0001
0010
1111
0100
,
0010
1000
1111
0010
0100
0001
1111
0010
,
1000
0100
1111
0001
0100
0010
1111
1000
,
0010
0100
1111
0010
0100
0001
1111
0100
,
1111
0111
1110
1101
0111
1101
1011
0111
,
1011
1110
1110
1101
0111
1101
1100
0011
,
1100
0011
1100
0011
1100
0011
1100
0011
1100
0011
1100
0011
1100
0011
1100
0011
,
0202
2300
3200
0320
0230
0320
0230
2300
3200
0320
0230
2300
3200
0320
0230
0300
,
2003
0002
0020
0000
0200
0300
0230
0000
3020
0003
0002
0000
2030
0000
0020
3000
,
2000
0003
0002
0330
0020
0000
0200
3000
2000
0030
0023
0300
0200
0000
0002
3000
,
2030
0320
0200
0003
0002
0003
0002
0300
0200
0030
0020
0003
0002
0300
0200
0003
,
0002
3000
2000
0030
0020
0300
0200
0003
0002
0030
0020
0300
0200
3000
2000
0003
,
0302
0230
0020
3000
2000
3000
2000
0030
0020
0300
0200
3000
2000
0003
0002
3000
,
2000
0030
0020
0300
0200
0003
0002
0030
0020
0300
3200
0003
2000
0030
3320
0000
,
0032
2000
0200
0000
0020
0030
0023
0000
0302
0000
0200
3030
0023
0030
2000
0000
,
0020
0300
0200
0000
0032
0000
3320
0000
0200
0000
2000
0030
0320
3000
0203
0000
,
0302
2000
0230
0000
0020
0030
0020
0300
3200
0003
2030
0000
0302
0000
0200
0003
,
3002
0300
2000
0000
0200
0003
0020
0000
0302
0030
3200
0003
0020
0000
2300
0000
,
0032
3200
0020
0300
2003
3030
2000
0000
0020
0000
3200
0030
1002
0000
0020
0000
,
2303
0000
0032
3000
0200
0000
0020
0303
2000
0000
0230
0000
3020
0002
0000
0330
,
2000
0020
0203
0000
0002
0003
0302
0030
3200
0003
0020
0000
0302
0030
2003
0000
,
0002
3000
0200
0000
0020
0000
2303
0000
0230
0000
0020
0000
0002
0300
3200
0030
,
2003
0002
0320
0000
0200
0300
0203
0000
3032
0000
0320
0003
2030
0000
3002
0003
,
2000
3010
0100
0001
0100
0010
1000
0100
0010
0001
0100
0010
1000
0001
0100
0010
,
2001
3100
0010
1000
0021
0130
0010
1000
0001
0010
0100
1000
0021
0130
0001
0100
,
0010
0100
0001
0100
2010
3001
0010
0100
0001
0010
0100
0001
1020
0130
0001
1000
,
0100
0010
0001
0100
0021
1030
0010
0100
0001
0010
0100
1000
0120
1030
0001
0010
,
0100
1000
0010
0100
2001
3010
0100
0010
0001
1000
0010
0100
0012
1003
0010
0100
,
0001
0010
0100
1000
0021
0130
0001
0010
0001
0100
0010
0001
2100
3001
0010
0100
,
0001
1000
0010
0100
1002
0013
0100
0010
1000
0010
0100
0001
2100
3010
0100
0001
,
1000
0010
0100
0010
2100
3010
0100
0001
0010
0100
0010
0001
1020
0130
0010
0100
,
1000
0010
0100
0001
1020
0130
1001
0000
1111
0000
1111
0000
1111
0000
1111
0000
,
1001
0100
0010
1000
0021
0130
0001
0010
0100
0010
0100
0001
1020
0130
1000
0010
,
0100
0001
0010
0001
1200
0310
1000
0100
1000
0010
0100
0001
1020
0031
0100
0010
,
1000
0010
0100
0001
1020
0130
1000
0010
0100
0001
1000
0100
1020
0031
0100
0010
,
1000
0100
0010
0100
0012
1003
0010
0100
0001
0010
0100
0010
2100
3001
0100
0010
,
1000
0010
0100
0001
2010
3100
0010
0100
1000
0001
0100
0010
2100
3001
0010
0100
,
0010
0001
0100
0010
2001
3010
0100
0001
0100
0010
1000
0010
2100
3001
0100
0010
,
0100
0001
1000
0010
0102
1003
0010
0100
0010
0100
1000
0010
0102
1003
0010
0100
,
1000
0000
0000
0000
0000
0000
0000
0000
0010
0000
0000
0000
0000
0000
0000
0000
0000
0000
0000
0000
0000
0000
0000
0000
1100
0000
0000
0000
0000
0000
0011
0000
0000
0000
0000
0000
1100
0000
0000
0000
0000
0000
0000
0000
0000
0000
0000
0000
0011
0000
0000
0000
0000
0000
0000
0000
0000
0000
0000
0000
1100
0000
0000
0000
0000
0000
0000
0000
0000
0000
0000
0000
0011
0000
0000
0000
0000
0000
1100
0000
0000
0000
0000
0000
0011
0000
0000
0000
0000
0000
0000
0000
0000
0000
0000
0000
1100
0000
0000
0000
0000
0000
0000
0000
0000
0000
0000
0000
0011
0000
0000
0000
0000
0000
0000
0000
0000
0000
0000
0000
1100
0000
0000
0000
0000
0000
0000
0000
0000
0000
0000
0000
0010
0000
0000
0000
0000
0000
0000
0000
0000
0000
0000
0000
1000
0000
0000
0000
0000
0000
0000
0000
0000
0000
0000
0000
0010
0000
0000
0000
0000
0000
0000
0000
0000
0000
0000
0000
0100
0000
0000
0000
0000
0000
0000
0000
0000
0000
0000
0000
0001
0000
0000
0000
0000
0000
0000
0000
0000
0000
0000
0000
,
0110
1000
0010
0100
1012
0103
1000
0010
0001
1000
0010
0100
2011
3100
0010
0100
,
0001
0010
0100
0001
1120
0031
1000
0010
0100
1000
0001
0010
1102
0013
0100
1000
,
0010
0100
0001
0100
2011
3100
0010
1000
0010
0100
0001
0010
1102
0013
1000
0100
,
0001
0010
0100
1000
0112
1003
0010
0100
0010
1000
0010
0100
2011
3100
0001
1000
,
0010
0100
0001
0010
1102
0013
1000
0100
0001
0010
0100
1000
0211
1300
0001
0010
,
0100
1000
0100
0010
1102
0013
0100
1000
0010
0100
0001
0010
1102
0013
1000
0100
,
0001
0010
0100
1000
0211
1300
0001
0010
0100
1000
0010
0001
1120
0031
0100
1000
,
0010
0100
1000
0001
2110
3001
0010
0100
1011
0000
1211
0300
1101
0000
1011
0000
,
1001
0010
0100
1000
0112
1003
0100
1000
0010
0100
0010
0100
2011
3100
0010
0100
,
0001
0100
0010
1000
0211
1300
0001
0010
0100
1000
0010
0100
2011
3100
0001
1000
,
0010
0100
1000
0001
2110
3001
0010
0100
0010
1000
0100
0010
1102
0013
0100
1000
,
0010
0100
0001
0010
1102
0013
1000
0100
0010
1000
0010
0100
2011
3100
0010
1000
,
0101
1110
0111
1101
1110
1101
0111
1110
,
1101
1110
1110
1111
1111
1111
1111
1111
,
0011
1100
0011
1100
0011
1100
0011
1100
0011
1100
0011
1100
0011
1100
0011
1100
,
0222
0000
0000
0000
,
2000
0000
0000
0000
,
0000
0000
0000
0000
0000
0000
0000
0000
0000
0000
0000
0000
0000
0000
0000
3333
,
2200
0320
0032
0023
0230
0320
0032
0023
0032
0023
0230
0320
0032
0023
0230
0320
,
0032
0023
0032
0203
0320
0230
0320
0032
0023
0230
0320
0032
0023
0230
0320
3232
,
2300
3200
0320
0230
2300
3200
0320
0230
2300
3200
0320
0230
2300
3200
0320
0230
,
2300
3200
0320
0230
2300
3200
0320
0230
0320
0230
0320
0230
0320
2030
3200
2300
,
3023
0200
0300
0002
2003
3200
0302
2003
3002
0203
2300
3200
0302
0203
2300
3200
,
0302
0203
2300
3200
2300
3002
0203
0302
0203
0302
2003
3200
2300
3200
0302
2003
,
3232
2003
3020
0032
0023
0032
2003
3020
2030
3020
2030
3020
2030
3002
0023
0032
,
0023
0032
0023
2030
3000
0020
2030
3020
0032
0023
0032
2003
3020
2030
3020
2030
,
3322
0230
0320
2030
3200
0320
0230
2300
3200
0320
0230
2300
3200
0320
0230
0320
,
0230
2300
3200
0320
2030
3200
2300
3020
0230
2300
3200
0320
2030
3200
0320
0230
,
2323
0032
0023
0230
0320
0032
0023
0230
0320
0032
0023
0230
0320
0032
0023
0230
,
0320
0032
0023
0230
0320
0032
0023
0230
0320
0230
0320
0230
0302
0203
0320
0032
,
3223
2300
3200
2300
3200
0302
2003
3200
2300
3200
0302
0203
2300
3200
0302
0203
,
0302
2003
3002
2003
3002
2003
3002
0203
2300
3200
0302
2003
3200
2300
3200
2300
,
3232
0023
2030
3020
0032
0023
2030
3002
0023
2030
3020
0032
2003
3020
0032
2003
,
3020
0032
2003
3020
0032
0023
2030
3002
0023
2030
3020
0032
0023
2030
3002
0003
,
2322
0000
0000
0000
0000
0000
0000
0000
0000
0000
0000
0000
0000
0000
0000
0000
0000
0000
3033
0000
0000
0000
0000
0000
2101
3000
0000
0000
0000
0000
0120
0000
0000
0000
0000
0000
2032
0003
0000
0000
0000
0000
3120
0000
0000
0000
0000
0000
,
2031
0000
0000
3000
0000
0000
0000
0000
0000
0000
0000
0000
0000
0000
0000
0000
0000
0000
0000
0000
0000
0000
0000
0000
2011
0000
0000
3000
0000
0000
0220
0300
0000
0030
0000
0000
2001
3000
0000
0000
0000
0000
0021
0030
0000
0000
0000
0000
,
1200
0300
0000
0000
0000
0000
0000
0000
0000
0000
0000
0000
2101
3000
0000
0000
0000
0000
0221
0300
0000
0030
0000
0000
1022
0030
0000
0003
0000
0000
0000
0000
0000
0000
0000
0000
2101
0000
3000
0000
0000
0000
0000
0000
0000
0000
0000
0000
,
1012
0000
0000
0000
0003
0000
0000
0000
0000
0000
0000
0000
0000
0000
0000
0000
0000
0000
1020
0030
0000
0000
0000
0000
0201
0300
0000
0000
0000
0000
2010
3000
0000
0000
0000
0000
0201
0300
0000
0000
0000
0000
2010
3000
0000
0000
0000
0000
,
0201
0300
0000
0000
0000
0000
0000
0000
0000
0000
0000
0000
0000
0000
0000
0000
0000
0000
2001
3000
0000
0000
0000
0000
0210
0300
0000
0000
0000
0000
2002
3003
0000
0000
0000
0000
0210
0300
0000
0000
0000
0000
2001
3000
0000
0000
0000
0000
,
0210
0300
0000
0000
0000
0000
0000
0000
0000
0000
0000
0000
0000
0000
0000
0000
0000
0000
0000
0000
0000
0000
0000
0000
2002
0000
0000
0000
0000
0000
0000
0000
0000
0000
0000
0000
3200
0000
0000
0000
0000
0000
0000
0000
0000
0000
0000
0000
,
2020
0000
0000
0003
0032
0000
0000
0000
0023
0000
0000
0300
0200
0000
0000
3000
,
2302
0000
0000
0000
3033
0000
0000
0000
2010
0000
0102
3003
1020
0030
0201
0300
,
1020
0030
0000
0000
0000
0000
0000
0000
1020
0030
0102
0003
2010
3000
0102
0003
,
1020
0030
0000
0000
0000
0000
0000
0000
1020
0030
0200
0300
2001
3000
0012
0003
,
1020
0030
0000
0000
0201
0000
0320
0030
2011
3000
0000
0000
1120
0030
0000
0000
,
0211
0300
0000
0000
0000
0000
0201
0000
2310
0000
3200
0000
2301
0000
3020
0000
,
2131
3000
0000
0102
2013
3200
0312
0023
,
2031
0000
3000
0000
0000
0000
0000
0000
2020
0000
0000
0000
0202
0000
0000
3333
,
0022
0000
0030
0000
0220
0000
0000
0030
2023
0000
0300
0000
0202
0000
0000
0033
,
3022
0000
0000
0030
2020
0000
0303
0000
0202
0000
0000
0033
0022
0000
0000
3330
,
2020
0003
0000
0000
0202
0000
3030
0003
2002
0300
0000
3003
2222
0000
0000
0000
,
0000
3333
0000
0000
0000
0000
0000
2020
0000
0000
0202
0000
0000
0303
0202
3030
,
0000
0000
0000
0303
2102
0000
0000
0100
0010
0100
0010
0100
0010
0100
0010
0100
,
0010
0100
3003
0000
0000
0000
0000
0000
0000
0000
0000
0000
0000
0000
0000
0000
,
1111
0000
0000
1111
0000
0000
1111
0000
1111
0000
0000
1111
0000
0000
1111
0000
,
1111
0000
0000
1111
0000
0000
1111
0000
1111
0000
0000
1111
0000
0000
1111
0000
,
1111
0000
0000
1111
0000
0000
1111
0000
1111
0000
0000
1111
0000
0000
1111
0000
,
1111
0000
0000
1111
0000
0000
1111
0000
1111
0000
0000
1111
0000
0000
1111
0000
,
1111
0000
0000
1111
0000
0000
1111
0000
1111
0000
0000
1111
0000
0000
1111
0000
,
1111
0000
0000
1111
0000
0000
1111
0000
1111
0000
0000
1111
0000
0000
1111
0000
,
1111
0000
0000
1111
0000
0000
1111
0000
1111
0000
0000
1111
0000
0000
1111
0000
,
1111
0000
0000
1111
0000
0000
1111
0000
1111
0000
0000
1111
0000
0000
1111
0000
,
1111
0000
0000
1111
0000
0000
1111
0000
1111
0000
0000
1111
0000
0000
1111
0000
,
1111
0000
0000
1111
0000
0000
1111
0000
1111
0000
0000
1111
0000
0000
1111
0000
,
1111
0000
0000
1111
0000
0000
1111
0000
1111
0000
0000
1111
0000
0000
1111
0000
,
1111
0000
0000
1111
0000
0000
1111
0000
1111
0000
0000
1111
0000
0000
1111
0000
,
1111
0000
0000
1111
0000
0000
1111
0000
1111
0000
0000
1111
0000
0000
1111
0000
,
1111
0000
0000
1111
0000
0000
1111
0000
1111
0000
0000
1111
0000
0000
1111
0000
,
1111
0000
0000
1111
0000
0000
1111
0000
1111
0000
0000
1111
0000
0000
1111
0000
,
1111
0000
0000
1111
0000
0000
1111
0000
1111
0000
0000
1111
0000
0000
1111
0000
,
2222
0000
0000
0000
,
0000
0000
0000
0000
,
0000
0000
0000
0000
,
0000
0000
0000
0000
,
0000
0000
0000
0000
,
0000
0000
0000
0000
,
0000
0000
0000
0000
,
0000
0000
0000
3333
,
1110
0000
1101
0000
0111
1001
0111
0000
,
1111
1000
0111
0000
1011
1000
0111
0000
,
1010
1000
1101
0010
1011
1000
1011
0100
,
1011
0001
1011
0100
0001
1101
0101
1000
,
0001
0100
0010
1000
0010
0100
0001
0010
0100
1000
0010
0100
0001
1000
0100
0010
,
0001
0100
0010
1000
0010
0100
0001
0010
0100
1000
0010
0100
0001
0010
0100
1000
,
0010
0100
0001
0100
0010
1000
0010
0100
0001
0100
0010
1000
0010
0100
0001
0010
,
2222
0000
0000
0000
0000
0000
0000
0000
0000
0000
0000
0000
0000
0000
0000
0000
0000
0000
0000
0000
0000
0000
0000
0000
0000
0000
0000
0000
0000
0000
0000
0000
0000
0000
0000
0000
0000
0000
0000
0000
0000
0000
0000
0000
0000
0000
0000
0330
,
3113
0001
1000
0010
1101
0010
0001
0100
1011
0100
0010
0101
1010
0101
1010
0101
,
0010
1001
0010
0101
1000
0011
0100
1001
0010
1001
0100
0011
1000
0110
0001
1010
,
0100
0011
1100
0010
1001
0010
1100
0001
1100
0010
1001
0100
1010
0001
1100
0010
,
1100
0001
1010
0100
1001
0010
1100
0011
0100
1010
0100
0011
1100
0010
1100
0010
,
0101
0010
1001
0010
1100
0001
1010
0100
1010
0001
1100
0010
1001
0100
1001
0010
,
0100
0011
1000
0101
0010
0101
1000
0010
1100
0011
0100
0011
1100
0010
1100
0001
,
1010
0100
1001
0010
0100
0011
1000
0101
0010
1001
0100
1010
0100
1001
0100
0011
,
1000
0101
1010
0001
1100
0001
0110
0001
1100
0010
1001
0110
1000
0011
0100
0011
,
1100
0010
1100
0011
1100
0010
1001
0010
1100
0001
1010
0100
1010
0001
1100
0010
,
0100
0011
1100
0010
0101
0010
1101
0010
1100
0001
1010
0101
1010
0101
1010
0100
,
0011
0100
1001
0010
1100
0011
0100
0010
1100
0010
0101
0010
1100
0010
0101
0010
,
1100
0010
0100
0011
1100
0010
1100
0010
1101
0010
1100
0001
1010
0100
1001
0010
,
0100
1011
0100
0010
1001
0100
1010
0101
0010
0100
1010
0101
1000
0010
1100
0001
,
0110
1001
0100
0010
1001
0100
1001
0010
1100
0011
0100
0010
1001
0100
1010
0001
,
1100
0011
0000
1010
0100
1001
0100
0011
1000
0010
0101
1010
0101
0010
1100
0010
,
1100
0001
1100
0010
1101
0010
1100
0001
1010
0100
1001
0010
1100
0011
0100
0010
,
1100
0011
0100
0010
1101
0010
1100
0010
1100
0001
1010
0100
0010
0101
1000
0011
,
0100
0010
1100
0010
1100
0011
0100
1011
0100
1000
0111
1000
0101
0010
1001
0100
,
0011
0100
1010
0101
0010
0100
1001
0010
1100
0001
1010
0100
0010
1001
0100
0011
,
1100
0010
0100
1001
0100
0010
1100
0011
1000
0011
1100
0010
1001
0010
1000
0101
,
1000
0010
0100
0001
1010
0001
1100
0010
1001
0110
1000
0011
0100
1001
0100
0010
,
1001
0100
0010
1001
0100
0010
1001
0100
1001
0010
1100
0010
1100
0001
1100
0011
,
1000
0011
0100
0011
1100
0010
1001
0100
1010
0001
1100
0010
1101
0010
1100
0001
,
0110
0001
1100
0010
1001
0110
1000
0011
0100
1001
0100
0010
0100
1011
0100
0010
,
1001
0110
1000
0011
1100
0001
0110
0001
1100
0010
0101
0010
1000
0011
0100
1001
,
0010
0100
1001
0010
0100
0011
1100
0010
0100
1001
0010
0100
1010
0001
1010
0100
,
1010
0001
1010
0100
0011
1100
0001
0010
0100
0011
1000
0101
0010
0101
1000
0011
,
0100
1001
0100
0010
1100
0011
1000
0011
0100
0010
1001
0100
1001
0010
1100
0001
,
0110
0001
1100
0010
1001
0110
1000
0010
0100
1001
0110
1001
0100
0010
1101
0010
,
1100
0011
0100
0010
1100
0011
0100
1001
0010
0100
1001
0010
1100
0011
0100
0010
,
1001
0010
0100
1001
0100
0011
1100
0010
0100
1001
0010
0100
1001
0010
1100
0001
,
1010
0100
1001
0010
1100
0001
0010
0101
1000
0011
0100
0011
1000
0101
1010
0001
,
1100
0010
1100
0001
1010
0101
1000
0010
1101
0001
0010
0101
1000
0011
0100
0011
,
1100
0010
1100
0011
1100
0010
0100
0011
1100
0010
0101
0011
1100
0011
0100
1011
,
2002
0000
0000
0000
0000
0000
0000
0000
0000
0000
0010
0100
0010
0100
0010
0100
,
3013
0100
0010
0100
0010
0100
0010
0100
0010
0100
0010
0100
0010
0000
0110
0000
,
1001
0100
0011
1000
0011
0100
1001
0100
0011
1000
0101
1010
0001
1100
0010
1000
,
0101
0010
0100
1000
0011
1100
0010
1000
0101
1000
0011
0100
1001
0110
0001
1100
,
0010
1001
0100
1001
0010
1100
0011
0100
1010
0100
0011
1100
0011
0100
0010
1101
,
0010
0100
1001
0010
1100
0010
1001
0010
0100
1000
0101
0010
0101
1000
0011
0100
,
1001
0100
0011
1000
0111
1000
0011
0100
1001
0010
0101
1000
0010
1100
0011
0000
,
0101
1000
0011
1100
0001
1010
0001
1100
0010
1001
0100
1001
0010
1100
0001
1100
,
0011
1100
0010
1100
0001
0110
0001
1100
0010
1001
0110
1000
0010
0100
1011
0100
,
0010
1000
0101
1000
0010
1100
0001
0110
1001
0000
1010
0100
1001
0010
0101
0000
,
1011
0100
0010
1000
0011
0100
0011
1000
0010
1100
0001
0010
0100
1001
0010
0100
,
1001
0100
1010
0100
0011
1100
0010
0100
1001
0010
0100
1001
0010
0100
1011
0100
,
0010
1101
0010
0100
1001
0100
0010
1001
0100
1010
0001
0100
0010
1100
0011
0100
,
1001
0100
0011
1000
0100
0011
0100
1001
0010
1100
0001
1100
0010
1100
0001
1100
,
0010
0101
0010
1000
0011
1100
0011
0100
0010
1001
0110
1000
0011
1100
0001
0010
,
1100
0010
0100
0001
1110
0001
0100
0010
1001
0010
0100
0001
1010
0100
0010
1001
,
0100
0010
1000
0101
0010
0100
1010
0001
0100
0011
1000
0011
0100
0011
0100
0010
,
1001
0010
1100
0001
1010
0101
1000
0011
0100
0011
1100
0010
1100
0001
0100
0010
,
1001
0100
0010
1001
0010
1100
0001
1010
0100
1001
0010
1100
0001
0110
1001
0100
,
0011
1000
0101
1000
0010
1100
0001
1100
0010
1101
0010
1100
0001
1010
0101
1000
,
0011
0100
1001
0100
0011
1100
0010
1100
0001
1010
0100
1001
0010
0101
0010
1001
,
0010
1100
0001
0100
1010
0100
1001
0100
0010
1001
0100
0011
0100
1010
0001
1010
,
0100
1010
0001
0100
0011
1000
0011
0100
1001
0010
1100
0001
1000
0010
0100
1001
,
0100
0011
1000
0100
1010
0001
0110
1001
0100
0010
1001
0100
1001
0010
1100
0011
,
0100
0010
1001
0100
1001
0010
1100
0001
0010
1001
0100
0010
1000
0011
0100
0011
,
1000
0010
1001
0100
0010
0101
1000
0010
0101
0000
1010
0100
0011
0000
1110
0000
,
1001
0100
0011
1000
0010
0100
1001
0010
0100
1001
0010
1100
0001
0010
0100
1001
,
0010
0100
0011
1000
0010
0100
1001
0010
0100
1001
0010
1100
0001
1010
0001
1100
,
0010
1001
0100
1000
0011
0100
1011
0100
0010
1001
0010
0100
1001
0010
0100
1001
,
0010
0100
1001
0010
1001
0100
1010
0100
0011
1000
0010
0101
0010
1001
0010
0100
,
1001
0010
0100
1001
0100
0010
0101
1000
0011
0100
1001
0010
0101
1010
0100
0010
,
1001
0010
1100
0010
1001
0100
0011
1100
0010
0100
1011
0100
0010
1001
0010
0100
,
1011
0000
0111
0000
1010
0001
1100
0001
1010
0000
1101
0000
0111
0000
1001
0100
,
1010
0000
1101
0010
1100
0001
1010
0100
1001
0010
0101
0010
1101
0000
1110
0000
,
1001
0100
0010
1001
0010
0100
1001
0010
0100
1001
0010
0100
1001
0100
0010
1000
,
2002
3203
0320
2031
3020
0230
1302
0203
0320
2031
3200
2301
3020
0230
1302
0223
,
1331
0000
0000
0000
,
0000
0000
0000
0000
,
2000
3200
0320
0032
0023
0230
2300
3200
0320
0032
0023
0230
2300
3200
0320
0032
,
2003
3200
0320
0032
0023
0230
2300
3002
0023
0230
2300
3002
0023
0230
2300
3002
,
0023
0230
2300
3002
0023
0230
0302
2003
3200
0320
0032
2003
3200
0320
0032
2003
,
3200
0320
0032
2003
3200
0320
0032
2003
3200
0320
0032
2003
3200
0320
0032
0023
,
0230
2300
3200
2300
3020
0032
0023
0032
0023
0230
2300
3200
2300
3200
0320
0032
,
0023
2030
3200
0320
0032
0023
2030
3200
2300
3200
0320
0230
0320
0032
0023
0230
,
2300
3200
0320
0032
0023
2030
3200
0320
0032
0023
2030
3002
0203
0320
0230
2300
,
3200
0320
0032
0023
0230
2300
3000
0020
2030
3200
0320
0032
0023
0230
2300
3200
,
0320
0032
0023
0230
0320
0032
2003
3200
0320
2030
3200
0302
0023
0230
2300
3002
,
0023
0230
0302
0023
0230
2300
3002
0023
0230
0302
0023
2030
3002
0023
2030
3200
,
0320
0032
2003
3020
0032
0203
0320
2030
3200
0320
0032
0023
2030
3200
0320
2030
,
3002
2003
3200
0320
0230
0302
0023
0032
0023
0230
2300
3200
0320
0230
2300
3200
,
2300
3200
0320
0032
0023
0230
2300
3002
0023
0230
0302
2003
3020
0230
0302
0023
,
2030
3200
0320
0032
0023
2030
3200
0320
0032
0023
0230
2300
3200
0320
0032
0023
,
0230
2300
3020
0032
0203
0320
0032
2003
3200
0320
0032
0023
0230
2300
3200
0320
,
0032
0023
2030
3002
0203
0320
2030
3002
0203
0320
2030
3002
0023
0230
0302
2003
,
3020
0230
0302
2003
3020
0230
0320
2030
3020
0032
0203
2300
3020
0230
0302
0203
,
0302
2003
3020
2030
3020
0230
0302
0023
0230
2300
3002
2003
3002
0023
0230
0302
,
2003
3200
0320
2030
3002
0023
0230
0320
0032
0003
0020
0230
2300
3002
0023
0230
,
0320
2030
3002
0203
0320
0032
0203
2300
3020
0032
0203
0320
2030
3000
0200
0320
,
0032
0023
0230
2300
3020
0032
0203
0320
2030
3200
2300
3200
2300
3020
0230
2300
,
3020
0230
0302
2003
3020
0230
2300
3020
2030
3200
0302
2003
3002
0203
0320
2030
,
3002
0203
0320
0032
2003
3200
0320
0032
0023
0230
2300
3020
0032
0203
0320
2030
,
3002
0203
0320
2030
3002
0203
0320
2030
3002
0203
0320
0032
2003
3200
0320
0230
,
2300
3002
0023
0030
2000
0000
0000
0000
3020
0000
0000
0000
0032
0000
0000
0000
,
2003
3020
0230
0302
,
0023
2030
3200
0320
,
2030
3020
0230
0302
,
0023
2030
3200
0320
,
0032
2003
3200
0320
,
0032
0023
2030
3200
,
0300
0000
0000
0000
,
1001
0010
0100
1001
0010
0101
1000
0010
1100
0001
0110
0001
1100
0010
1000
0101
,
1000
0010
1100
0001
0110
0001
1100
0010
1001
0010
0100
0011
0100
1001
0010
1001
,
0100
0010
1001
0110
1000
0011
1100
0010
0100
1001
0110
0001
1100
0010
1000
0101
,
1000
0011
0100
1001
0100
0010
1001
0010
0100
1001
0010
0100
1000
0011
0100
0001
,
1010
0100
0010
1001
0100
1010
0100
0011
1000
0010
0100
0011
1000
0100
0011
0100
,
1000
0101
0010
1100
0010
0001
1100
0010
1001
0010
0100
1001
0100
0010
1100
0001
,
0100
0010
1001
0110
1001
0010
0100
1001
0110
0001
1100
0010
1001
0010
0100
1001
,
0100
1010
0100
0011
1100
0010
0100
1001
0010
0100
1001
0010
0100
0011
1000
0101
,
1000
0010
1100
0001
0010
0100
1010
0101
1000
0010
1100
0001
0110
0001
1100
0010
,
0101
0010
1001
0010
0100
1001
0010
0101
1000
0010
1100
0001
0100
1010
0100
0011
,
0100
0010
1001
0010
0100
1001
0010
1100
0010
0001
1100
0011
0100
0010
1001
0100
,
0011
0100
1000
0011
0100
1001
0100
0010
1001
0010
0100
1001
0010
0100
1001
0010
,
1100
0001
0100
0010
1001
0100
0010
1001
0100
0010
1100
0001
0100
0011
1000
0010
,
0101
0010
1000
0011
1100
0001
0010
0100
1001
0010
1100
0001
1010
0101
0010
0001
,
1010
0100
0011
0100
1000
0011
0100
1001
0100
0010
1001
0010
0100
1001
0010
0101
,
1000
0010
1100
0001
0010
1001
0100
0011
1000
0110
1000
0011
0100
1011
0100
0010
,
1001
0010
1100
0001
0100
0011
1100
0010
1100
0001
0010
0100
1001
0010
0100
1001
,
0010
0100
1001
0010
0100
0011
1100
0010
1001
0100
1010
0001
1100
0011
1000
0010
,
0100
1001
0110
0000
1011
0100
1001
0010
1100
0011
0100
0010
1000
0100
0011
1000
,
0010
0100
1001
0010
0100
1001
0110
1001
0100
0010
1000
0101
1000
0010
0100
1001
,
0010
1100
0010
1001
0010
0101
1010
0100
0011
0100
1001
0010
0100
1001
0100
0010
,
1001
0010
0100
1001
0100
0010
1100
0001
1100
0010
1001
0010
0100
1011
0100
0011
,
1000
0110
1000
0001
0010
0100
1001
0010
0100
1011
0100
0010
1001
0100
1010
0001
,
0100
0011
1000
0100
0010
1001
0100
1010
0100
1001
0100
0011
1000
0010
1101
0010
,
0100
0011
1000
0010
0100
1001
0010
0100
1011
0100
1000
0011
0100
1001
0110
0001
,
1100
0010
1001
0100
0010
1101
0010
1001
0100
0010
1001
0100
1000
0011
0100
1001
,
0110
0001
1100
0010
1001
0100
0010
0001
1100
0010
1001
0100
0010
0101
1000
0010
,
1100
0001
0110
1001
0100
0010
1001
0100
1000
0011
0100
1001
0010
0100
1001
0100
,
1010
0101
0010
1100
0010
1001
0100
0010
1000
0101
0010
0101
1000
0101
1010
0101
,
0010
0100
1001
0010
1100
0011
1100
0010
0101
1000
0100
1010
0001
0100
1010
0001
,
0100
0011
1000
0010
0100
1001
0010
0100
1001
0010
0100
1001
0010
1100
0010
1000
,
0101
0010
1001
0100
1000
0011
0100
1001
0100
0010
1000
0011
0100
1001
0010
0101
,
1000
0010
1100
0001
0010
0100
1001
0010
1100
0001
0010
0100
1001
0010
1100
0011
,
1000
0010
1100
0001
1000
0010
0100
1001
0010
0100
1010
0001
0010
0101
1000
0110
,
0000
1001
0110
1000
0010
0001
0110
1001
0100
1010
0000
0111
0000
1000
0110
1001
,
0010
0101
0000
1011
0000
0100
1010
0001
0100
1011
0000
1000
0110
0000
1001
0010
,
0101
0000
1010
0101
0000
1011
0000
0110
1001
0010
0100
0011
1000
0010
1100
0001
,
1010
0000
0101
1010
0001
0110
0000
1001
0100
0010
1101
0010
0101
0010
1101
0010
,
0100
1010
0101
1010
0100
1010
0101
0010
1001
0100
0010
1001
0110
0001
0010
1101
,
0010
1100
0010
1100
0010
0000
0011
1100
0011
0100
0011
1100
0010
1100
0010
1101
,
0010
0101
0010
0101
1000
0110
1000
0101
0010
0100
0010
1001
0100
1010
0001
0110
,
1000
0101
0010
1100
0010
0101
0010
1100
0010
1001
0100
1010
0000
0101
0010
1100
,
0010
0101
0010
1000
0111
1000
0010
0100
0011
0100
1010
0100
1001
0010
0100
1001
,
0010
0100
1010
0001
0100
1011
0100
0011
0100
1010
0001
0100
0010
1100
0001
0110
,
1000
0001
1010
0001
0110
1000
0100
1001
0010
0100
1001
0010
0100
1001
0110
0001
,
1000
0100
0010
1001
0100
0010
0100
0011
1000
0100
1001
0010
0100
1000
0111
0000
,
1001
0100
0010
1101
0010
0100
0001
1010
0100
0011
1000
0100
1001
0010
0100
0001
,
0010
1100
0010
0001
0110
1000
0011
0100
0010
1001
0100
0010
1001
0100
0010
1100
,
0001
1100
0010
1101
0010
0001
1000
0111
1000
0100
0010
1101
0010
1001
0100
1010
,
0100
0011
1100
0010
1101
0010
0101
1000
0110
0001
0100
1010
0100
0011
1000
0100
,
0011
1000
0010
0101
0010
1000
0101
0010
1001
0100
0010
1100
0001
0010
1100
0001
,
0010
0100
0001
1010
0100
0010
0101
1000
0101
0010
1000
0100
0010
0101
1000
0010
,
0100
1001
0010
0100
1001
0010
1001
0100
0010
1101
0010
0101
1000
0110
1000
0001
,
0110
1000
0101
0010
1100
0010
0100
1011
0000
0101
1000
0010
0100
0011
1000
0100
,
0011
0100
1010
0001
0100
1000
0110
0001
1010
0100
1011
0100
1010
0001
0110
0001
,
1010
0100
0011
0100
1001
0010
1001
0100
0010
1101
0010
0100
1011
0100
0010
0001
,
1100
0010
0100
1001
0010
1100
0010
0001
0110
1000
0101
0010
1100
0010
0101
0010
,
1001
0100
1010
0101
0010
1000
0101
0010
1100
0011
0100
1001
0010
0100
1001
0010
,
0101
0010
1100
0010
1001
0100
1010
0001
0110
1000
0101
0010
1100
0010
0001
1110
,
0000
0011
1000
0101
0010
1000
0101
1010
0101
1010
0101
1010
0100
0011
0100
1010
,
0100
0011
1100
0011
0100
1001
0010
0100
1001
0010
0100
0011
1000
0100
0011
1100
,
0010
1001
0100
0010
1001
0100
0010
1100
0011
0100
1011
0100
1010
0100
0011
0100
,
1011
0100
0010
1001
0100
0010
1101
0010
0100
1010
0001
0110
1000
0110
0001
1000
,
0111
1000
0110
1001
0100
0010
1001
0100
1010
0101
0010
1100
0001
0110
0001
1010
,
0100
0011
0100
1001
0010
0101
0010
1100
0010
0101
0010
1000
0011
0100
1010
0100
,
0011
0100
1001
0010
1100
0011
0100
0011
0100
1010
0100
1001
0010
0100
0001
1010
,
0100
0011
0100
1001
0010
0101
1000
0010
1100
0001
0010
1101
0010
1001
0110
1000
,
0011
1100
0010
0101
1000
0010
0101
1010
0100
0011
1000
0100
1001
0010
0100
0011
,
1000
0100
1011
0100
0011
0100
1010
0001
0110
0001
1110
0001
1000
0100
0010
1100
,
0001
0010
0100
1010
0101
0010
1000
0100
0011
0100
1000
0110
0001
0010
1101
0010
,
0100
0001
1010
0100
0011
1100
0010
0101
1010
0100
0001
1010
0100
1011
0100
0010
,
1101
0010
0101
1010
0100
0011
0100
1000
0111
0000
1001
0110
0000
1011
0100
0000
,
1100
0011
1100
0011
1100
0011
1100
0011
1100
0011
1100
0011
1100
0011
1100
0011
,
1100
0011
2200
3322
2233
3322
2233
3322
2233
3322
2233
3322
2233
3322
2233
3322
,
0033
0000
2222
0000
,
0000
0000
0000
3333
,
0000
0000
0000
2222
3333
0000
0000
0000
0000
2000
0000
0000
3000
0000
0000
0002
0000
0000
0003
0000
0000
0200
0000
0000
0300
0000
0000
0020
0000
0000
0030
0000
0000
0200
0000
0000
0300
0000
0000
0020
0000
0000
0030
0000
0000
2000
0000
0000
,
3000
0002
0003
0200
0300
0020
2030
3000
0002
0003
0000
0200
0300
0020
0030
0000
,
0000
0000
0000
2222
3333
0000
0000
0000
0000
0200
0000
0000
0300
0000
0000
0002
0000
0000
2003
0000
0000
3000
0000
0000
0000
0000
0000
0020
0000
0000
0030
0000
0000
0200
0000
0000
0300
0000
0000
0002
0000
0000
2003
0000
0000
3000
0000
0000
,
0000
0020
0030
0200
0302
0003
0000
0200
0000
0320
0000
2030
0000
3002
0003
0000
,
0000
0000
0000
2222
3333
0000
0000
0000
0000
0020
0000
0000
0030
0000
0000
0200
0000
0000
0300
0000
0000
0002
0000
0000
0003
0000
0000
2000
0000
0000
3000
0000
0000
0020
0000
0000
0030
0000
0000
0200
0000
0000
0300
0000
0000
0002
0000
0000
,
0003
0200
0300
0000
0020
2030
3000
0002
0003
0200
0300
0020
0030
0200
0300
0000
,
0000
0000
0000
2222
3333
0000
0000
0000
0000
2000
0000
0000
3000
0000
0000
0002
0000
0000
0003
0000
0000
0000
0000
0000
0200
0000
0000
0300
0000
0000
0020
0000
0000
0030
0000
0000
2000
0000
0000
3000
0000
0000
0002
0000
0000
0003
0000
0000
,
0200
0300
0020
0030
2000
3000
0002
0003
0200
0300
0020
0030
2000
3000
0002
0003
,
2222
0000
0000
0000
,
3333
0000
0000
0000
;
