#TITLE:Launch Base Zone ACT 1;
#SUBTITLE:[Sonic The Hedgehog 3];
#ARTIST:Howard Drossin;
#TITLETRANSLIT:;
#SUBTITLETRANSLIT:;
#ARTISTTRANSLIT:;
#CREDIT:Kewing DarkSun;
#BANNER:Launch Base Zone ACT 1.png;
#BACKGROUND:Launch Base Zone ACT 1-bg.png;
#LYRICSPATH:;
#CDTITLE:!Kewing DarkSun (cdtitle).png;
#MUSIC:29_launch_base_zone_act_1 (Edited).mp3;
#OFFSET:-0.255;
#SAMPLESTART:8.064;
#SAMPLELENGTH:12.000;
#SELECTABLE:YES;
#BPMS:0.000=122.280;
#STOPS:;
#BGCHANGES:;
// cache tags:
#FIRSTBEAT:0.000;
#LASTBEAT:146.500;
#SONGFILENAME:Songs/toune 2/Launch Base Zone ACT 1/Launch Base Zone ACT 1.sm;
#HASMUSIC:1;
#HASBANNER:1;
#MUSICLENGTH:72.834;
// end cache tags

//---------------dance-single - Basic----------------
#NOTES:
     dance-single:
     Basic:
     Easy:
     3:
     0.247,0.276,0.275,0.110,0.000,98.000,20.000,8.000,0.000,0.000:
0000
0000
0000
0000
,
0000
0000
0000
0000
,
0000
0000
0000
0000
,
1000
1000
0001
0100
,
0100
0000
0100
0000
,
0001
0001
1000
0100
,
0100
0000
0100
0000
,
1000
1000
0001
0000
,
0010
0002
0003
0011
,
0000
0100
0010
0100
,
0010
2000
3000
1010
,
0000
0100
0010
0100
,
0010
0002
0003
1100
,
0000
1000
0100
0010
,
0100
2000
3000
0011
,
0000
0001
0010
0100
,
2000
0000
0000
3001
,
0001
1000
0100
0010
,
0002
0000
0000
1003
,
1000
0010
0100
0001
,
2000
0000
0000
3001
,
0001
0100
0010
1000
,
0002
0000
0000
1003
,
1000
0001
0010
0100
,
1000
0001
0010
1100
,
0000
0110
0000
1001
,
0000
1010
0000
0101
,
0000
0110
0000
1001
,
0000
1100
0000
0101
,
0000
0011
0000
0110
,
0000
0101
0000
1100
,
0000
1010
0010
0110
,
1001
0000
0000
0000
,
1000
0001
0100
0001
,
1000
1000
0100
0010
,
0010
0001
1000
0001
,
0100
0100
0010
0000
;

//---------------dance-single - Standard----------------
#NOTES:
     dance-single:
     Standard:
     Medium:
     7:
     0.443,0.402,0.110,0.000,0.206,218.000,8.000,0.000,0.000,0.000:
0000
0000
0000
0000
,
0000
0000
0000
0000
,
0000
0000
0000
0000
,
1000
0001
0100
0001
1000
0100
1000
0001
,
0100
0000
0010
0000
1000
1000
1000
0000
,
0001
1000
0100
1000
0001
0100
0001
1000
,
0100
0000
0010
0000
0001
0001
0001
0000
,
1000
0000
0001
0000
0100
0000
0001
0010
0000
0100
1000
0000
0000
0000
0000
0000
,
0001
0000
0100
0000
0001
0000
0000
1000
0000
0000
0000
0000
0100
0000
0010
0000
,
0001
0000
0000
0000
0101
0000
0000
0100
0000
0000
0000
0000
1010
0000
0010
0000
,
1000
0000
0100
0000
1000
0000
0000
0001
0000
0000
0000
0000
0100
0000
0010
0000
,
1000
0000
0000
0000
1100
0000
0000
0100
0000
0000
0000
0000
0011
0000
0001
0000
,
0100
0000
0010
0000
0100
0000
0000
1000
0000
0000
0000
0000
0100
0000
0001
0000
,
0010
0000
0000
0000
0110
0000
0000
1000
0000
0000
0000
0000
1010
0000
1000
0000
,
0100
0000
0010
0000
0100
0000
0000
0001
0000
0000
0000
0000
0100
0000
1000
0000
,
0010
0000
0100
0000
0010
0000
0000
1000
0000
0001
0000
0000
0110
0000
1001
0000
,
0001
1000
0000
0000
0100
0000
0000
0000
0100
0000
0010
0000
0001
0000
0000
0000
,
0100
0010
1000
0010
0100
0001
1000
0100
,
1000
0001
0000
0000
0100
0000
0000
0000
0100
0000
0010
0000
1000
0000
0000
0000
,
0100
0010
0001
0010
0100
1000
0001
0100
,
0001
1000
0000
0000
0100
0000
0000
0000
0010
0000
0001
0000
0100
0000
0000
0000
,
0001
0010
0001
0100
0010
1000
0100
1000
,
0001
0100
0000
0000
0010
0000
0000
0000
0010
0000
1000
0000
0100
0000
0000
0000
,
1000
0010
1000
0100
0010
0001
0100
0001
,
1000
0000
0001
0000
0010
0000
0000
0001
0000
0000
0100
0000
0010
0000
0100
0000
,
0000
0000
0010
0000
1000
0000
0010
0000
0000
0000
1000
0100
1000
0000
0001
0000
,
0000
1000
0100
1000
0000
0100
0010
0100
,
0000
0000
0010
0000
0001
0000
0010
0000
0000
0000
0001
0100
0001
0000
1000
0000
,
0000
0100
0010
0001
0000
0100
0010
1000
,
0000
0000
0100
0000
0010
0000
0100
0000
0000
0000
1000
0010
1000
0000
0001
0000
,
0000
0100
0010
1000
0000
0100
0010
0001
,
0000
0000
0100
0000
0010
0000
0100
0000
0001
1000
0001
1000
0001
0000
0010
0000
,
0100
0010
0100
0000
0000
0000
0000
0000
0000
0000
0000
0000
0000
0000
0000
0000
,
0001
0000
0000
0100
0000
0000
0010
0000
0000
0000
0000
1000
0100
0000
0010
0000
,
0100
0000
0000
1000
0000
0000
0010
0000
0000
0000
0000
0100
0001
0000
1000
0000
,
1000
0000
0000
0100
0000
0000
0010
0000
0000
0000
0000
0001
0100
0000
0010
0000
,
0100
0000
0001
0000
1000
0000
0100
0010
0000
0001
1000
0000
0000
0000
0000
0000
;

//---------------dance-single - Heavy----------------
#NOTES:
     dance-single:
     Heavy:
     Hard:
     9:
     0.653,0.553,0.178,0.000,0.789,320.000,13.000,0.000,0.000,0.000:
1000
0000
0000
0100
0000
0000
0010
0000
0000
0000
0000
0001
0100
0000
0010
0000
,
1000
0001
0000
0001
0100
0000
0000
0100
0000
0010
1000
0001
1000
0000
0000
0000
,
0001
1000
0000
1000
0100
0000
0000
0100
0000
0010
0001
1000
0001
0000
0000
0000
,
1000
0000
0010
0000
0100
0000
0001
0010
0000
0100
1000
0000
0010
0000
0100
0000
,
0001
1000
0000
1000
0010
0000
0000
0100
0000
0001
0010
0100
0010
0000
0001
0000
,
1000
0001
0000
0001
0010
0000
0000
0100
0000
1000
0010
0100
0010
0000
1000
0000
,
0010
0100
0000
0001
1000
0000
0000
0001
0000
1000
0100
0010
0001
0000
0100
0000
,
0001
0000
0010
0000
0100
0000
1000
0010
0000
0100
0001
0000
0010
0000
0100
0000
,
1000
0010
1000
0000
0100
0000
0000
0001
0000
0000
0000
0000
0001
0100
0010
1000
,
0000
0000
0010
0000
0101
0000
0000
0001
1000
0000
0000
1000
0010
0000
0100
0000
,
0001
0010
0001
0000
0100
0000
0000
1000
0000
0000
0000
0000
1000
0100
0010
0001
,
0000
0000
0010
0000
1100
0000
0000
1000
0001
0000
0000
0001
0010
0000
0100
0000
,
1000
0001
1000
0000
0010
0000
0000
0100
0000
0000
0000
0000
0001
0010
0100
1000
,
0000
0000
0100
0000
0011
0000
0000
0001
1000
0000
0000
1000
0010
0000
0100
0000
,
0001
1000
0001
0000
0010
0000
0000
0100
0000
0000
0000
0000
1000
0010
0100
0001
,
0000
0000
0100
0000
1010
0000
0000
0001
0000
0110
0000
0000
1100
0000
0011
0000
,
0001
1000
0000
0000
0101
0000
0000
0100
0000
0010
1000
0001
1000
0000
0010
1000
,
0001
0000
0100
0000
0001
0000
1000
0100
0000
0001
0100
0000
1000
0000
0010
0000
,
1000
0001
0000
0000
1100
0000
0000
0100
0000
0010
0001
1000
0001
0000
0010
0001
,
1000
0000
0100
0000
1000
0000
0001
0100
0000
1000
0100
0000
0001
0000
0010
0000
,
0001
1000
0000
0000
0101
0000
0000
0100
0000
0010
1000
0100
1000
0000
0100
0010
,
0001
0000
0100
0000
1000
0000
0100
0001
0000
0010
0100
0000
1000
0000
0010
0000
,
1000
0001
0000
0000
1100
0000
0000
0100
0000
0010
0001
0100
0001
0000
0100
0010
,
1000
0000
0100
0000
0001
0000
0100
1000
0000
0010
0100
0001
0010
0000
0100
0000
,
1000
0100
1000
0000
0010
0000
0000
0100
0000
0000
0001
0000
0010
0000
1000
0000
,
0000
0000
1000
0000
0010
0000
0001
0000
0100
0000
0010
0010
0010
0000
1000
0000
,
0001
0100
0001
0000
0010
0000
0100
0000
0000
0000
1000
0000
0010
0000
0001
0000
,
0000
0000
0001
0000
0010
0000
1000
0000
0100
0000
0010
0010
0010
0000
0001
0000
,
1000
0100
1000
0000
0010
0000
0100
0000
0000
0000
0001
0000
0100
0000
1000
0000
,
0000
0000
0001
0000
0010
0000
1000
0000
0100
0000
0010
0010
0010
0000
0001
0000
,
0100
0010
0100
0000
0001
0000
1000
0000
0000
0000
1000
0000
0100
0000
0001
0000
,
0000
0000
1000
0000
0010
0000
0001
0000
0100
0010
0010
0010
0010
0000
0110
0000
,
1000
0001
1001
0000
0000
0000
0000
0000
0000
0000
0000
0000
0000
0000
0000
0000
,
0010
1000
0000
0001
0100
0000
0000
0010
0000
1000
0001
1000
0100
0000
1000
0100
,
0010
0001
0000
1000
0100
0000
0000
0010
0000
0001
0100
0010
1000
0000
0001
0000
,
0010
0001
0000
1000
0100
0000
0000
0010
0000
0001
1000
0001
0100
0000
0010
1000
,
0100
0000
0010
0000
0001
1000
0010
0001
0000
0010
1000
0000
0000
0000
0000
0000
;

//---------------dance-single - ----------------
#NOTES:
     dance-single:
     :
     Beginner:
     2:
     0.171,0.251,0.124,0.000,0.000,78.000,9.000,0.000,0.000,0.000:
0000
0000
0000
0000
,
0000
0000
0000
0000
,
0000
0000
0000
0000
,
1000
0000
0100
0100
,
0100
0000
1000
0000
,
0001
0000
0100
0100
,
0100
0000
0001
0000
,
0010
0010
0010
0000
,
0100
0000
0000
0110
,
0000
1000
0000
0001
,
0001
0000
1000
0000
,
0010
0000
0100
0100
,
0100
0000
0000
0110
,
0000
0001
0000
1000
,
1000
0000
0001
0000
,
0100
0000
0000
0000
,
1000
0000
0000
1000
,
1000
0000
0100
0100
,
0100
0000
0000
0010
,
0010
0000
0001
0001
,
0001
0000
0000
0100
,
0100
0000
0010
0010
,
0010
0000
0000
1000
,
1000
0000
0001
0001
,
0001
0000
0000
0100
,
0000
1000
0000
0110
,
0000
1000
0000
0010
,
0000
0001
0000
1001
,
0000
1000
0000
0100
,
0000
0001
0000
0110
,
0000
0001
0000
0010
,
0000
0110
0110
0110
,
1001
0000
0000
0000
,
1000
0000
0001
0000
,
0100
0100
0100
0100
,
0100
0000
0001
0000
,
0010
0010
0010
0000
;

//---------------dance-single - Copied from Standard----------------
#NOTES:
     dance-single:
     Copied from Standard:
     Challenge:
     8:
     0.514,0.478,0.412,0.041,0.350,229.000,30.000,3.000,0.000,0.000:
0000
0000
0000
0000
,
0000
0000
0000
0000
,
0000
0000
0000
0000
,
1000
0100
0100
0010
0001
0100
1000
0100
,
0001
0000
0010
0000
0100
1000
1100
0000
,
0001
0100
0100
0010
1000
0100
0001
0100
,
1000
0000
0010
0000
0100
0001
0101
0000
,
1000
0000
0100
0000
0100
0000
0010
0001
0000
0100
0010
0000
0000
0000
0000
0000
,
0001
0000
0100
0000
0101
0000
0000
1000
0000
0000
0000
0000
0010
0000
0100
0000
,
0001
0000
0000
0000
1010
0000
0000
0001
0000
0000
0000
0010
0100
0000
0100
0000
,
1000
0000
0100
0000
1100
0000
0000
0001
0000
0000
0000
0000
0010
0000
0100
0000
,
1000
0000
0000
0000
0011
0000
0000
1000
0000
0000
0000
0010
0100
0000
0110
0000
,
0001
0000
1000
0000
1001
0000
0000
0010
0000
0000
0000
0000
1000
0000
0010
0000
,
0001
0000
0000
0000
1100
0000
0000
0010
0000
0000
0000
0001
0100
0000
0000
0000
,
1000
0000
0001
0000
1001
0000
0000
0010
0000
0000
0000
0000
0001
0000
0000
0010
,
1000
0000
0100
0000
0010
0000
0000
0001
0000
1000
0000
0000
1001
0000
0110
0000
,
0100
0010
0000
0000
1001
0000
0000
0010
0000
0010
0000
0001
0100
0000
0000
0000
,
0001
1000
1000
0100
0010
0100
1000
0010
,
0100
0001
0000
0000
1001
0000
0000
0010
0000
0010
0000
1000
0100
0000
0000
0000
,
1000
0001
0001
0100
0010
0100
0001
0010
,
0100
1000
0000
0000
1001
0000
0000
0100
0000
0100
0000
0001
0010
0000
0000
0000
,
0001
0010
0010
0100
1000
0010
0001
0010
,
1000
0100
0000
0000
1001
0000
0000
0100
0000
0100
0000
1000
0010
0000
0000
0000
,
1000
0000
0010
0000
0010
0000
0100
0000
0001
0010
0001
0010
0001
0000
0100
0000
,
0010
0000
1000
0000
0001
0000
0000
0100
0000
0000
0010
0000
1010
0000
0010
0000
,
0000
0000
1000
0000
1100
0000
1000
0000
0000
0000
0100
0010
0100
0000
0110
0000
,
0000
0100
1100
0100
0000
0010
0011
0010
,
0000
0000
0001
0000
0101
0000
0001
0000
0000
0000
0100
0010
0100
0000
0110
0000
,
0000
0001
1010
1000
0000
0100
0011
0001
,
0000
0000
0100
0000
1001
0000
1000
0000
0000
0000
0010
0100
0010
0000
1001
0000
,
0000
0100
0011
0001
0000
0100
1010
1000
,
0000
0000
0100
0000
1001
0000
0001
0000
0100
0010
0100
0010
0100
0000
0010
0000
,
1000
0001
1000
0000
0000
0000
0000
0000
0000
0000
0000
0000
0000
0000
0000
0000
,
0001
0100
0000
0100
0000
0000
0020
0000
0000
0000
0030
1000
0001
0000
1000
0000
,
1000
0100
0000
0100
0000
0000
0020
0000
0000
0000
0030
0001
1000
0000
0001
0000
,
0001
0100
0000
0100
0000
0000
0020
0000
0000
0000
0030
1000
0001
0000
0010
0000
,
1000
0000
0010
0000
0001
0000
0100
1000
0000
0100
0001
0000
0000
0000
0000
0000
;
