#TITLE:Angel Island Zone Act 1;
#SUBTITLE:;
#ARTIST:Sonic Team;
#TITLETRANSLIT:;
#SUBTITLETRANSLIT:;
#ARTISTTRANSLIT:;
#CREDIT:;
#BANNER:;
#BACKGROUND:;
#LYRICSPATH:;
#CDTITLE:;
#MUSIC:Angel Island Zone Act 1.ogg;
#OFFSET:-0.066;
#SAMPLESTART:45.770;
#SAMPLELENGTH:12.000;
#SELECTABLE:YES;
#BPMS:0.000=131.836;
#STOPS:;
#BGCHANGES:;
// cache tags:
#FIRSTBEAT:0.000;
#LASTBEAT:288.000;
#SONGFILENAME:Songs/Owem Extras -l/Angel Island Zone Act 1 - [Braeden & Owem]/Angel Island Zone Act 1.sm;
#HASMUSIC:1;
#HASBANNER:0;
#MUSICLENGTH:135.956;
// end cache tags

//---------------dance-single - 13 (Braeden)----------------
#NOTES:
     dance-single:
     13 (Braeden):
     Hard:
     13:
     1.000,1.000,0.081,0.485,1.000,945.000,11.000,66.000,0.000,0.000:
1000
0100
0010
0001
0010
0100
1000
0100
0010
0001
1000
0100
0010
0001
0010
0100
1000
0001
0100
0010
0100
0001
0010
0100
,
1000
0001
0100
0010
1000
0100
0010
0001
0010
0100
1000
0001
0100
0010
1000
0100
0010
0001
1000
0010
0100
0001
0100
0010
,
1000
0100
0010
0001
1000
0010
0100
0001
0100
0010
0100
0010
1000
0100
0010
0001
0010
0100
1000
0001
0100
0010
0100
0001
,
1000
1000
0010
0100
0001
0001
0100
0010
2000
3200
0320
0130
0000
0000
0000
0000
,
1000
0100
0010
0001
0010
0100
1000
0001
0100
0010
0100
0001
0010
0001
1000
0100
0010
0001
0010
0100
1000
0001
0100
0010
,
0100
0001
0010
0100
1000
0001
0100
0010
0100
0001
0010
0001
1000
0100
0010
0001
0010
0100
1000
0001
0100
0010
0100
0001
,
0100
0010
1000
0100
1000
0001
0010
0100
1000
0001
0100
0010
0100
0001
0010
0001
0100
0010
1000
0001
0010
0100
1000
0001
,
1000
0100
0010
0001
0000
0010
0100
1000
0001
0010
0002
0000
0203
0000
0320
0000
,
2030
3000
0100
2000
3100
0000
0020
0031
0010
0000
0001
1000
0001
0000
1000
0010
,
1000
0000
0100
0010
0000
0001
0100
0010
1000
0000
0200
0310
0200
0300
2000
3000
,
0020
0030
0100
0002
0103
0000
0020
1030
0010
0000
0100
0001
0010
0000
0100
1000
,
0001
0000
0100
0010
0000
1000
0100
0010
0100
0000
2000
3001
0200
0300
0020
0030
,
2000
3000
0100
0020
0031
0000
0200
0310
1000
0000
0100
0010
0100
0000
1000
0001
,
1000
0000
0010
0100
0000
0100
0001
0100
0010
0000
1000
0100
1000
0000
0001
0100
,
0002
0003
1000
0020
0130
0000
0001
0010
0100
0000
1000
0001
0100
0000
0010
1000
,
0001
0000
0100
0010
0000
1000
0100
0010
0001
0010
0100
0010
0001
1000
0001
0100
,
0020
0000
0000
0230
0000
0000
0320
0000
0000
0000
1030
0000
0001
0000
0100
0000
,
0010
0100
1000
0010
0000
0100
0001
0100
0000
1000
0010
0000
0101
0000
0010
1000
,
0200
0000
0000
0320
0000
0000
0032
0000
0000
0000
1003
0000
0010
0000
0100
0000
,
0001
1000
0100
0010
0000
0001
0100
0010
0000
1000
0100
0000
0011
0000
0100
1000
,
0002
0000
0000
0203
0000
0000
0310
0000
0000
1000
0100
0000
0010
0000
0001
1000
,
0010
0100
0001
1000
0000
0100
0010
0100
0000
1000
0001
0000
0101
0000
0010
1000
,
0020
0000
0000
0230
0000
0000
0302
0000
0000
0000
1003
0000
0100
0000
0010
0000
,
0001
0100
0010
1000
0000
0001
0100
0001
1000
0100
1000
0000
0001
0100
0001
0000
,
1000
0100
0010
0001
0010
0100
1000
0001
0100
0010
0100
0001
0010
0001
1000
0100
,
0010
0001
0100
0010
1000
0001
0010
0100
1000
0001
0100
0010
0100
0001
0010
0001
,
1000
0000
0100
0010
0200
0000
0320
0000
0032
0000
1003
0100
0000
0100
1000
0000
,
0002
0000
1003
0010
0100
0001
0100
0010
1000
0100
0000
0100
1000
0000
0001
0000
,
1000
0100
0010
0001
0010
0100
1000
0001
0100
0010
0100
0001
0010
0001
1000
0100
,
0010
0001
0010
0100
1000
0001
0100
0010
0100
0001
0010
0001
1000
0100
0010
0001
,
0200
0000
0320
0000
2030
0000
3200
0000
0310
0000
0001
1000
0000
1000
0001
0000
,
0100
0010
0100
0000
0010
0000
1000
0100
0010
0000
0001
0100
0000
0100
0001
0000
,
2002
0000
3003
1001
0000
0000
1000
0100
0010
0000
0000
0010
0000
0000
0001
0000
,
2002
0000
3003
1001
0000
0000
1000
0100
0010
0000
0001
0100
0010
0000
1000
0100
,
1000
0010
0100
0001
0010
0001
1000
0100
0010
0001
0010
0100
1000
0001
0100
0010
,
2000
0000
0000
0000
0000
0000
0000
0000
3020
0000
0000
0000
0000
0000
0000
0000
1030
0000
0000
0000
0001
1000
0001
1000
0001
0000
0000
0000
0000
0000
0000
0000
,
1000
0100
0010
0001
0010
0100
1000
0001
0010
0001
0100
0010
0100
0001
0010
0001
1000
0100
0010
0001
0010
0100
1000
0001
,
0100
0010
0100
0001
0010
0001
1000
0100
0010
0001
0010
0100
1000
0001
0100
0010
0100
0001
0010
0001
1000
0100
0010
0001
,
0010
0100
1000
0001
0100
0010
0100
0001
0010
0001
1000
0100
0010
0001
0010
0100
1000
0001
0100
0010
0100
0001
0010
0001
,
1000
1000
0010
0100
0001
0010
0100
1000
0001
0010
0100
1000
0000
0000
0000
0000
,
1000
0100
0010
0001
0010
0100
1000
0001
0010
0001
0100
0010
0100
0001
0010
0001
1000
0100
0010
0001
0010
0100
1000
0001
,
0100
0010
0100
0001
0010
0001
1000
0100
0010
0001
0010
0100
1000
0001
0100
0010
0100
0001
0010
0001
1000
0100
0010
0001
,
1000
0010
0100
0001
0100
0010
1000
0001
0010
0100
1000
0001
0100
0010
0100
0001
0010
0001
1000
0100
0010
0001
1000
0010
,
0100
0001
1000
0010
0000
0100
0001
0100
0010
1000
0010
0100
0001
0000
1000
0010
,
0100
0000
0000
0100
0000
0000
0200
0000
0000
0000
0310
0000
1000
0000
0010
0000
,
0100
0000
0010
0100
0000
0010
1000
0010
1000
0000
0020
0000
0230
0000
0302
0000
,
0013
0000
0000
0010
0000
0000
0020
0000
0000
0000
0031
0000
0100
0000
0001
0000
,
1000
0000
0010
1000
0000
0010
1000
0010
0100
0000
0010
1000
0001
0000
0100
0010
,
0100
0000
0010
1000
0000
1000
0010
0000
0010
0000
0100
0000
0001
0000
0010
0000
,
0001
0000
0100
0001
0000
0001
0010
0001
0100
0000
0001
0100
0001
0000
0010
0000
,
0100
0000
0000
1000
0000
0000
0020
0000
0000
0000
0130
0000
0001
0000
0010
0000
,
0001
0000
1000
0001
0000
0001
0100
0001
0100
0000
0001
0010
0001
0000
1000
0001
,
0100
0000
0010
1000
0010
0000
0200
0000
0000
0000
0301
0000
0010
0000
0100
0000
,
1000
0001
0100
0010
0000
1000
0100
0010
0000
0001
0100
0000
0010
0000
1000
0010
,
0100
0000
0000
0001
0000
0000
0200
0000
0000
0000
0310
0000
1000
0000
0010
0000
,
0100
0001
1000
0010
0000
0100
0001
0100
0000
0010
1000
0000
1010
0000
0100
0001
,
0100
0000
0000
0010
0000
0000
2000
0000
0000
0000
3001
0000
0010
0000
0100
0000
,
1000
0001
0100
0010
0000
1000
0100
1000
0000
0001
0100
0000
0101
0000
0010
1000
,
0010
0000
0000
0100
0000
0000
0200
0000
0000
0000
0310
0000
0100
0000
0010
0000
,
0100
0010
0100
0001
0000
0100
0010
0100
0010
1000
0010
0000
0100
0001
0100
0000
,
0001
0010
0100
1000
0001
0010
0001
1000
0100
0010
0001
0010
0100
1000
0001
0100
,
0010
0100
0001
0010
0001
1000
0100
0010
0001
0010
0100
1000
0001
0100
0010
0100
,
0001
0000
1000
0010
1000
0000
0001
0100
0001
0000
0100
0010
0100
0000
0010
1000
,
0010
0000
0100
0001
0100
0000
0010
1000
0010
0100
0000
0100
0001
0000
0000
0000
,
0001
0010
0100
1000
0100
0010
0001
0100
0010
0100
0001
0010
0001
1000
0100
0010
,
0001
0010
0100
1000
0001
0100
0010
0100
0001
0010
0001
1000
0100
0010
0001
1000
,
0010
0000
0100
0001
0100
0000
0010
1000
0010
0000
0000
0100
0000
0000
0001
0000
,
1001
0000
0010
0100
0010
0000
1000
0100
0010
0001
0100
0010
1000
0000
1001
0000
,
0002
0000
0003
0001
0000
0000
0010
0100
0020
0000
0030
0010
0000
0000
0100
0000
,
2000
0000
3000
1000
0000
0000
0010
0100
0002
0000
0003
0001
0000
0000
0100
0000
,
0010
1000
0100
1000
0001
0010
0100
1000
0001
0100
0010
0100
0001
0010
0001
1000
,
0200
0320
0032
2003
,
3010
0000
0000
0000
;

//---------------dance-single - 16 (Owem)----------------
#NOTES:
     dance-single:
     16 (Owem):
     Challenge:
     16:
     1.000,1.000,0.059,0.177,1.000,923.000,8.000,24.000,0.000,0.000:
1000
0000
0000
0000
0000
0000
0000
0100
0000
0000
0000
0000
0000
0000
0010
0000
0000
0000
0000
0000
0000
0001
0000
0000
0000
0000
0000
1000
0000
0000
0000
0000
0000
0000
0010
0000
0000
0000
0000
0000
0000
0100
0000
0000
0000
0000
0000
0000
0001
0000
0000
0000
0000
0000
0000
1000
0000
0000
0000
0000
0000
0000
0100
0000
0000
0000
0000
0000
0000
0010
0000
0000
0000
0000
0000
0001
0000
0000
0000
0000
0000
0000
1000
0000
0000
0000
0000
0000
0000
0010
0000
0000
0000
0000
0000
0000
0100
0000
0000
0000
0000
0000
0000
0001
0000
0000
0000
0000
0000
0000
1000
0000
0000
0000
0000
0000
0000
0100
0000
0000
0000
0000
0000
0010
0000
0000
0000
0000
0000
0000
0001
0000
0000
0000
0000
0000
0000
1000
0000
0000
0000
0000
0000
0000
0010
0000
0000
0000
0000
0000
0000
0100
0000
0000
0000
0000
0000
0000
0001
0000
0000
0000
0000
0000
0000
1000
0000
0000
0000
0000
0000
0001
0000
0000
0000
0000
0000
0000
0010
0000
0000
0000
0000
0000
0000
0100
0000
0000
0000
0000
0000
0000
,
1000
0000
0000
0000
0000
0000
0000
0001
0000
0000
0000
0000
0000
0000
0100
0000
0000
0000
0000
0000
0000
0010
0000
0000
0000
0000
0000
1000
0000
0000
0000
0000
0000
0000
0001
0000
0000
0000
0000
0000
0000
1000
0000
0000
0000
0000
0000
0000
0100
0000
0000
0000
0000
0000
0000
0010
0000
0000
0000
0000
0000
0000
0001
0000
0000
0000
0000
0000
0000
1000
0000
0000
0000
0000
0000
0010
0000
0000
0000
0000
0000
0000
0100
0000
0000
0000
0000
0000
0000
0001
0000
0000
0000
0000
0000
0000
1000
0000
0000
0000
0000
0000
0000
0010
0000
0000
0000
0000
0000
0000
0100
0000
0000
0000
0000
0000
0000
0001
0000
0000
0000
0000
0000
1000
0000
0000
0000
0000
0000
0000
0100
0000
0000
0000
0000
0000
0000
0010
0000
0000
0000
0000
0000
0000
0001
0000
0000
0000
0000
0000
0000
1000
0000
0000
0000
0000
0000
0000
0010
0000
0000
0000
0000
0000
0000
0100
0000
0000
0000
0000
0000
0001
0000
0000
0000
0000
0000
0000
1000
0000
0000
0000
0000
0000
0000
0100
0000
0000
0000
0000
0000
0000
,
0010
0000
0000
0000
0000
0000
0000
0001
0000
0000
0000
0000
0000
0000
1000
0000
0000
0000
0000
0000
0000
0010
0000
0000
0000
0000
0000
0100
0000
0000
0000
0000
0000
0000
0001
0000
0000
0000
0000
0000
0000
1000
0000
0000
0000
0000
0000
0000
0100
0000
0000
0000
0000
0000
0000
0010
0000
0000
0000
0000
0000
0000
0001
0000
0000
0000
0000
0000
0000
1000
0000
0000
0000
0000
0000
0001
0000
0000
0000
0000
0000
0000
0100
0000
0000
0000
0000
0000
0000
0010
0000
0000
0000
0000
0000
0000
1000
0000
0000
0000
0000
0000
0000
0001
0000
0000
0000
0000
0000
0000
0010
0000
0000
0000
0000
0000
0000
0100
0000
0000
0000
0000
0000
1000
0000
0000
0000
0000
0000
0000
0001
0000
0000
0000
0000
0000
0000
1000
0000
0000
0000
0000
0000
0000
0010
0000
0000
0000
0000
0000
0000
0100
0000
0000
0000
0000
0000
0000
0001
0000
0000
0000
0000
0000
0000
1000
0000
0000
0000
0000
0000
0100
0000
0000
0000
0000
0000
0000
0010
0000
0000
0000
0000
0000
0000
0001
0000
0000
0000
0000
0000
0000
,
2000
0000
3010
0100
0010
1000
0001
0010
0100
1000
0001
2000
0000
0000
3010
0000
,
1000
0000
0000
0000
0000
0000
0000
0010
0000
0000
0000
0000
0000
0000
0100
0000
0000
0000
0000
0000
0000
0001
0000
0000
0000
0000
0000
1000
0000
0000
0000
0000
0000
0000
0100
0000
0000
0000
0000
0000
0000
0010
0000
0000
0000
0000
0000
0000
0001
0000
0000
0000
0000
0000
0000
1000
0000
0000
0000
0000
0000
0000
0010
0000
0000
0000
0000
0000
0000
0100
0000
0000
0000
0000
0000
0001
0000
0000
0000
0000
0000
0000
1000
0000
0000
0000
0000
0000
0000
0100
0000
0000
0000
0000
0000
0000
0010
0000
0000
0000
0000
0000
0000
0001
0000
0000
0000
0000
0000
0000
1000
0000
0000
0000
0000
0000
0000
0010
0000
0000
0000
0000
0000
0100
0000
0000
0000
0000
0000
0000
0001
0000
0000
0000
0000
0000
0000
1000
0000
0000
0000
0000
0000
0000
0100
0000
0000
0000
0000
0000
0000
0010
0000
0000
0000
0000
0000
0000
0001
0000
0000
0000
0000
0000
0000
1000
0000
0000
0000
0000
0000
0001
0000
0000
0000
0000
0000
0000
0100
0000
0000
0000
0000
0000
0000
0010
0000
0000
0000
0000
0000
0000
,
1000
0000
0000
0000
0000
0000
0000
0001
0000
0000
0000
0000
0000
0000
0010
0000
0000
0000
0000
0000
0000
0100
0000
0000
0000
0000
0000
1000
0000
0000
0000
0000
0000
0000
0001
0000
0000
0000
0000
0000
0000
1000
0000
0000
0000
0000
0000
0000
0010
0000
0000
0000
0000
0000
0000
0100
0000
0000
0000
0000
0000
0000
0001
0000
0000
0000
0000
0000
0000
1000
0000
0000
0000
0000
0000
0100
0000
0000
0000
0000
0000
0000
0010
0000
0000
0000
0000
0000
0000
0001
0000
0000
0000
0000
0000
0000
1000
0000
0000
0000
0000
0000
0000
0100
0000
0000
0000
0000
0000
0000
0010
0000
0000
0000
0000
0000
0000
0001
0000
0000
0000
0000
0000
1000
0000
0000
0000
0000
0000
0000
0010
0000
0000
0000
0000
0000
0000
0100
0000
0000
0000
0000
0000
0000
0001
0000
0000
0000
0000
0000
0000
1000
0000
0000
0000
0000
0000
0000
0100
0000
0000
0000
0000
0000
0000
0010
0000
0000
0000
0000
0000
0001
0000
0000
0000
0000
0000
0000
1000
0000
0000
0000
0000
0000
0000
0010
0000
0000
0000
0000
0000
0000
,
0100
0000
0000
0000
0000
0000
0000
0001
0000
0000
0000
0000
0000
0000
1000
0000
0000
0000
0000
0000
0000
0100
0000
0000
0000
0000
0000
0010
0000
0000
0000
0000
0000
0000
0001
0000
0000
0000
0000
0000
0000
1000
0000
0000
0000
0000
0000
0000
0010
0000
0000
0000
0000
0000
0000
0100
0000
0000
0000
0000
0000
0000
0001
0000
0000
0000
0000
0000
0000
1000
0000
0000
0000
0000
0000
0001
0000
0000
0000
0000
0000
0000
0010
0000
0000
0000
0000
0000
0000
0100
0000
0000
0000
0000
0000
0000
1000
0000
0000
0000
0000
0000
0000
0001
0000
0000
0000
0000
0000
0000
0100
0000
0000
0000
0000
0000
0000
0010
0000
0000
0000
0000
0000
1000
0000
0000
0000
0000
0000
0000
0001
0000
0000
0000
0000
0000
0000
1000
0000
0000
0000
0000
0000
0000
0100
0000
0000
0000
0000
0000
0000
0010
0000
0000
0000
0000
0000
0000
0001
0000
0000
0000
0000
0000
0000
1000
0000
0000
0000
0000
0000
0010
0000
0000
0000
0000
0000
0000
0100
0000
0000
0000
0000
0000
0000
0001
0000
0000
0000
0000
0000
0000
,
1000
0010
0100
0001
1000
0100
0010
0001
1000
0010
0100
0000
0001
0000
1000
0000
,
0100
0000
0000
0010
0000
0000
0002
0000
0000
0000
0000
0000
0000
0000
0000
0000
,
0003
0000
1000
0100
0000
0010
0001
0010
0001
0000
1000
0000
0010
0000
0100
0000
,
0010
0000
0000
1000
0000
0000
0002
0000
0000
0000
0000
0000
0000
0000
0000
0000
,
0003
0000
0100
0010
0000
1000
0100
1000
0100
0000
0010
0001
1000
0000
0010
0000
,
0100
0000
0000
0001
0000
0000
2000
0000
0000
0000
0000
0000
0000
0000
0000
0000
,
3000
0000
0010
1000
0000
0001
0100
0001
0100
0000
0010
0000
1000
0000
0001
0000
,
1000
0000
0000
0100
0000
0000
0020
0000
0000
0000
0000
0000
0000
0000
0000
0000
,
0030
0000
0001
1000
0000
0010
0100
0010
0100
0000
0001
0200
0000
0000
0310
1000
,
0001
0000
0000
0010
0000
0000
0200
0000
0000
0300
1000
0000
0001
0000
0100
0000
,
0010
0000
1000
0001
0000
0010
0000
0100
0000
1000
0100
0000
0010
0000
0001
1000
,
0100
0000
0000
0010
0000
0000
0002
0000
0000
0003
0010
0000
0100
0000
1000
0000
,
0001
0000
0100
0010
0000
0100
0000
0001
0000
1000
0100
0000
0010
0000
0001
1000
,
0001
0000
0000
0010
0000
0000
0100
0000
0000
1000
0010
0000
0100
0000
0001
0000
,
1000
0000
0100
0010
0000
0001
0000
1000
0000
0010
1000
0000
0001
0000
0010
0100
,
1000
0000
0000
0001
0000
0000
0200
0000
0000
0300
0010
0000
1000
0000
0010
0000
,
0100
0000
0001
1000
0000
0100
0000
0010
0001
1000
0010
0100
0010
1000
0001
0010
,
0100
1000
0010
1000
0001
0100
0010
1000
0010
0100
0001
1000
0100
1000
0001
1000
,
0010
0100
0001
0100
0010
1000
0001
1000
0100
0010
0001
1000
0100
0010
0100
1000
,
0001
0100
0010
0100
0001
1000
0010
0000
0000
0100
0000
0000
0001
1000
0001
0010
0100
1000
0010
0000
0000
0100
0000
0000
,
0001
0000
0000
1000
0000
0000
0100
0000
0010
0001
0000
1000
0010
0000
0100
0000
,
0001
1000
0010
0100
0010
1000
0100
1000
0001
0010
0100
1000
0001
0010
0001
1000
,
0001
0100
0010
1000
0010
0100
0001
1000
0100
0010
0001
1000
0100
1000
0010
0100
,
0001
1000
0010
1000
0100
0010
0001
0000
0000
0100
0000
0000
0010
1000
0010
0100
0001
1000
0100
0000
0000
0010
0000
0000
,
0001
0000
0000
0100
0000
0000
0010
0000
1000
0000
0000
0001
0010
0000
0100
0000
,
1100
0000
0000
0110
0000
0000
0001
1000
0010
0000
0000
0100
0000
0000
0001
0000
,
0101
0000
0000
0110
0000
0000
1000
0010
0100
0000
0000
0001
0000
0000
1000
0000
,
0100
0010
0001
1000
0001
0100
0010
1000
0010
0100
0001
1000
0100
0010
0001
1000
,
0020
0000
0000
0000
0000
0000
0000
0000
0130
0000
0001
0000
1000
0000
0010
0000
0000
0000
0100
0000
0000
0000
0001
1000
0002
0000
0000
0000
0000
0000
0000
0000
,
1003
0000
0000
0000
0000
0000
0000
0010
0000
0000
0000
0000
0000
0000
0100
0000
0000
0000
0000
0000
0000
0001
0000
0000
0000
0000
0000
1000
0000
0000
0000
0000
0000
0000
0100
0000
0000
0000
0000
0000
0000
0010
0000
0000
0000
0000
0000
0000
0001
0000
0000
0000
0000
0000
0000
1000
0000
0000
0000
0000
0000
0000
0010
0000
0000
0000
0000
0000
0000
0100
0000
0000
0000
0000
0000
0001
0000
0000
0000
0000
0000
0000
1000
0000
0000
0000
0000
0000
0000
0100
0000
0000
0000
0000
0000
0000
0010
0000
0000
0000
0000
0000
0000
0001
0000
0000
0000
0000
0000
0000
1000
0000
0000
0000
0000
0000
0000
0010
0000
0000
0000
0000
0000
0100
0000
0000
0000
0000
0000
0000
0001
0000
0000
0000
0000
0000
0000
1000
0000
0000
0000
0000
0000
0000
0100
0000
0000
0000
0000
0000
0000
0010
0000
0000
0000
0000
0000
0000
0001
0000
0000
0000
0000
0000
0000
1000
0000
0000
0000
0000
0000
0001
0000
0000
0000
0000
0000
0000
0100
0000
0000
0000
0000
0000
0000
0010
0000
0000
0000
0000
0000
0000
,
1000
0000
0000
0000
0000
0000
0000
0001
0000
0000
0000
0000
0000
0000
0010
0000
0000
0000
0000
0000
0000
0100
0000
0000
0000
0000
0000
1000
0000
0000
0000
0000
0000
0000
0001
0000
0000
0000
0000
0000
0000
1000
0000
0000
0000
0000
0000
0000
0010
0000
0000
0000
0000
0000
0000
0100
0000
0000
0000
0000
0000
0000
0001
0000
0000
0000
0000
0000
0000
1000
0000
0000
0000
0000
0000
0100
0000
0000
0000
0000
0000
0000
0010
0000
0000
0000
0000
0000
0000
0001
0000
0000
0000
0000
0000
0000
1000
0000
0000
0000
0000
0000
0000
0100
0000
0000
0000
0000
0000
0000
0010
0000
0000
0000
0000
0000
0000
0001
0000
0000
0000
0000
0000
1000
0000
0000
0000
0000
0000
0000
0010
0000
0000
0000
0000
0000
0000
0100
0000
0000
0000
0000
0000
0000
0001
0000
0000
0000
0000
0000
0000
1000
0000
0000
0000
0000
0000
0000
0100
0000
0000
0000
0000
0000
0000
0010
0000
0000
0000
0000
0000
0001
0000
0000
0000
0000
0000
0000
1000
0000
0000
0000
0000
0000
0000
0010
0000
0000
0000
0000
0000
0000
,
0100
0000
0000
0000
0000
0000
0000
0001
0000
0000
0000
0000
0000
0000
1000
0000
0000
0000
0000
0000
0000
0100
0000
0000
0000
0000
0000
0010
0000
0000
0000
0000
0000
0000
0001
0000
0000
0000
0000
0000
0000
1000
0000
0000
0000
0000
0000
0000
0010
0000
0000
0000
0000
0000
0000
0100
0000
0000
0000
0000
0000
0000
0001
0000
0000
0000
0000
0000
0000
1000
0000
0000
0000
0000
0000
0001
0000
0000
0000
0000
0000
0000
0010
0000
0000
0000
0000
0000
0000
0100
0000
0000
0000
0000
0000
0000
1000
0000
0000
0000
0000
0000
0000
0001
0000
0000
0000
0000
0000
0000
0100
0000
0000
0000
0000
0000
0000
0010
0000
0000
0000
0000
0000
1000
0000
0000
0000
0000
0000
0000
0001
0000
0000
0000
0000
0000
0000
1000
0000
0000
0000
0000
0000
0000
0100
0000
0000
0000
0000
0000
0000
0010
0000
0000
0000
0000
0000
0000
0001
0000
0000
0000
0000
0000
0000
1000
0000
0000
0000
0000
0000
0010
0000
0000
0000
0000
0000
0000
0100
0000
0000
0000
0000
0000
0000
0001
0000
0000
0000
0000
0000
0000
,
2000
0000
3100
0010
0100
1000
0001
0100
0010
1000
0001
2000
0000
0000
3100
0000
,
1000
0000
0000
0000
0000
0000
0000
0100
0000
0000
0000
0000
0000
0000
0010
0000
0000
0000
0000
0000
0000
0001
0000
0000
0000
0000
0000
1000
0000
0000
0000
0000
0000
0000
0010
0000
0000
0000
0000
0000
0000
0100
0000
0000
0000
0000
0000
0000
0001
0000
0000
0000
0000
0000
0000
1000
0000
0000
0000
0000
0000
0000
0100
0000
0000
0000
0000
0000
0000
0010
0000
0000
0000
0000
0000
0001
0000
0000
0000
0000
0000
0000
1000
0000
0000
0000
0000
0000
0000
0010
0000
0000
0000
0000
0000
0000
0100
0000
0000
0000
0000
0000
0000
0001
0000
0000
0000
0000
0000
0000
1000
0000
0000
0000
0000
0000
0000
0100
0000
0000
0000
0000
0000
0010
0000
0000
0000
0000
0000
0000
0001
0000
0000
0000
0000
0000
0000
1000
0000
0000
0000
0000
0000
0000
0010
0000
0000
0000
0000
0000
0000
0100
0000
0000
0000
0000
0000
0000
0001
0000
0000
0000
0000
0000
0000
1000
0000
0000
0000
0000
0000
0001
0000
0000
0000
0000
0000
0000
0010
0000
0000
0000
0000
0000
0000
0100
0000
0000
0000
0000
0000
0000
,
1000
0000
0000
0000
0000
0000
0000
0001
0000
0000
0000
0000
0000
0000
0100
0000
0000
0000
0000
0000
0000
0010
0000
0000
0000
0000
0000
1000
0000
0000
0000
0000
0000
0000
0001
0000
0000
0000
0000
0000
0000
1000
0000
0000
0000
0000
0000
0000
0100
0000
0000
0000
0000
0000
0000
0010
0000
0000
0000
0000
0000
0000
0001
0000
0000
0000
0000
0000
0000
1000
0000
0000
0000
0000
0000
0010
0000
0000
0000
0000
0000
0000
0100
0000
0000
0000
0000
0000
0000
0001
0000
0000
0000
0000
0000
0000
1000
0000
0000
0000
0000
0000
0000
0010
0000
0000
0000
0000
0000
0000
0100
0000
0000
0000
0000
0000
0000
0001
0000
0000
0000
0000
0000
1000
0000
0000
0000
0000
0000
0000
0100
0000
0000
0000
0000
0000
0000
0010
0000
0000
0000
0000
0000
0000
0001
0000
0000
0000
0000
0000
0000
1000
0000
0000
0000
0000
0000
0000
0010
0000
0000
0000
0000
0000
0000
0100
0000
0000
0000
0000
0000
0001
0000
0000
0000
0000
0000
0000
1000
0000
0000
0000
0000
0000
0000
0100
0000
0000
0000
0000
0000
0000
,
0010
0000
0000
0000
0000
0000
0000
0001
0000
0000
0000
0000
0000
0000
1000
0000
0000
0000
0000
0000
0000
0010
0000
0000
0000
0000
0000
0100
0000
0000
0000
0000
0000
0000
0001
0000
0000
0000
0000
0000
0000
1000
0000
0000
0000
0000
0000
0000
0100
0000
0000
0000
0000
0000
0000
0010
0000
0000
0000
0000
0000
0000
0001
0000
0000
0000
0000
0000
0000
1000
0000
0000
0000
0000
0000
0001
0000
0000
0000
0000
0000
0000
0100
0000
0000
0000
0000
0000
0000
0010
0000
0000
0000
0000
0000
0000
1000
0000
0000
0000
0000
0000
0000
0001
0000
0000
0000
0000
0000
0000
0010
0000
0000
0000
0000
0000
0000
0100
0000
0000
0000
0000
0000
1000
0000
0000
0000
0000
0000
0000
0001
0000
0000
0000
0000
0000
0000
1000
0000
0000
0000
0000
0000
0000
0010
0000
0000
0000
0000
0000
0000
0100
0000
0000
0000
0000
0000
0000
0001
0000
0000
0000
0000
0000
0000
1000
0000
0000
0000
0000
0000
0100
0000
0000
0000
0000
0000
0000
0010
0000
0000
0000
0000
0000
0000
0001
0000
0000
0000
0000
0000
0000
,
1000
0100
0010
0001
1000
0010
0100
0001
1000
0100
0010
0000
0001
0000
1000
0000
,
0010
0000
0000
0100
0000
0000
0002
0000
0000
0000
0000
0000
0000
0000
0000
0000
,
0003
0000
1000
0010
0000
0100
0001
0100
0001
0000
1000
0000
0100
0000
0010
0000
,
0100
0000
0000
1000
0000
0000
0002
0000
0000
0000
0000
0000
0000
0000
0000
0000
,
0003
0000
0010
0100
0000
1000
0010
1000
0010
0000
0100
0001
1000
0000
0100
0000
,
0010
0000
0000
0001
0000
0000
2000
0000
0000
0000
0000
0000
0000
0000
0000
0000
,
3000
0000
0100
1000
0000
0001
0010
0001
0010
0000
0100
0000
1000
0000
0001
0000
,
1000
0000
0000
0010
0000
0000
0200
0000
0000
0000
0000
0000
0000
0000
0000
0000
,
0300
0000
0001
1000
0000
0100
0010
0100
0010
0000
0001
0020
0000
0000
0130
1000
,
0001
0000
0000
0100
0000
0000
0020
0000
0000
0030
1000
0000
0001
0000
0010
0000
,
0100
0000
1000
0001
0000
0100
0000
0010
0000
1000
0010
0000
0100
0000
0001
1000
,
0010
0000
0000
0100
0000
0000
0002
0000
0000
0003
0100
0000
0010
0000
1000
0000
,
0001
0000
0010
0100
0000
0010
0000
0001
0000
1000
0010
0000
0100
0000
0001
1000
,
0001
0000
0000
0100
0000
0000
0010
0000
0000
1000
0100
0000
0010
0000
0001
0000
,
1000
0000
0010
0100
0000
0001
0000
1000
0000
0100
1000
0000
0001
0000
0100
0010
,
1000
0000
0000
0001
0000
0000
0020
0000
0000
0030
0100
0000
1000
0000
0100
0000
,
0010
0000
0001
1000
0000
0010
0000
0100
0001
1000
0100
0010
0100
1000
0001
0100
,
0010
1000
0100
1000
0001
0010
0100
1000
0100
0010
0001
1000
0010
1000
0001
1000
,
0100
0010
0001
0010
0100
1000
0001
1000
0010
0100
0001
1000
0010
0100
0010
1000
,
0001
0010
0100
0010
0001
1000
0100
0000
0000
0010
0000
0000
0001
1000
0001
0100
0010
1000
0100
0000
0000
0010
0000
0000
,
0001
0000
0000
1000
0000
0000
0010
0000
0100
0001
0000
1000
0100
0000
0010
0000
,
0001
1000
0100
0010
0100
1000
0010
1000
0001
0100
0010
1000
0001
0100
0001
1000
,
0001
0010
0100
1000
0100
0010
0001
1000
0010
0100
0001
1000
0010
1000
0100
0010
,
0001
1000
0100
1000
0010
0100
0001
0000
0000
0010
0000
0000
0100
1000
0100
0010
0001
1000
0010
0000
0000
0100
0000
0000
,
0001
0000
0000
0010
0000
0000
0100
0000
1000
0000
0000
0001
0100
0000
0010
0000
,
1010
0000
0000
0110
0000
0000
0001
1000
0100
0000
0000
0010
0000
0000
0001
0000
,
0011
0000
0000
0110
0000
0000
1000
0100
0010
0000
0000
0001
0000
0000
1000
0000
,
0010
0100
0001
1000
0001
0010
0100
1000
0100
0010
0001
1000
0010
0100
0001
1000
,
0200
0000
0000
0000
0000
0000
0000
0000
0310
0000
0001
0000
1000
0000
0100
0000
0000
0000
0010
0000
0000
0000
0001
1000
0002
0000
0000
0000
0000
0000
0000
0000
,
1003
0000
0000
0000
;

//---------------dance-single - 19 (Owem)----------------
#NOTES:
     dance-single:
     19 (Owem):
     Edit:
     19:
     1.000,1.000,0.059,0.177,1.000,971.000,8.000,24.000,0.000,0.000:
1000
0100
0010
0001
1000
0001
0100
0010
1000
0010
0100
0001
1000
0010
1000
0100
0010
0001
1000
0100
1000
0001
0010
0001
0100
0010
1000
0010
0100
0001
1000
0100
,
1000
0001
0010
0001
0100
0010
1000
0010
0100
0001
1000
0100
1000
0001
0010
0001
0100
0010
1000
0010
0100
0001
1000
0100
0010
0001
0010
0100
1000
0001
0010
0001
,
1000
0010
0100
0010
1000
0001
0100
0001
0010
0100
1000
0001
0100
0010
1000
0010
0100
0001
1000
0100
1000
0010
0100
0001
0100
0010
1000
0001
1000
0100
0010
0001
,
2000
0000
3010
0100
0010
1000
0001
0010
0100
1000
0001
2000
0000
0000
3010
0000
,
0100
0001
1000
0010
1000
0100
0010
0001
1000
0100
1000
0010
0100
0001
0100
0010
1000
0001
1000
0100
0010
0001
1000
0100
1000
0001
0010
0001
0100
0010
1000
0010
,
0100
0001
1000
0100
1000
0001
0010
0001
0100
0010
1000
0010
0100
0001
1000
0100
1000
0001
0010
0001
0100
0010
1000
0010
0100
0001
1000
0100
1000
0010
0100
0010
,
1000
0001
0010
0001
0100
0010
1000
0010
0100
0001
1000
0100
0010
0001
1000
0100
1000
0001
0010
0001
0100
0010
1000
0010
0100
0001
1000
0100
1000
0001
0010
0100
,
1000
0010
0100
0001
1000
0100
0010
0001
1000
0010
0100
0000
0001
0000
1000
0000
,
0100
0000
0000
0010
0000
0000
0002
0000
0000
0000
0000
0000
0000
0000
0000
0000
,
0003
0000
1000
0100
0000
0010
0001
0010
0001
0000
1000
0000
0010
0000
0100
0000
,
0010
0000
0000
1000
0000
0000
0002
0000
0000
0000
0000
0000
0000
0000
0000
0000
,
0003
0000
0100
0010
0000
1000
0100
1000
0100
0000
0010
0001
1000
0000
0010
0000
,
0100
0000
0000
0001
0000
0000
2000
0000
0000
0000
0000
0000
0000
0000
0000
0000
,
3000
0000
0010
1000
0000
0001
0100
0001
0100
0000
0010
0000
1000
0000
0001
0000
,
1000
0000
0000
0100
0000
0000
0020
0000
0000
0000
0000
0000
0000
0000
0000
0000
,
0030
0000
0001
1000
0000
0010
0100
0010
0100
0000
0001
0200
0000
0000
0310
1000
,
0001
0000
0000
0010
0000
0000
0200
0000
0000
0300
1000
0000
0001
0000
0100
0000
,
0010
0000
1000
0001
0000
0010
0000
0100
0000
1000
0100
0000
0010
0000
0001
1000
,
0100
0000
0000
0010
0000
0000
0002
0000
0000
0003
0010
0000
0100
0000
1000
0000
,
0001
0000
0100
0010
0000
0100
0000
0001
0000
1000
0100
0000
0010
0000
0001
1000
,
0001
0000
0000
0010
0000
0000
0100
0000
0000
1000
0010
0000
0100
0000
0001
0000
,
1000
0000
0100
0010
0000
0001
0000
1000
0000
0010
1000
0000
0001
0000
0010
0100
,
1000
0000
0000
0001
0000
0000
0200
0000
0000
0300
0010
0000
1000
0000
0010
0000
,
0100
0000
0001
1000
0000
0100
0000
0010
0001
1000
0010
0100
0010
1000
0001
0010
,
0100
1000
0010
1000
0001
0100
0010
1000
0010
0100
0001
1000
0100
1000
0001
1000
,
0010
0100
0001
0100
0010
1000
0001
1000
0100
0010
0001
1000
0100
0010
0100
1000
,
0001
0100
0010
0100
0001
1000
0010
0000
0000
0100
0000
0000
0001
1000
0001
0010
0100
1000
0010
0000
0000
0100
0000
0000
,
0001
0000
0000
1000
0000
0000
0100
0000
0010
0001
0000
1000
0010
0000
0100
0000
,
0001
1000
0010
0100
0010
1000
0100
1000
0001
0010
0100
1000
0001
0010
0001
1000
,
0001
0100
0010
1000
0010
0100
0001
1000
0100
0010
0001
1000
0100
1000
0010
0100
,
0001
1000
0010
1000
0100
0010
0001
0000
0000
0100
0000
0000
0010
1000
0010
0100
0001
1000
0100
0000
0000
0010
0000
0000
,
0001
0000
0000
0100
0000
0000
0010
0000
1000
0000
0000
0001
0010
0000
0100
0000
,
1100
0000
0000
0110
0000
0000
0001
1000
0010
0000
0000
0100
0000
0000
0001
0000
,
0101
0000
0000
0110
0000
0000
1000
0010
0100
0000
0000
0001
0000
0000
1000
0000
,
0100
0010
0001
1000
0001
0100
0010
1000
0010
0100
0001
1000
0100
0010
0001
1000
,
0020
0000
0000
0000
0000
0000
0000
0000
0130
0000
0001
0000
1000
0000
0010
0000
0000
0000
0100
0000
0000
0000
0001
1000
0002
0000
0000
0000
0000
0000
0000
0000
,
1003
0010
0100
0010
1000
0001
0100
0010
1000
0010
0100
0001
1000
0010
1000
0100
0010
0001
1000
0100
1000
0001
0010
0001
0100
0010
1000
0010
0100
0001
1000
0100
,
1000
0001
0010
0001
0100
0010
1000
0010
0100
0001
1000
0100
1000
0001
0010
0001
0100
0010
1000
0010
0100
0001
1000
0100
0010
0001
0010
0100
1000
0001
0010
0001
,
1000
0010
0100
0010
1000
0001
0100
0001
0010
0100
1000
0001
0100
0010
1000
0010
0100
0001
1000
0100
1000
0010
0100
0001
0100
0010
1000
0001
1000
0100
0010
0001
,
2000
0000
3010
0100
0010
1000
0001
0010
0100
1000
0001
2000
0000
0000
3010
0000
,
0100
0001
1000
0010
1000
0100
0010
0001
1000
0100
1000
0010
0100
0001
0100
0010
1000
0001
1000
0100
0010
0001
1000
0100
1000
0001
0010
0001
0100
0010
1000
0010
,
0100
0001
1000
0100
1000
0001
0010
0001
0100
0010
1000
0010
0100
0001
1000
0100
1000
0001
0010
0001
0100
0010
1000
0010
0100
0001
1000
0100
1000
0010
0100
0010
,
1000
0001
0010
0001
0100
0010
1000
0010
0100
0001
1000
0100
0010
0001
1000
0100
1000
0001
0010
0001
0100
0010
1000
0010
0100
0001
1000
0100
1000
0001
0010
0100
,
1000
0010
0100
0001
1000
0010
1000
0001
0100
0001
0010
0000
0100
0000
1000
0000
,
0100
0000
0000
0010
0000
0000
0002
0000
0000
0000
0000
0000
0000
0000
0000
0000
,
0003
0000
1000
0100
0000
0010
0001
0010
0001
0000
1000
0000
0010
0000
0100
0000
,
0010
0000
0000
1000
0000
0000
0002
0000
0000
0000
0000
0000
0000
0000
0000
0000
,
0003
0000
0100
0010
0000
1000
0100
1000
0100
0000
0010
0001
1000
0000
0010
0000
,
0100
0000
0000
0001
0000
0000
2000
0000
0000
0000
0000
0000
0000
0000
0000
0000
,
3000
0000
0010
1000
0000
0001
0100
0001
0100
0000
0010
0000
1000
0000
0001
0000
,
1000
0000
0000
0100
0000
0000
0020
0000
0000
0000
0000
0000
0000
0000
0000
0000
,
0030
0000
0001
1000
0000
0010
0100
0010
0100
0000
0001
0200
0000
0000
0310
1000
,
0001
0000
0000
0010
0000
0000
0200
0000
0000
0300
1000
0000
0001
0000
0100
0000
,
0010
0000
1000
0001
0000
0010
0000
0100
0000
1000
0100
0000
0010
0000
0001
1000
,
0100
0000
0000
0010
0000
0000
0002
0000
0000
0003
0010
0000
0100
0000
1000
0000
,
0001
0000
0100
0010
0000
0100
0000
0001
0000
1000
0100
0000
0010
0000
0001
1000
,
0001
0000
0000
0010
0000
0000
0100
0000
0000
1000
0010
0000
0100
0000
0001
0000
,
1000
0000
0100
0010
0000
0001
0000
1000
0000
0010
1000
0000
0001
0000
0010
0100
,
1000
0000
0000
0001
0000
0000
0200
0000
0000
0300
0010
0000
1000
0000
0010
0000
,
0100
0000
0001
1000
0000
0100
0000
0010
0001
1000
0010
0100
0010
1000
0001
0010
,
0100
1000
0010
1000
0001
0100
0010
1000
0010
0100
0001
1000
0100
1000
0001
1000
,
0010
0100
0001
0100
0010
1000
0001
1000
0100
0010
0001
1000
0100
0010
0100
1000
,
0001
0100
0010
0100
0001
1000
0010
0000
0000
0100
0000
0000
0001
1000
0001
0010
0100
1000
0010
0000
0000
0100
0000
0000
,
0001
0000
0000
1000
0000
0000
0100
0000
0010
0001
0000
1000
0010
0000
0100
0000
,
0001
1000
0010
0100
0010
1000
0100
1000
0001
0010
0100
1000
0001
0010
0001
1000
,
0001
0100
0010
1000
0010
0100
0001
1000
0100
0010
0001
1000
0100
1000
0010
0100
,
0001
1000
0010
1000
0100
0010
0001
0000
0000
0100
0000
0000
0010
1000
0010
0100
0001
1000
0100
0000
0000
0010
0000
0000
,
0001
0000
0000
0100
0000
0000
0010
0000
1000
0000
0000
0001
0010
0000
0100
0000
,
1100
0000
0000
0110
0000
0000
0001
1000
0010
0000
0000
0100
0000
0000
0001
0000
,
0101
0000
0000
0110
0000
0000
1000
0010
0100
0000
0000
0001
0000
0000
1000
0000
,
0100
0010
0001
1000
0001
0100
0010
1000
0010
0100
0001
1000
0100
0010
0001
1000
,
0020
0000
0000
0000
0000
0000
0000
0000
0130
0000
0001
0000
1000
0000
0010
0000
0000
0000
0100
0000
0000
0000
0001
1000
0002
0000
0000
0000
0000
0000
0000
0000
,
1003
0000
0000
0000
;
