#TITLE:44 Edit;
#SUBTITLE:;
#ARTIST:Terminal 11;
#TITLETRANSLIT:;
#SUBTITLETRANSLIT:;
#ARTISTTRANSLIT:;
#CREDIT:NEMO;
#BANNER:44 Edit.png;
#BACKGROUND:44 Edit BG.png;
#LYRICSPATH:;
#CDTITLE:NEMORIGINAL.png;
#MUSIC:44 Edit ~NEMO EDIT~.ogg;
#OFFSET:-7.640;
#SAMPLESTART:90.335;
#SAMPLELENGTH:12.000;
#SELECTABLE:YES;
#DISPLAYBPM:127.000;
#BPMS:0.000=127.620,2.000=100.000,2.375=176.000,2.750=127.620,19.000=200.000,19.375=61.000,19.500=127.620,28.500=100.000,28.750=176.000,29.000=127.620,35.000=200.000,35.375=61.000,35.500=127.620,44.500=100.000,44.750=176.000,45.000=127.620,51.000=200.000,51.375=61.000,51.500=127.620,67.000=200.000,67.375=61.000,67.500=127.620,71.000=100.000,71.125=176.000,71.250=127.620,71.375=100.000,71.500=176.000,71.625=127.620,72.000=100.000,72.125=176.000,72.250=127.620,72.375=100.000,72.500=176.000,72.625=127.620,73.000=100.000,73.125=176.000,73.250=127.620,73.375=100.000,73.500=176.000,73.625=127.620,86.000=100.000,86.250=176.000,86.500=100.000,86.750=176.000,87.000=100.000,87.250=176.000,87.500=100.000,87.750=176.000,88.000=127.620,99.000=200.000,99.375=61.000,99.500=127.620,102.000=510.480,102.500=127.620,114.000=100.000,114.250=176.000,114.500=127.620,115.000=200.000,115.375=61.000,115.500=127.620,118.000=510.480,118.500=127.620,133.000=170.000,133.667=85.000,134.000=510.480,134.500=127.620,145.250=176.000,145.500=100.000,145.750=176.000,146.000=100.000,146.250=176.000,146.500=100.000,146.750=176.000,146.875=100.000,147.000=176.000,147.125=100.000,147.250=176.000,147.500=100.000,147.750=176.000,147.875=100.000,148.000=127.620,149.000=170.000,149.667=85.000,150.000=510.480,150.500=127.620,165.000=170.000,165.667=85.000,166.000=510.480,166.500=127.620,181.000=170.000,181.667=85.000,182.000=170.000,182.667=85.000,183.000=170.000,183.667=85.000,184.000=127.620,197.000=170.000,197.667=85.000,198.000=127.620,211.000=63.810,213.000=80.000,213.125=100.000,213.250=120.000,213.375=140.000,213.500=160.000,213.625=163.000,214.000=127.620,225.000=63.810;
#STOPS:102.000=0.088
,102.250=0.088
,118.000=0.088
,118.250=0.088
,134.000=0.088
,134.250=0.088
,150.000=0.088
,150.250=0.088
,166.000=0.088
,166.250=0.088
;
#BGCHANGES:;
// cache tags:
#FIRSTBEAT:0.000;
#LASTBEAT:225.500;
#SONGFILENAME:Songs/SSSC Pack 2/44 Edit - [Nemo]/44 Edit.sm;
#HASMUSIC:1;
#HASBANNER:1;
#MUSICLENGTH:116.230;
// end cache tags

//---------------dance-single - NEMORIGINAL----------------
#NOTES:
     dance-single:
     NEMORIGINAL:
     Challenge:
     15:
     1.000,1.000,0.336,0.009,1.000,995.000,39.000,1.000,8.000,0.000:

1000
0010
0100
0001
0000
0000
0000
0000
0010
0000
0010
0000
0000
0000
0000
0000
0011
0000
0000
0000
0000
0000
0001
0100
0010
0000
0000
0000
1000
0000
0000
0000
,
1001
0000
0000
0000
0010
0000
0000
0000
0000
0000
0000
0000
0001
0000
0000
0000
0100
0000
0000
0000
0001
0010
0100
1000
0010
0000
1000
0010
0100
0001
1000
0100
,
0010
0010
0010
0010
0000
0000
0000
0000
0000
0000
0000
0000
0001
0000
0001
0000
,
4004
0000
0000
0000
0000
0000
0000
0000
0000
0000
0000
0000
0000
0000
0000
0000
0000
0000
0000
0000
0000
0000
3003
0000
1000
0100
0010
0001
0000
1000
0010
0100
,
0001
1000
0001
0100
0000
0000
0010
1000
0001
0000
0001
0000
0000
0000
0000
0000
0101
0000
0000
0000
M000
0000
0001
0010
0100
0000
0000
0000
0110
0000
0000
0000
,
1100
0000
1000
0100
0010
0001
0010
0000
0100
0000
0000
0000
1000
0000
0000
0000
0010
0000
0000
0000
1000
0010
0100
0001
1000
0100
0010
0100
1000
0001
0100
0010
,
0100
0000
0010
1000
0100
0010
0001
0000
1000
0000
0010
0000
0001
0000
0010
1000
0001
0000
0100
0000
1000
0000
1000
0000
0100
0000
0001
0100
0010
1000
0010
0100
,
0001
0000
1000
0000
0010
0000
0000
0000
0010
0000
0100
0000
0001
0010
0100
1000
0001
0000
0000
0000
1001
0000
0000
0000
0001
0100
0010
0000
1000
0100
0010
0001
,
1000
0010
0100
0010
0000
0000
1000
0100
0010
0000
1000
0000
000M
0000
0000
0000
0010
0000
0000
0000
0001
0000
1000
0010
0100
0000
0000
0000
0101
0000
0000
0000
,
1001
0000
1000
0010
0100
0001
0100
0000
0010
0000
0000
0000
1000
0000
0000
0000
0100
1000
0010
0100
0001
0010
0100
1000
0001
0000
1000
0010
0100
0001
0100
0010
,
1000
0000
0100
0000
0001
0000
0100
0000
1000
0000
1001
0000
0001
0000
0100
0010
1000
0000
0100
0000
0001
0000
0001
0000
0100
0000
0010
0001
0010
0100
1000
0001
,
0100
0000
0010
0000
0001
0000
0000
0000
0010
0000
1000
0000
0100
0010
0001
0000
0100
0000
0000
0000
0101
0000
0000
0000
1000
0010
0100
0000
0010
1000
0100
0010
,
0001
0010
0100
1000
0000
0000
0001
0100
0010
0000
1000
0000
0010
0000
0000
0000
0110
0000
0000
0000
0100
0000
0001
1000
0010
0000
0000
0000
1010
0000
0000
0000
,
1001
0000
0001
0010
0100
1000
0100
0000
0010
0000
0000
0000
0001
0000
0000
0000
1000
0010
0100
0001
0100
0000
0010
1000
0100
0000
0010
0001
1000
0010
0100
0010
,
1000
0000
0100
0000
0001
0000
0100
0000
1000
0000
0010
0000
0100
0001
1000
0100
0010
0000
0100
0000
0001
0000
0001
0000
0100
0000
1000
0010
0100
0001
0100
0010
,
1000
0000
0001
0000
1000
0100
0010
0001
1000
0000
0001
0000
1000
0100
0010
0001
1000
0000
0010
0000
0100
0000
1000
0000
0100
0000
0001
0000
1000
0100
1000
0000
,
0001
0100
0010
1000
0100
0010
0001
0100
0010
0000
0010
0000
1000
0000
0000
0000
1001
0000
0000
0101
0000
0000
0001
0010
0200
0000
0000
0000
0301
0000
0000
0000
,
0100
0000
1000
0010
0000
0100
0001
0000
0010
0000
0010
0000
0100
0000
0000
0000
1000
0010
0100
0001
0010
0100
1000
0010
0100
0000
0001
0100
0000
0001
0100
0010
,
1000
0000
0100
0010
0000
0100
0010
0000
0001
0000
1000
0010
0000
1000
0010
0100
0001
0000
0010
0000
1000
0000
0010
0000
0001
0000
0100
0000
0010
1000
0001
0010
,
0100
0000
1000
0000
0010
0000
0100
0000
1000
0000
0100
0000
0001
0010
0100
0000
1000
0000
0000
0000
0010
0000
1000
0000
0001
0000
0100
0000
0010
1000
0001
0000
,
1000
0000
0010
0000
0100
0001
1000
0000
0001
0000
0010
0000
0100
1000
0001
0000
0100
0000
1000
0000
0100
0000
0001
0010
0100
0000
0010
0000
0100
1000
0010
0100
,
0001
0010
0100
1000
0000
0000
0001
0100
0010
0000
1000
0000
0010
0100
0010
0100
0001
0000
0000
0000
0001
0000
0000
0000
0001
0000
0000
0000
0001
0000
0000
0000
,
1000
0000
0000
0000
0000
0000
0000
0000
0000
0000
0000
0000
0010
0000
0000
0000
0000
0000
0000
0000
0000
0000
0000
0000
0100
0000
0000
0000
0000
0000
0000
0000
0000
0000
0000
0000
0000
0000
0000
0000
0000
0000
0000
0000
0000
0000
0000
0000
0001
0000
0000
0000
0000
0000
0000
0000
0010
0000
0000
0000
0000
0000
0000
0000
0100
0000
0000
0000
0000
0000
0000
0000
1000
0000
0000
0000
0000
0000
0000
0000
0100
0000
0000
0000
0000
0000
0000
0000
0010
0000
0000
0000
0000
0000
0000
0000
0001
0000
0000
0000
0000
0000
0000
0000
0000
0000
0000
0000
0100
0000
0000
0000
0000
0000
0000
0000
0000
0000
0000
0000
0010
0000
0000
0000
0000
0000
0000
0000
0000
0000
0000
0000
0000
0000
0000
0000
1000
0000
0000
0000
0000
0000
0000
0000
0100
0000
0000
0000
0000
0000
0010
0000
0000
0000
0000
0000
0001
0000
0000
0000
0000
0000
0010
0000
0000
0000
0000
0000
0100
0000
0000
0000
0000
0000
0000
0000
1000
0000
0000
0000
0000
0000
0000
0000
0010
0000
0000
0000
0000
0000
0000
0000
,
1000
0000
0001
0010
0100
0000
1000
0000
0001
0100
0010
0000
1000
0010
0100
0001
1000
0010
1000
0010
1000
0010
0100
0001
0010
0000
0100
0000
0001
0000
0100
0000
,
1000
0010
0100
0001
1000
0000
0001
0010
0100
0000
0010
0000
0001
1000
0010
0100
0001
0000
0000
0000
1000
0000
0001
0100
0001
0000
0000
0000
1100
0000
0000
0000
,
0100
0000
1000
0010
0100
0000
0010
0100
0001
0000
1000
0100
0010
0001
0010
0100
1000
0000
1000
0000
1000
0000
0010
0000
0100
0000
1000
0000
0100
0000
0001
0000
,
0010
0000
0100
0000
0001
0000
0100
0000
1000
0000
0010
0000
0100
0000
0001
0000
0010
0000
1000
0000
0010
0000
0001
0000
0010
0000
0001
0100
0010
1000
0010
0100
,
0001
0000
0010
0000
0100
1000
0010
0000
0100
0000
0001
0100
0010
0000
1000
0000
0001
0000
0010
0000
0001
0010
0100
1000
0001
0000
0100
0010
1000
0000
0010
0000
,
0100
0001
0010
0100
1000
0000
0010
0100
0001
0000
0001
0000
0000
0000
1000
0100
0010
0000
0000
0000
0001
0100
0010
1000
0001
0000
0000
0000
0010
0000
0100
1000
,
0010
0100
0001
0000
1000
0010
0100
0001
0010
0000
0001
0010
0100
1000
0100
0010
0001
0000
0001
0000
0001
0000
0000
0000
0100
0000
0010
0000
0100
0000
0001
0000
,
1000
0000
0100
0000
0010
0000
0001
0000
1000
0000
0010
0000
1000
0000
0001
0000
0100
0000
0010
0000
1000
0000
0010
0000
0100
0001
0100
0001
1000
0001
1000
0001
,
0100
0000
0010
0000
1000
0100
0010
0001
1000
0000
0001
0010
0100
1000
0010
0100
0001
0010
0001
0010
0100
1000
0010
0100
0001
0000
1000
0100
0010
0001
0010
0100
,
1000
0010
0100
0001
0000
0000
1000
0100
0010
0000
0001
0000
0010
0000
0001
0000
0010
0000
0001
0000
0010
0000
0001
0000
0010
0000
0001
0000
0010
0000
0001
0000
,
0010
0000
0000
0000
0000
0000
0100
0000
0000
0000
0000
0000
1000
0000
0000
0000
0000
0000
0010
0000
0000
0000
0000
0000
0100
0000
0000
0000
0000
0000
0000
0000
0000
0000
0000
0000
0001
0000
0000
0000
0000
0000
0100
0000
0000
0000
0000
0000
0010
0000
0000
0000
0000
0000
0000
0000
0000
0000
0000
0000
0000
0000
0000
0000
0000
0000
0000
0000
0000
0000
0000
0000
0000
0000
0000
0000
0000
0000
0000
0000
0001
0000
0000
0000
0000
0000
0000
0000
0000
0000
0000
0000
0000
0000
0000
0000
0010
0000
0000
0000
0000
0000
0000
0000
0000
0000
0000
0000
0010
0000
0000
0000
0000
0000
0000
0000
0000
0000
0000
0000
0010
0000
0000
0000
0000
0000
0000
0000
0000
0000
0000
0000
0000
0000
0000
0000
0000
0000
0000
0000
0000
0000
0000
0000
1000
0000
0000
0000
0000
0000
0000
0000
0000
0000
0000
0000
0001
0000
0000
0000
0000
0000
0000
0000
0000
0000
0000
0000
1000
0000
0000
0000
0000
0000
0000
0000
0000
0000
0000
0000
0000
0000
0000
0000
0000
0000
0000
0000
0000
0000
0000
0000
,
0100
0000
0010
0001
1000
0000
0000
0000
0010
0000
0100
0000
0001
0000
0010
0000
0001
0000
0010
0000
0100
0000
1000
0000
0010
0000
1000
0010
0100
0001
0100
0010
,
1000
0000
0100
0000
0010
0001
0100
0000
0010
0000
1000
0010
0100
0000
0001
0000
1000
0000
0100
0000
0010
0001
0010
0100
1000
0000
0010
0000
0100
0000
1000
0000
,
0100
0001
0010
0100
1000
0000
0001
0100
0010
0000
0010
0000
0000
0000
0010
0000
0000
0000
0010
0000
0000
0000
0010
0000
1010
0000
1000
0000
0000
0000
1000
0000
,
0001
0000
0000
0000
0000
0000
0010
0000
0000
0000
0000
0000
0100
0000
0000
0000
0000
0000
1000
0000
0000
0000
0000
0000
0001
0000
0000
0000
0000
0000
0000
0000
0000
0000
0000
0000
0100
0000
0000
0000
0000
0000
0010
0000
0000
0000
0000
0000
1000
0000
0000
0000
0000
0000
0000
0000
0000
0000
0000
0000
0000
0000
0000
0000
0000
0000
0000
0000
0000
0000
0000
0000
0000
0000
0000
0000
0000
0000
0000
0000
0001
0000
0000
0000
0000
0000
0000
0000
0000
0000
0000
0000
0000
0000
0000
0000
1001
0000
0000
0000
0000
0000
0000
0000
0000
0000
0000
0000
1001
0000
0000
0000
0000
0000
0000
0000
0000
0000
0000
0000
1001
0000
0000
0000
0000
0000
0000
0000
0000
0000
0000
0000
0000
0000
0000
0000
0000
0000
0000
0000
0000
0000
0000
0000
1000
0000
0000
0000
0000
0000
0000
0000
0000
0000
0000
0000
0100
0000
0000
0000
0000
0000
0000
0000
0000
0000
0000
0000
1000
0000
0000
0000
0000
0000
0000
0000
0000
0000
0000
0000
0000
0000
0000
0000
0000
0000
0000
0000
0000
0000
0000
0000
,
0101
0000
0000
0000
1001
0000
0000
0000
1000
0000
0100
0000
0010
0000
0000
0000
0001
0000
0100
0000
1000
0000
0100
0000
0001
0000
0010
0100
1000
0010
0100
0001
,
1000
0000
0010
0000
1000
0100
0010
0000
0001
0000
0100
0010
1000
0000
0010
0000
0100
0000
0001
0000
1000
0100
0010
0001
0100
0000
0000
0000
0101
0000
0000
0000
,
0001
0000
0000
0000
0000
0000
0010
0000
0000
0000
0000
0000
0100
0000
0000
0000
0000
0000
1000
0000
0000
0000
0000
0000
0000
0000
0000
0000
0000
0000
0000
0000
0000
0000
0000
0000
0010
0000
0000
0000
0000
0000
0100
0000
0000
0000
0000
0000
0001
0000
0000
0000
0000
0000
0000
0000
0000
0000
0000
0000
0001
0000
0000
0000
0000
0000
0000
0000
0000
0000
0000
0000
1000
0000
0000
0000
0000
0000
0000
0000
0000
0000
0000
0000
0001
0000
0000
0000
0000
0000
0000
0000
0000
0000
0000
0000
1000
0000
0000
0000
0000
0000
0000
0000
0000
0000
0000
0000
0001
0000
0000
0000
0000
0000
0000
0000
0000
0000
0000
0000
1000
0000
0000
0000
0000
0000
0000
0000
0000
0000
0000
0000
0001
0000
0000
0000
0000
0000
0000
0000
0000
0000
0000
0000
0100
0000
0000
0000
0000
0000
0001
0000
0000
0000
0000
0000
1000
0000
0000
0000
0000
0000
0010
0000
0000
0000
0000
0000
0100
0000
0000
0000
0000
0000
0000
0000
0001
0000
0000
0000
0000
0000
0000
0000
0010
0000
0000
0000
0000
0000
0000
0000
,
0100
0000
0000
0000
0000
0000
1000
0000
0000
0000
0000
0000
0010
0000
0000
0000
0000
0000
0100
0000
0000
0000
0000
0000
0010
0000
0000
0000
0000
0000
0000
0000
0000
0000
0000
0000
1000
0000
0000
0000
0000
0000
0100
0000
0000
0000
0000
0000
0010
0000
0000
0000
0000
0000
0000
0000
0000
0000
0000
0000
0000
0000
0000
0000
0000
0000
0000
0000
0000
0000
0000
0000
0000
0000
0000
0000
0000
0000
0000
0000
1000
0000
0000
0000
0000
0000
0000
0000
0000
0000
0000
0000
0000
0000
0000
0000
0010
0000
0000
0000
0000
0000
0000
0000
0000
0000
0000
0000
0010
0000
0000
0000
0000
0000
0000
0000
0000
0000
0000
0000
0010
0000
0000
0000
0000
0000
0000
0000
0000
0000
0000
0000
0000
0000
0000
0000
0000
0000
0000
0000
0000
0000
0000
0000
0001
0000
0000
0000
0000
0000
0000
0000
0000
0000
0000
0000
0100
0000
0000
0000
0000
0000
0000
0000
0000
0000
0000
0000
0001
0000
0000
0000
0000
0000
0000
0000
0000
0000
0000
0000
0000
0000
0000
0000
0000
0000
0000
0000
0000
0000
0000
0000
,
1001
0000
1000
0010
0100
0001
0100
0010
1000
0100
0010
0000
0001
0000
0000
0000
0101
0000
0000
0000
1001
0000
0000
0000
1000
0010
0100
0001
0100
0010
1000
0010
,
0100
0000
0001
0000
0010
0100
1000
0000
0010
0000
0100
0001
1000
0000
0010
0000
0001
0000
0010
0000
1000
0100
0010
0001
0100
0000
0000
0000
0110
0000
0000
0000
,
0010
0000
0000
0000
0000
0000
1000
0000
0000
0000
0000
0000
0001
0000
0000
0000
0000
0000
0100
0000
0000
0000
0000
0000
0010
0000
0000
0000
0000
0000
1000
0000
0000
0000
0000
0000
0001
0000
0000
0000
0000
0000
0100
0000
0000
0000
0000
0000
0010
0000
0000
0000
0000
0000
0000
0000
0000
0000
0000
0000
0000
0000
0000
0000
0000
0000
0000
0000
0000
0000
0000
0000
100M
0000
0000
0000
0000
0000
0000
0000
0000
0000
0000
0000
0000
0000
0000
0000
0000
0000
0000
0000
0000
0000
0000
0000
0001
0000
0000
0000
0000
0000
0000
0000
0000
0000
0000
0000
0010
0000
0000
0000
0000
0000
0000
0000
0000
0000
0000
0000
0100
0000
0000
0000
0000
0000
0000
0000
0000
0000
0000
0000
1000
0000
0000
0000
0000
0000
0000
0000
0000
0000
0000
0000
0001
0000
0000
0000
0000
0000
0000
0000
0000
0000
0000
0000
0100
0000
0000
0000
0000
0000
0010
0000
0000
0000
0000
0000
1000
0000
0000
0000
0000
0000
0000
0000
0100
0000
0000
0000
0000
0000
0000
0000
0010
0000
0000
0000
0000
0000
0000
0000
,
0001
0000
0000
0000
0000
0000
0100
0000
0000
0000
0000
0000
0010
0000
0000
0000
0000
0000
1000
0000
0000
0000
0000
0000
0001
0000
0000
0000
0000
0000
0000
0000
0000
0000
0000
0000
0010
0000
0000
0000
0000
0000
0100
0000
0000
0000
0000
0000
1000
0000
0000
0000
0000
0000
0000
0000
0000
0000
0000
0000
0000
0000
0000
0000
0000
0000
0000
0000
0000
0000
0000
0000
0000
0000
0000
0000
0000
0000
0000
0000
1010
0000
0000
0000
0000
0000
0000
0000
0000
0000
0000
0000
0000
0000
0000
0000
0010
0000
0000
0000
0000
0000
0000
0000
0000
0000
0000
0000
0000
0000
0000
0000
0000
0000
0000
0000
0000
0000
0000
0000
0000
0000
0000
0000
0000
0000
0000
0000
0110
0000
0000
0000
0000
0000
0000
0000
0000
0000
0000
0000
0000
0000
0000
0000
0100
0000
0000
0000
0000
0000
0000
0000
0000
0000
0000
0000
0000
0000
0000
0000
0000
0000
0000
0000
0000
0000
0000
0000
0000
0000
0000
0000
0000
0000
0000
0000
0101
0000
0000
0000
0000
0000
0000
0000
0000
0000
0000
0000
0000
0000
0000
0000
,
0001
0000
1000
0100
0010
0000
0100
0010
0001
0000
0100
0000
0001
0010
0100
1000
0100
0010
0001
0000
0100
0000
0010
0000
1000
0000
0010
0100
0001
0100
0010
1000
,
0001
0000
0010
0100
1000
0100
0010
0000
0001
0000
1000
0010
0100
0000
0010
0100
0001
0000
0100
0001
1000
0100
0010
0001
1000
0010
0100
0010
1000
0100
0010
0001
,
1000
0000
0000
0000
0000
0000
0100
0000
0000
0000
0000
0000
1000
0000
0000
0000
0000
0000
0001
0000
0000
0000
0000
0000
0100
0000
0000
0000
0000
0000
0001
0000
0000
0000
0000
0000
1000
0000
0000
0000
0000
0000
0010
0000
0000
0000
0000
0000
0100
0000
0000
0000
0000
0000
0000
0000
0000
0000
0000
0000
0000
0000
0000
0000
0000
0000
0000
0000
0000
0000
0000
0000
0101
0000
0000
0000
0000
0000
0000
0000
0000
0000
0000
0000
0000
0000
0000
0000
0000
0000
0000
0000
0000
0000
0000
0000
M000
0000
0000
0000
0000
0000
0000
0000
0000
0000
0000
0000
0001
0000
0000
0000
0000
0000
0010
0000
0000
0000
0000
0000
0100
0000
0000
0000
0000
0000
0010
0000
0000
0000
0000
0000
0001
0000
0000
0000
0000
0000
0000
0000
0000
0000
0000
0000
1001
0000
0000
0000
0000
0000
0000
0000
0000
0000
0000
0000
1000
0000
0000
0000
0000
0000
0010
0000
0000
0000
0000
0000
0100
0000
0000
0000
0000
0000
0000
0000
0010
0000
0000
0000
0000
0000
0000
0000
1000
0000
0000
0000
0000
0000
0000
0000
,
0001
0000
0000
0000
0000
0000
0010
0000
0000
0000
0000
0000
0100
0000
0000
0000
0000
0000
1000
0000
0000
0000
0000
0000
0010
0000
0000
0000
0000
0000
0000
0000
0000
0000
0000
0000
0100
0000
0000
0000
0000
0000
0001
0000
0000
0000
0000
0000
1000
0000
0000
0000
0000
0000
0000
0000
0000
0000
0000
0000
0000
0000
0000
0000
0000
0000
0000
0000
0000
0000
0000
0000
0000
0000
0000
0000
0000
0000
0000
0000
1010
0000
0000
0000
0000
0000
0000
0000
0000
0000
0000
0000
0000
0000
0000
0000
0010
0000
0000
0000
0000
0000
0000
0000
0000
0000
0000
0000
1000
0000
0000
0000
0000
0000
0100
0000
0000
0000
0000
0000
0010
0000
0000
0000
0000
0000
0000
0000
0000
0000
0000
0000
0100
0000
0000
0000
0000
0000
0010
0000
0000
0000
0000
0000
0001
0000
0000
0000
0000
0000
0000
0000
0000
0000
0000
0000
0000
0000
0000
0000
0000
0000
0000
0000
0000
0000
0000
0000
1000
0000
0000
0000
0000
0000
0010
0000
0000
0000
0000
0000
0100
0000
0000
0000
0000
0000
0001
0000
0000
0000
0000
0000
,
1000
0000
0001
0010
0100
0000
0010
0100
1000
0100
0010
0000
0001
0100
0010
1000
0010
0100
0001
0000
0010
0000
0100
0000
1000
0100
1000
0100
0010
0001
0010
0001
,
1000
0000
0010
0100
0001
0010
0100
0000
1000
0000
0010
0100
0001
0000
0100
0010
1000
0000
0001
0010
0100
1000
0100
0010
0001
0100
0010
1000
0010
0100
0001
1000
,
0001
0010
0100
0000
0010
0100
1000
0000
0000
0000
0000
0000
0000
0000
0000
0000
0000
0000
0000
0000
0000
0000
0000
0000
0110
0000
0000
0000
0MM0
0000
0000
0000
,
0000
0000
0000
0000
0100
0000
0000
0000
0101
0001
0000
0000
0000
0000
0000
0000
,
0000
1001
0000
0000
,
0000
0000
1100
0000
,
0000
0000
0110
0MM0
0000
0000
0000
0000
;
