#TITLE:Through the Fire and Flames;
#SUBTITLE:Full Version V2;
#ARTIST:Dragonforce;
#TITLETRANSLIT:;
#SUBTITLETRANSLIT:;
#ARTISTTRANSLIT:;
#CREDIT:;
#BANNER:TTFAF_banner.png;
#BACKGROUND:TTFAF_BG.png;
#LYRICSPATH:;
#CDTITLE:!XOX-cdtitle.png;
#MUSIC:Through the Fire and Flames.mp3;
#OFFSET:0.237;
#SAMPLESTART:92.036;
#SAMPLELENGTH:12.000;
#SELECTABLE:YES;
#BPMS:0.000=200.000;
#STOPS:;
#BGCHANGES:;
// cache tags:
#FIRSTBEAT:1.000;
#LASTBEAT:1455.333;
#SONGFILENAME:Songs/Bemani.se Megapack/(XOX) Through The Fire And Flames/Through the Fire and Flames.sm;
#HASMUSIC:1;
#HASBANNER:1;
#MUSICLENGTH:440.528;
// end cache tags

//---------------dance-single - ----------------
#NOTES:
     dance-single:
     :
     Challenge:
     15:
     1.000,1.000,0.484,0.032,1.000,4121.000,213.000,14.000,0.000,1.000:
0000
0000
1000
0100
0010
0001
1000
0010
,
0100
0001
0010
0100
1000
0010
0100
0001
,
0100
1000
0100
0010
1001
0000
0010
0000
0100
0000
0001
0000
1000
0000
0100
0000
,
0010
0001
0010
0100
1000
0001
0010
0100
,
0010
0001
2100
0001
0100
0010
0001
0100
,
0010
0001
0100
0010
0001
0010
0100
0010
,
0001
3010
0101
1000
0001
0100
0010
0001
,
1000
0010
0102
0010
0100
1000
0010
0100
,
1000
0103
1010
0100
0010
0001
0100
0010
,
0001
0100
0010
1000
0001
0100
0010
1000
,
0100
0010
0001
0010
0101
0000
1000
0000
0001
0000
0100
0000
0010
0000
1000
0000
,
0001
0100
0010
0001
0100
0010
1000
0010
,
0100
0010
2001
0010
0100
0001
0010
0100
,
0001
0010
0100
0010
0001
0100
0010
0001
,
0100
3010
1001
0100
0010
1000
0100
0010
,
0001
0100
1001
0000
1001
0000
1001
0000
,
0000
0000
0000
0000
0001
0001
0001
0001
0001
0001
0001
0001
0001
0001
0001
0001
,
0001
0001
0001
0010
0010
0010
0010
0010
0010
0010
0010
0010
0010
0010
0010
0010
,
0010
0010
0010
0100
0100
0100
0100
0100
0100
0100
0100
0100
0100
0100
0100
0100
,
0100
0100
0100
1000
1000
1000
1000
1000
1000
1000
1000
1000
1000
1000
1000
1000
,
1000
1000
1000
0100
0100
0100
0100
0100
0100
0100
0100
0100
0100
0100
0100
0100
,
0100
0100
0100
0010
0010
0010
0010
0010
0010
0010
0010
0010
0010
0010
0010
0010
,
0010
0010
0010
0001
0001
0001
0001
0001
0001
0001
0001
0001
0001
0001
0001
0001
,
0001
0001
0001
0010
0100
1000
0100
0010
0001
0010
0100
0010
0001
0010
0100
1000
,
0100
0010
0100
1000
0100
1000
0100
1000
0100
1000
0100
1000
0100
1000
0100
1000
,
0100
1000
0100
0010
0100
0010
0100
0010
0100
0010
0100
0010
0100
0010
0100
0010
,
0100
0010
0100
0010
0001
0010
0001
0010
0001
0010
0001
0010
0001
0010
0001
0010
,
0001
0010
1000
0010
1000
0010
1000
0010
1000
0010
1000
0010
1000
0010
1000
0010
,
1000
0010
1000
0001
0100
0001
0100
0001
0100
0001
0100
0001
0100
0001
0100
0001
,
0100
0001
0100
0001
1000
0001
1000
0001
1000
0001
1000
0001
1000
0001
1000
0001
,
1000
0001
1000
0010
0100
0010
0100
0010
0100
0010
0100
0010
0100
0010
0100
0010
,
0100
0010
0100
0010
0010
0010
0010
0010
0010
0010
0010
0010
0010
0010
0010
0010
,
0010
0010
0010
0000
1000
0000
1000
0000
0010
0000
0010
0000
0100
0000
0100
0000
,
0001
0001
1000
1000
0001
0001
0100
0100
,
0010
0010
1000
1000
0100
0100
0010
0010
,
0001
0001
0100
0100
0001
0001
0100
0100
,
0010
0010
1000
1000
0010
0010
0100
0100
,
0001
0001
1000
1000
0010
0010
0100
0100
,
0010
0010
1001
0000
1001
1001
0000
1001
,
0000
0000
1001
0010
0100
0010
0001
0010
0100
0010
0100
1000
0100
0010
0001
0100
,
0010
1000
0100
1000
0100
0010
0100
0010
0001
0010
0001
0100
0001
0100
0010
1000
,
0010
1000
0010
0100
0010
1000
0100
0010
0001
0010
0100
1000
0100
0010
0001
0100
,
0010
1000
0100
0010
0001
0100
0010
1000
0100
0010
0001
1000
0010
0100
0010
1000
,
0001
0010
0100
1000
0010
0100
0010
0001
0001
1000
0100
0010
0100
1000
0100
0010
,
0001
0010
0100
0000
0001
0000
0001
0000
0010
0001
0100
0000
0100
0000
0100
0000
,
0001
0010
0100
0000
0001
0000
0001
0000
1000
0100
0010
0000
1000
0000
1000
0000
,
0100
0010
1000
0000
0001
0000
0001
0000
0100
0010
0100
0000
0100
0000
0100
0000
,
0010
0100
0010
0000
0100
0000
0100
0000
0001
0000
0010
0000
1000
0000
0001
0000
,
0100
0010
0001
0010
0100
1000
0010
0100
0001
0010
0100
1000
0010
0100
0001
0010
,
0100
1000
0001
0100
0010
0100
0001
1000
0100
0010
0001
0100
0010
1000
0100
0010
,
0001
0100
0010
1000
0100
0010
0001
0100
0010
0100
1000
0100
0010
0001
0010
0100
,
0010
0001
0010
0100
1000
0100
0010
0001
0010
0100
1000
0100
0010
0100
1000
0100
,
0010
0001
0010
0000
0100
0000
0100
0000
0010
0100
1000
0000
0001
0000
0001
0000
,
0010
0100
1000
0000
1000
0000
1000
0000
0001
0100
0010
0000
0010
0000
0010
0000
,
0100
1000
0010
0000
0110
0000
0000
0000
0110
0000
0110
0000
0000
0000
0110
0000
,
0000
0110
0000
0000
0000
0000
0010
0000
,
0100
0000
1000
0100
1000
0100
1000
0100
1000
0100
1000
0100
1000
0100
1000
0100
,
1000
0100
1000
0010
0100
0010
0100
0010
0100
0010
0100
0010
0100
0010
0100
0010
,
0100
0010
0100
0001
0100
0001
0100
0001
0100
0001
0100
0001
0100
0001
0100
0001
,
0100
0001
0100
0010
1000
0010
1000
0010
1000
0010
1000
0010
1000
0010
1000
0010
,
1000
0010
1000
0001
0010
0001
0010
0001
0010
0001
0010
0001
0010
0001
0010
0001
,
0010
0001
1000
0001
1000
0001
1000
0001
1000
0001
1000
0001
1000
0001
1000
0001
,
1000
0001
1000
0001
0100
0000
0100
0000
0100
0000
0100
0000
0100
0000
0100
0000
,
0100
0100
0101
0000
0010
0000
1000
0000
,
0001
0000
0000
0000
1100
0000
1100
0000
0001
0010
0100
0000
0011
0000
0011
0000
,
0100
0010
0001
0000
1100
0000
1100
0000
0001
0100
1000
0000
0011
0000
0011
0000
,
0100
0010
0100
0000
1010
0000
1010
0000
0100
0010
0001
0000
0011
0000
0011
0000
,
0010
0001
0100
0000
0011
0000
0011
0000
0100
0010
0001
0000
1100
0000
1100
0000
,
0001
0010
0100
0000
0011
0000
0011
0000
1000
0010
1000
0000
0011
0000
0011
0000
,
1000
0100
0010
0000
1100
0000
1100
0000
0001
0100
0001
0000
1100
0000
1100
0000
,
0001
0010
0100
0000
0011
0000
0011
0000
0001
0010
0100
0000
0011
0000
0011
0000
,
1000
0100
0010
0001
0010
0100
1000
0010
0100
0001
1000
0010
0100
0001
0010
0100
,
1000
0000
1000
0000
1000
0000
1000
0000
0001
0100
0010
0000
0010
0000
0010
0000
,
1000
0010
0100
0000
0001
0000
0001
0000
0010
1000
0100
0000
0100
0000
0100
0000
,
0001
0010
0100
0000
0001
0000
0010
0000
1000
0100
1000
0000
0010
0000
0010
0000
,
0100
0001
0010
0000
0100
0000
0100
0000
0001
0100
0010
0000
1000
0000
1000
0000
,
0001
0100
1000
0000
0100
0010
0100
0010
0100
0010
0100
1000
0100
0010
0001
0100
,
0010
1000
0100
0010
0001
0010
0100
1000
0010
0100
0001
0010
0100
1000
0001
0100
,
0010
0100
0001
0010
0010
0010
0010
0010
0010
0010
0010
0010
0010
0010
0010
0010
,
0010
0010
0110
0000
0000
0000
0000
0000
0010
0000
0000
0000
0100
0000
0000
0000
,
0001
0000
0000
0000
1000
0000
1000
0000
0001
0010
0100
0000
0010
0000
0010
0000
,
0001
0100
0010
0000
0001
0000
0001
0000
1000
0010
0100
0000
0100
0000
0100
0000
,
1000
0010
0100
0000
1000
0000
1000
0000
0001
0010
0100
0000
0001
0000
0001
0000
,
0100
0010
0001
0000
0100
0000
0100
0000
0010
0100
1000
0000
1000
0000
1000
0000
,
0001
0100
0010
0001
0010
0100
1000
0010
0100
0001
0010
0100
1000
0010
0100
1000
,
0100
0010
0001
1000
0010
0100
0010
1000
0010
0100
0001
0010
0100
1000
0100
0010
,
0001
0100
0010
1000
0100
0010
0001
0010
0100
0010
0001
1000
0100
0010
0001
0010
,
0100
1000
0100
0010
0100
1000
0001
0010
0001
0100
0010
0100
0001
0010
0001
1000
,
0100
1000
0010
0100
0010
1000
0100
1000
0001
0010
0100
0010
0001
1000
0100
0010
,
0100
1000
0001
0010
0100
0010
0001
1000
0010
0100
0001
1000
0010
0100
0001
1000
,
0010
0100
0001
0010
0100
1000
0100
0010
0001
0100
0010
0100
0001
0010
0100
1000
,
0010
0100
0001
0010
0100
0010
0001
1000
0010
0100
0001
1000
0001
0100
0010
1000
,
0001
0100
0010
0100
0001
1000
0010
0100
0010
0001
0010
0100
1000
0100
0010
0001
,
0010
0100
1000
0100
1010
0000
0000
0000
0101
0000
0000
0000
1010
0000
0000
0000
,
0110
0000
0000
0000
1001
0000
0010
0100
0001
0000
0001
0000
0100
0000
0010
0000
,
1000
0000
0010
0000
1010
0000
0100
0010
1000
0000
0001
0000
0010
0000
0100
0000
,
1010
0001
0100
0001
0010
0100
1000
0010
,
0100
0001
1000
0010
0100
1010
0000
0000
,
0000
0001
0100
0001
1000
0010
0000
0001
,
0010
0100
1000
0000
0100
0000
0010
0100
,
0001
0000
0000
0000
0010
0000
0000
0000
0100
0000
0000
0000
1001
0000
0000
0001
0000
0000
0001
0000
0000
0001
0000
0000
0001
0000
0000
0100
0000
0000
0100
0000
0000
0001
0000
0000
0001
0000
0000
0001
0000
0000
0001
0000
0000
0001
0000
0000
,
0001
0100
0100
0100
0001
0010
0100
1000
0100
0010
0001
0100
0010
1000
0100
0010
,
0001
1000
0010
0100
0010
1000
0001
0010
0100
1000
0100
0010
0100
1000
0100
0010
,
0001
1000
0010
0100
0001
1000
0010
0100
0001
0100
0010
1000
0100
0010
0001
0010
,
0100
0010
0001
0010
0001
0010
0100
1000
0100
0010
0001
0010
0100
1000
0100
0010
,
0100
1000
0100
1000
0100
0010
0100
0010
0100
0010
0100
0010
0100
0010
0100
0010
,
0100
0010
1000
0010
1000
0010
1000
0010
1000
0010
1000
0010
1000
0010
1000
0010
,
1000
0100
0010
0001
0100
0010
0100
1000
0100
0010
0001
1000
0100
0010
0100
1000
,
0001
0010
0100
0010
0001
0010
0100
0010
0100
0010
0100
0010
0100
0010
0100
0010
,
0100
0010
0100
0010
0100
0001
0001
0001
0001
1000
1000
1000
0010
0010
0100
0100
,
0001
0001
0001
0001
1001
0000
0000
0000
0000
0000
0000
0000
0000
0000
0000
0000
,
0000
0000
0000
0000
,
0000
0000
0010
0100
1010
0010
0001
0100
,
0101
1000
0100
0010
1010
0001
0010
0100
,
0101
0010
1000
0100
0101
0010
1000
0100
,
1001
0010
0100
0001
0011
0010
0100
0010
,
1100
0001
0100
0010
1010
0100
0001
0010
,
0101
0010
1000
0100
1001
0010
0100
0001
,
0011
0000
0100
0000
0001
0000
0100
0010
,
0000
1001
0110
0000
2000
0000
0000
0000
,
3000
0000
0000
0000
1000
1000
1000
1000
1000
1000
1000
1000
1000
1000
1000
1000
,
1000
1000
1000
1000
1000
0010
0010
0010
0010
0010
0010
0010
0010
0010
0010
0010
,
0010
0010
0010
0010
0010
0100
0100
0100
0100
0100
0100
0100
0100
0100
0100
0100
,
0100
0100
0100
0100
0100
0001
0001
0001
0001
0001
0001
0001
0001
0001
0001
0001
,
0001
0001
0001
0001
0001
0010
0010
0010
0010
0010
0010
0010
0010
0010
0010
0010
,
0010
0010
0010
0010
0010
1000
1000
1000
1000
1000
1000
1000
1000
1000
1000
1000
,
1000
1000
1000
1000
1000
0100
0100
0100
0100
0100
0100
0100
0100
0100
0100
0100
,
0100
0100
0100
0100
0100
0100
1001
0010
0100
0010
1001
0010
0100
0010
0100
0010
,
0100
0010
0100
0010
0100
0010
0001
0010
0001
0010
0001
0010
0001
0010
0001
0010
,
0001
0010
0100
1000
0010
1000
0010
1000
0010
1000
0010
1000
0010
1000
0010
1000
,
0010
1000
0010
1000
0100
0010
0001
0100
0001
0100
0001
0100
0001
0100
0001
0100
,
0001
0000
0000
1000
0000
0000
0001
0000
0000
1000
0000
0000
0001
0000
0000
1000
0000
0000
0000
0000
0110
0000
0000
0000
0000
0000
0000
0000
0110
0000
0000
0000
0000
0000
0000
0000
0110
0000
0000
0000
0000
0000
0000
0000
0110
0000
0000
0000
,
0000
0000
0000
0000
0110
0000
0000
0000
0000
0000
0000
0000
0110
0000
0000
0000
0000
0000
0001
0000
0000
0010
0000
0000
0100
0000
0000
1000
0000
0000
0100
0000
0000
0010
0000
0000
0100
0000
0000
1000
0000
0000
1000
0000
0000
0100
0000
0000
,
0010
0001
0001
0010
0100
1000
1000
0100
0010
0010
0100
0100
0010
0001
0010
0100
,
1000
0010
0100
0010
1000
1000
1000
1000
1000
1000
1000
1000
1000
1000
1000
1000
,
1000
1000
1000
1000
1100
0000
0000
0000
0001
0000
0000
0000
0100
0000
0000
0000
,
0010
0000
0000
0000
1000
0000
1000
0000
1000
0100
1000
0000
1000
0000
1000
0000
,
1000
0100
1000
0000
0010
0000
0010
0000
0010
0100
0010
0000
0010
0000
0010
0000
,
0010
0100
0010
0000
1000
0000
1000
0000
1000
0001
1000
0000
0001
0000
0001
0000
,
0001
1000
0001
0000
0100
0000
0100
0000
0100
0001
0100
0000
0010
0000
0010
0000
,
0010
1000
0010
0000
0001
0000
0100
0000
0010
0100
0001
0000
0010
0000
0010
0000
,
1000
0010
0100
0000
0100
0000
0100
0000
0001
1000
0100
0000
0010
0000
0010
0000
,
0100
0001
0010
0000
0100
0000
0100
0000
0001
0010
0100
0000
0010
0000
0010
0000
,
0010
1000
0100
0000
0001
0010
0001
0010
0001
0010
0001
0010
0001
0010
0001
0010
,
0001
0010
0001
0010
0001
0000
0001
0000
1000
0100
0010
0000
1000
0000
1000
0000
,
0001
0010
0100
0000
0001
0000
0001
0000
0100
0010
0001
0000
0100
0000
0100
0000
,
0010
0100
1000
0000
0001
0000
0100
0000
0010
0100
0001
0000
1000
0000
0010
0000
,
0100
0001
0010
0000
1000
0000
0001
0000
0100
0010
1000
0000
0001
0000
0100
0010
,
0100
0000
0010
0100
1000
0100
0010
0001
0010
0100
1000
0100
0010
0100
1000
0100
,
0010
0001
0010
0100
1000
0100
0010
0001
0010
0100
0010
0001
0100
0010
1000
0010
,
0100
0100
0100
0100
0100
0100
0100
0100
0100
0100
0100
0100
0100
0100
0100
0100
,
0100
0100
0100
0100
0110
0000
0000
0000
0001
0000
0000
0000
0100
0000
0000
0000
,
0010
0000
0000
0000
1100
0000
1100
0000
0001
0010
0100
0000
0011
0000
0011
0000
,
1000
0100
0010
0000
0101
0000
0101
0000
0010
0001
0100
0000
1010
0000
1010
0000
,
0100
0010
0001
0000
0110
0000
0110
0000
0001
0010
0100
0000
1010
0000
1010
0000
,
0010
0100
0001
0000
0110
0000
0110
0000
0010
1000
0100
0000
1001
0000
1001
0000
,
0010
0100
0001
0010
0100
0010
0001
0010
0100
1000
0100
0010
0100
1000
0100
0010
,
0001
1000
0100
1000
0010
0100
0010
1000
0100
1000
0001
0010
0001
0100
0010
0100
,
0001
0010
0001
0100
0100
0100
0100
0100
0100
0100
0100
0100
0100
0100
0100
0100
,
0100
0100
0100
0100
0100
1000
0100
0010
0001
0100
0010
1000
0100
0010
0001
0100
,
0010
1000
0100
0010
0001
1000
0010
0100
0010
1000
0001
0010
0100
1000
0010
0100
,
0001
0010
0100
1000
0010
0100
0001
0010
0100
1000
0001
0100
0010
0100
0001
0010
,
0100
0010
0001
1000
0100
0010
0100
1000
0001
0010
0100
0010
0001
0010
0001
0010
,
0100
0010
0100
1000
0100
1000
0100
0001
0100
0001
0100
0010
0001
0010
0100
1000
,
0100
0010
0001
0010
0010
0010
0010
0010
0010
0010
0010
0010
0010
0010
0010
0010
,
0010
0010
0010
0010
0110
0000
0000
0000
1010
0000
0000
0000
0101
0000
0000
0000
,
0110
0000
0000
0000
1001
0000
0010
0100
0001
0000
0100
0000
0001
0000
0010
0000
,
1000
0000
0100
0000
0011
0000
0100
0010
1000
0000
0001
0000
0100
0000
0010
0000
,
1100
0001
1000
0100
0010
0001
0010
0100
,
1000
0010
0100
0010
1000
0100
0000
0000
,
0000
0000
0110
0000
0000
0101
0000
0100
,
0010
0000
0000
1000
0000
0000
0001
0000
0000
0000
0000
0000
0100
0000
0000
0000
0000
0000
0100
0000
0000
0000
0001
0000
,
0010
0000
0100
0000
0010
0000
1000
0000
0000
0010
0000
0000
0100
0000
0000
0001
0000
0000
0010
0000
0000
1000
0000
0000
,
0010
0000
0100
0000
0001
0010
0100
1000
0100
0010
0100
0010
0001
0001
0010
0100
,
1000
1000
0010
0100
0001
0001
0001
0001
0001
0000
1000
0000
0010
0000
0100
0000
,
0001
0000
0100
0000
1000
1000
1000
1000
1000
0000
0001
0000
0100
0000
0010
0000
,
1000
0000
0000
0000
0001
0010
0100
1000
0100
0010
0001
0010
0001
0010
0100
0010
,
0100
0010
0001
0010
0100
1000
0100
0010
0001
0010
0100
0010
0001
0010
0001
0010
,
0100
1000
0100
0000
1000
1000
1000
1000
1000
0000
0001
0000
0100
0000
0010
0000
,
1000
0000
0010
0010
0010
0010
0010
0000
0100
0000
0001
0000
0010
0000
0100
0000
,
0001
0000
1000
0000
0100
0010
0001
0010
0100
0010
0100
1000
0100
1000
0100
0010
,
0001
0000
0000
0010
0000
0000
0100
0000
0000
0010
0000
0000
1000
0000
0100
0000
0010
0000
0001
0000
0000
0000
0000
0000
1000
0000
0100
0000
0010
0000
0001
0000
0000
0000
0000
0000
0100
0000
0000
0000
0000
0000
0000
0000
0001
0000
0000
0000
,
0000
0010
0000
1100
0000
0000
0000
0000
0000
0000
0000
0000
,
0000
0000
0000
0000
,
1100
1100
0000
0001
,
0000
0100
0000
0010
,
0000
1010
1010
0000
0000
0000
0001
0000
,
0000
1000
0000
0010
,
0101
1010
0000
0010
,
0000
0000
0100
0000
0000
0001
0000
0000
,
1000
0020
0000
0000
,
0000
0000
0000
0000
,
0130
0101
0000
1000
,
0000
0010
0000
0100
,
0101
0110
0000
0001
,
0000
0100
0000
0010
,
0000
1100
1100
0000
0000
0000
1000
0000
,
0000
0000
0010
0000
0000
0100
0000
0000
,
0001
0220
0000
0000
,
0000
0000
0000
0330
0000
0000
1000
0100
0010
0001
0000
0000
0100
0000
0000
0001
0010
0100
1000
0000
0000
0100
0000
0000
,
0000
0000
0000
0000
0000
0000
0001
0000
0010
0000
0100
0000
1000
0000
0100
0000
0010
0000
0001
0010
0001
0010
0001
0010
,
0001
0010
0001
0010
0001
0010
0001
0000
1000
0000
0100
0000
0010
0000
0001
0000
0100
0000
0010
0000
0100
0000
1000
0000
,
0100
0010
0001
0010
0010
0010
1000
1000
1000
0001
0001
0001
,
0100
0100
0100
0010
0100
1000
0100
0001
0100
1000
0100
0001
,
0100
1000
0100
0010
0001
0010
0100
0001
0010
0100
0100
0100
,
0010
0010
0010
1000
1000
1000
0001
0001
0001
0100
0010
0001
,
0100
0010
0100
1000
0010
0100
0010
0001
0010
0100
1000
0100
,
0010
0010
0010
0100
0100
0100
0001
0001
0001
1000
1000
1000
,
0001
0010
0100
0001
0010
0100
1000
0100
0010
0001
1000
0010
,
0100
0010
1000
0010
0001
0010
1000
1000
1000
0010
0010
0010
,
0100
0000
0100
0000
0100
0000
0001
0000
0001
0000
0001
0000
0000
0000
0000
0010
0000
0000
0100
0000
0000
0000
0000
0000
,
0000
0001
0010
1000
0100
0000
0001
0000
,
0100
0000
0000
0000
0010
0000
0100
0010
0001
0010
0100
1000
0100
0010
0001
0000
,
1000
0100
1000
0010
1000
0100
1000
0010
1000
0100
1000
0010
,
1000
0001
0010
0001
0100
0001
0010
0001
0100
0001
0010
0001
,
0100
0000
0001
0000
0010
0000
0001
0000
0000
0100
0000
0000
0010
0000
0000
0000
0000
0000
0100
0000
0000
0000
0001
0000
,
0000
0010
0000
0100
1000
0000
0001
0000
,
0010
0000
0100
0010
1000
0001
0000
0000
0000
0100
0010
1000
,
0001
0100
0010
1000
0001
0100
0010
1000
0001
0100
0010
1000
,
0001
0010
0001
0010
0001
0010
0001
0100
0010
0100
0010
0100
,
0010
1000
0100
0010
0001
0100
0010
1000
0100
0010
0001
0100
,
0010
0100
0001
0100
0100
0100
0010
0010
0010
1000
1000
1000
,
0001
0001
0001
0100
0001
1000
0010
0100
1000
0100
0010
0001
,
0100
0010
1000
0100
0010
0001
0010
0100
1000
0010
0010
0010
,
0100
0100
0100
0001
0001
0001
1000
1000
1000
0010
0100
0001
,
0010
0100
1000
0100
0010
0001
0010
0100
1000
0001
0100
0010
,
0001
0001
0001
0100
0100
0100
0010
0010
0010
1000
1000
1000
,
0010
0100
1000
0100
0010
0001
0100
0010
1000
0100
0010
0001
,
0010
0100
1000
0100
0100
0100
0001
0001
0001
1000
1000
1000
,
0010
0000
0000
0000
0010
0000
0000
0000
0010
0000
0000
0000
0100
0000
0000
0000
0010
0000
0000
0000
0100
0000
0000
0000
0010
0000
0000
0000
0000
0000
0000
0000
0100
0000
0000
0000
0010
0000
0000
1000
0000
0000
0000
0000
0000
1000
0000
0000
,
0000
0000
0000
1000
0000
0000
0000
0000
0000
0000
0000
0000
0000
0000
0000
1000
0000
0000
0000
0000
0000
0000
0000
0000
0001
0000
0000
0000
0000
0000
0010
0000
0000
0000
0000
0000
0000
0000
0000
0000
0000
0000
0000
0000
0100
0000
0000
0000
,
0000
0000
0000
1000
0000
0000
0000
0000
0000
2000
0000
0000
0000
0000
0000
0000
0000
0000
0000
0000
0000
0000
0000
0000
0000
0000
0000
3000
0000
0000
0000
0000
0000
0000
0000
0000
0001
0000
0000
0000
0010
0000
0000
0000
0001
0000
0000
0000
,
0100
0001
0010
0001
0100
0001
0010
0001
0100
0001
0010
0001
,
0100
0001
0100
1000
0010
1000
0100
1000
0010
1000
0100
2000
,
0000
0000
0000
0100
0000
3000
0001
0000
0100
0000
1000
0000
,
0000
0000
1000
0000
0000
0000
0001
0000
0000
0010
0000
0000
0100
0000
0000
1000
0000
0000
0000
0000
0000
0000
0001
0000
,
0010
0001
0010
0002
0000
0000
0013
0100
0001
0010
0100
1000
,
0010
0001
0100
0010
0100
1000
0100
0010
0001
0010
0001
0100
,
0010
0000
0100
0000
0001
0000
0010
0000
0001
0000
1000
0000
0100
0000
1000
0000
0010
0000
0100
0000
0000
1001
0000
0000
,
0010
0100
1000
0000
0010
0000
0100
0000
0001
0000
0100
0000
1000
0000
0110
0000
,
0001
0100
0010
0000
1000
0000
0001
0000
0100
0000
0010
0000
0000
0000
1010
0000
,
0100
0010
0001
0000
0001
0000
0100
0000
0010
0000
1000
0000
0100
0000
0010
0001
,
0100
0000
0000
0010
0000
0000
0001
0000
0000
0010
0000
0000
0100
0000
0000
1000
0000
0000
0010
0000
0000
0100
0000
0000
0010
0000
0000
0001
0000
0000
0010
0000
1000
0000
0100
0000
0010
0000
0001
0000
0010
0000
1100
0000
0000
0000
0000
0000
,
0100
0010
1000
0000
0100
0000
0001
0000
1000
0000
0010
0000
0100
0000
0101
0000
,
0001
1000
0100
0000
0010
0000
1000
0000
0001
0000
0100
0000
0000
0000
1001
0000
,
0010
0100
1000
0000
0100
0000
0001
0000
0010
0000
0100
0000
1000
0000
0101
0010
,
0100
1000
0100
0010
0001
0010
0001
0010
0100
1000
0100
0010
0100
0010
0101
0010
,
0100
1000
0100
0010
0100
1000
0100
1000
0100
0010
0001
0010
0100
0010
1001
0000
,
0000
0000
0000
0000
0000
0000
0000
0000
0000
0000
0000
0000
0000
0000
1000
0100
,
0010
0001
0010
0100
1000
0010
0100
0001
0010
0100
1000
0010
0100
0001
0010
0100
,
1000
0001
0100
0010
0100
0001
1000
0100
0010
0001
0100
0010
1000
0100
0010
0001
,
0100
0010
1000
0100
0010
0001
1000
0010
0100
0010
1000
0001
0010
0001
0100
0010
,
0100
0001
0010
0001
1000
0100
1000
0010
0100
0010
1000
0100
1000
0001
0010
0001
,
0100
0010
0100
0001
0010
0001
1000
0100
1000
0010
0100
0010
1000
0100
1000
0001
,
0010
0100
0010
0001
1000
0100
0010
0100
1000
0001
0010
0100
0010
0001
1000
0100
,
0010
0100
1000
0010
0100
0010
0100
1000
0100
1000
0100
0010
0100
0010
0001
0010
,
0001
0010
0100
1000
0100
0010
0001
0010
0100
0010
0001
1000
0100
0010
0100
1000
,
0001
0010
0100
0010
0001
1000
0100
0010
0100
1000
0001
0010
0100
0010
0001
0100
,
0010
0100
1000
0100
1000
0010
0100
0010
1000
0100
1000
0001
0010
0001
0100
0010
,
0100
0001
0010
0001
0010
0100
1000
0010
0100
0001
0010
0100
1000
0100
0010
0001
,
0010
0100
0010
0001
0010
0001
0010
0100
1000
0100
0010
0001
0010
0100
1000
0100
,
0010
0100
1000
0100
1000
0100
0010
0001
0010
0100
0010
0001
0010
0100
0010
0100
,
1000
0100
0010
0100
0010
0001
0010
0100
1000
0010
0100
0001
0010
0100
0010
0010
,
0010
0010
0010
0010
0010
0010
0010
0010
0010
0010
0010
0010
0010
0010
0010
0010
,
0010
0001
0001
0001
0001
0001
0001
0001
0001
0001
0001
0001
0001
0001
0001
0010
,
0100
1000
0010
0100
0001
0010
0100
1000
0100
0010
0001
0100
,
0010
0100
1000
0100
0010
0100
0010
0001
0010
0100
1000
0100
,
0010
0100
0001
0100
0001
0100
0001
0100
0001
0010
0100
1000
0010
1000
0010
1000
,
0010
1000
0010
1000
0100
0010
0001
0010
0100
1000
0100
0010
0100
1000
0100
0010
,
0001
1000
0010
0100
0001
1000
0010
0100
0001
1000
0010
0100
1000
0100
0010
0001
,
0100
0010
1000
0100
0010
0001
1000
0010
0100
0010
1000
0001
0010
0100
1000
0010
,
0100
0001
0010
0100
1000
0010
0100
0001
0020
0000
0000
0000
0000
0000
0000
0000
,
0130
1000
0010
0100
0001
0010
0100
1000
1000
0100
0010
0001
0001
0010
0100
0100
,
0010
0010
0100
1000
0100
0010
0001
0100
0010
1000
0100
0010
0100
1000
0001
0010
,
0100
0010
0001
1000
0100
0010
0100
1000
0001
0010
0100
0010
0001
1000
0100
0010
,
0100
1000
0001
0010
0100
1000
0010
0100
0001
0010
0100
1000
0010
0100
0001
0010
,
0100
1000
0001
0100
0010
0100
0001
1000
0100
0010
0001
0100
0010
1000
0100
0010
,
0001
1000
0010
0100
0010
1000
0001
1000
0010
0100
0001
1000
0010
0100
1000
0010
,
0100
0010
0001
0010
0100
1000
0100
0010
0001
0100
0010
0100
1000
0100
1000
0010
,
0100
0010
1000
0100
1000
0001
0010
0001
0100
0010
0100
0001
0010
0001
0010
0010
,
0010
0010
0010
0010
0010
0010
0010
0010
0010
0010
0010
0010
0010
0010
0010
0010
,
0010
0100
1000
0010
0100
1000
0100
0010
0001
0010
0100
1000
0010
0100
0001
0010
,
0100
0010
0001
1000
0100
0010
0100
1000
0001
0010
0100
1000
0010
0100
0001
0010
,
0100
1000
0010
0100
0001
0010
0100
1000
0001
0100
0010
0100
0001
1000
0100
0010
,
0001
0100
0010
1000
0100
0010
0001
0100
0010
1000
0100
0010
0001
0100
0010
0100
,
1000
1000
1000
1000
1000
1000
1000
1000
1000
1000
1000
1000
1000
1000
1000
1000
,
1000
0001
0001
0001
0001
0001
0001
0001
0001
0001
0001
0001
0001
0001
0001
0001
,
0101
0100
0100
0010
0001
0010
0100
1000
0100
0010
0001
0010
0100
0010
0001
0010
,
0001
0010
0100
1000
0100
0010
0001
0010
0100
1000
0100
0010
0100
1000
0100
1000
,
0100
0010
0100
0010
0001
0010
0001
0010
1000
0010
1000
0010
0100
0001
0100
0001
,
0010
0100
1000
0100
0010
1000
0010
1000
0010
1000
0010
1000
0100
0010
0001
0100
,
0010
0100
1000
0100
0010
0001
0010
0100
0010
0100
1000
0100
1000
0100
0010
0001
,
0010
0100
1000
0010
0100
0001
0010
0100
1000
0010
0100
0001
0010
0100
1000
0001
,
0100
0100
0100
0100
0100
0100
0100
0100
0100
0100
0100
0100
0100
0100
0100
0100
,
0100
0010
0010
0010
0010
0010
0010
0010
0010
0010
0010
0010
0010
0010
0010
0010
,
0010
0100
1000
0100
0010
0001
0010
0100
1000
0100
0010
0001
0010
0001
0010
0100
,
0010
0001
0010
0100
1000
0100
1000
0100
0010
0100
1000
0100
0010
0001
1000
0100
,
0010
0000
0000
0100
0000
0000
1000
0000
0000
0001
0000
0000
0010
0000
0000
0100
0000
0000
0010
0000
0000
0001
0000
0000
1000
0000
0000
0100
0000
0000
0010
0000
0000
0001
0000
0000
0010
0000
0000
0100
0000
0000
1000
0000
0001
0000
1000
0000
,
0001
1000
0001
1000
0001
1000
0001
1000
0001
1000
0001
1000
0001
1000
0001
1000
0001
1000
0001
1000
0001
1000
0001
1000
,
0001
1000
0010
0100
0001
0010
1000
0100
0010
0100
1000
0100
0010
0001
0010
0100
,
0010
0001
0010
0001
0010
0100
1000
0100
1000
0010
0100
0010
1000
0100
1000
0001
,
0010
0001
0100
0010
0100
0001
0010
0001
1000
0100
1000
0010
0100
0010
1000
0100
,
1000
0001
0010
0001
0100
0010
0100
0001
0010
0001
1000
0100
0010
0100
1000
0001
,
0010
0100
0010
0001
1000
0100
0010
0100
1000
0001
0010
0100
0010
0001
1000
0100
,
0010
0100
1000
0001
0010
0100
0010
0001
0010
0100
0010
0001
0010
0100
1010
0000
,
0000
0000
0100
0000
0000
0010
0000
0100
,
0000
0000
0001
0000
0000
0100
0000
1001
,
0000
0000
0000
0000
,
0000
0010
0000
1000
0000
0001
0000
1100
,
0000
0000
0010
0000
0000
0100
0000
0001
,
0000
0000
1000
0000
0000
0010
0000
0011
,
0000
0000
0000
0000
,
0000
1000
0000
0001
0000
0100
0000
0110
,
0000
0000
0010
0000
0000
1000
0000
0100
,
0000
0000
0001
0000
0000
0100
0000
0101
,
0000
0000
0010
0000
0000
0100
0000
0001
,
0000
0000
0100
1010
,
0000
0010
0000
0000
0100
0000
0001
0000
,
0000
1000
0000
0000
0010
0000
0000
1001
,
0000
0000
0000
0000
0000
0000
0000
0000
0000
0000
0000
0000
0000
0000
1000
0100
,
0010
0001
0010
0100
0010
0001
0010
0100
1000
0100
0010
0001
0010
0100
1010
0000
,
1010
0000
0100
0010
0001
0000
0101
0000
0101
0000
0010
0100
1000
0000
1100
0000
,
1100
0000
0010
0100
0001
0000
0011
0000
0011
0000
0100
0010
1000
0000
1100
0000
,
1100
0000
0001
0010
0100
0000
0011
0000
0011
0000
0100
0010
0001
0000
0110
0000
,
0110
0000
0010
0100
1000
0000
0110
0000
0110
0000
0001
0010
0100
1000
0100
0010
,
0100
1000
0100
0010
0001
0010
0100
0010
0001
0010
0100
1000
0100
0010
0100
1000
,
0100
0010
0001
0010
0100
0010
0001
0010
0100
1000
0100
0010
0100
1000
0010
0010
,
0010
0010
0010
0010
0010
0010
0010
0010
0010
0010
0010
0010
0010
0010
0010
0100
,
0010
0001
0010
0001
0100
0010
0100
0001
0010
0001
1000
0100
1000
0000
0110
0000
,
0110
0000
0001
0010
0100
0000
1010
0000
1010
0000
0100
0001
0010
0000
0101
0000
,
0101
0000
0010
1000
0100
0000
1100
0000
1100
0000
0010
0100
0001
0000
0011
0000
,
0011
0000
0010
0100
1000
0000
1001
0000
1001
0000
0010
0100
0010
0000
1001
0000
,
1001
0000
0100
0010
0100
0000
0011
0000
0011
0000
0001
0010
0100
1000
0100
0010
,
0001
1000
0010
0100
0001
0010
0100
1000
0010
0100
0010
0001
0010
0100
1001
0000
,
0000
0000
0110
0000
0000
0000
1010
0000
0000
0000
0101
0000
0000
0000
1010
0010
,
0010
0010
0010
0010
0010
0010
0010
0010
0010
0010
0010
0010
0010
0010
0010
0100
,
0100
0100
0100
0100
0100
0100
0100
0100
0100
0100
0100
0100
0100
0100
0100
0001
,
0001
0001
0001
0001
0001
0001
0001
0001
0001
0001
0001
0001
0001
0001
0001
1000
,
1000
1000
1000
1000
1000
1000
1000
1000
1000
1000
1000
1000
1000
1000
1000
0010
,
0010
0010
0010
0010
0010
0010
0010
0010
0010
0010
0010
0010
0010
0010
0010
0001
,
0001
0001
0001
0001
0001
0001
0001
0001
0001
0001
0001
0001
0001
0001
0001
0010
,
0100
1000
0100
0010
0001
0100
0010
0100
0001
0010
0100
1000
0100
0010
0001
0010
,
0100
1000
1000
0100
0010
0001
0001
0010
0100
0100
0010
0010
0100
1000
0100
0010
,
0001
0001
0001
0001
0001
0001
0001
0001
0001
0001
0001
0001
0001
0001
0001
0001
,
0001
0100
0100
0100
0100
0100
0100
0100
0100
0100
0100
0100
0100
0100
0100
0100
,
0100
0010
0010
0010
0010
0010
0010
0010
0010
0010
0010
0010
0010
0010
0010
0010
,
0010
1000
1000
1000
1000
1000
1000
1000
1000
1000
1000
1000
1000
1000
1000
1000
,
1000
0010
0010
0010
0010
0010
0010
0010
0010
0010
0010
0010
0010
0010
0010
0010
,
0010
0001
0001
0001
0001
0001
0001
0001
0001
0001
0001
0001
0001
0001
0001
0001
,
0001
0010
0100
0010
0100
0010
0001
0010
0100
1000
0100
0010
0100
0010
0001
0100
,
0001
0100
0010
0100
1000
0100
0010
0001
1000
0100
0010
0100
1000
0001
0110
0000
,
1010
1100
1010
0000
1001
0000
0101
0000
,
1010
0000
1001
1001
1001
1001
0000
0011
,
0110
1100
0110
0000
0011
0000
0101
0000
,
0110
0000
1010
1010
1010
1010
0000
0010
,
1000
0001
0100
0000
0010
0000
0100
0000
,
1000
0000
1000
0100
0010
0001
0000
2002
,
0000
0000
0000
0000
,
0000
0000
0000
0000
,
0000
0000
0000
0000
,
0000
0000
0000
0000
0000
0000
0000
3113
,
1010
0110
0110
0101
0011
1010
1010
0200
,
0000
0000
0000
0000
0000
0000
0000
0000
0000
0000
0000
0000
0300
0000
0000
0000
0000
0000
0000
0000
0000
0001
0010
0100
,
1000
0100
0010
0001
0000
0000
0000
0000
1010
0000
0000
0000
0101
0000
0000
0000
0110
0000
0000
0000
1010
0000
0000
0000
;
