#TITLE:Alive;
#SUBTITLE:MitiS Remix;
#ARTIST:Krewella;
#TITLETRANSLIT:;
#SUBTITLETRANSLIT:;
#ARTISTTRANSLIT:;
#CREDIT:;
#BANNER:../Wubstream - ban.png;
#BACKGROUND:../Wubstream - bg.png;
#LYRICSPATH:;
#CDTITLE:;
#MUSIC:Krewella - Alive (MitiS Remix).ogg;
#OFFSET:-0.011;
#SAMPLESTART:99.936;
#SAMPLELENGTH:12.000;
#SELECTABLE:YES;
#BPMS:0.000=142.000;
#STOPS:;
#BGCHANGES:;
// cache tags:
#FIRSTBEAT:14.500;
#LASTBEAT:400.000;
#SONGFILENAME:Songs/Wubstream/Alive (MitiS Remix) - [Rynker]/alive.sm;
#HASMUSIC:1;
#HASBANNER:1;
#MUSICLENGTH:175.767;
// end cache tags

//---------------dance-single - Rynker----------------
#NOTES:
     dance-single:
     Rynker:
     Challenge:
     12:
     0.814,0.882,0.006,0.444,0.865,923.000,1.000,78.000,0.000,0.000:

0000
0000
0000
0000
,
0000
0000
0000
0000
,
0000
0000
0000
0000
,
0000
0000
0000
0000
0000
0001
0100
0000
,
0010
0000
0000
1000
0000
0000
0100
0000
,
0000
0000
0000
0000
0000
0000
0000
0010
,
0001
0000
0000
1000
0000
0010
0100
0000
,
0000
0000
0000
0000
,
0002
0103
0010
2000
3100
0010
0200
1300
,
0001
0100
0010
0100
0001
1000
0100
0020
,
0032
0013
0100
2000
3001
0200
0320
0130
,
0001
0000
1000
0000
0100
0000
1000
0001
0010
0100
1000
0010
0100
0000
0001
0000
,
1000
0001
0100
0010
0000
1000
0100
0010
,
0000
0000
0000
0000
0000
0000
0000
0001
,
0000
0100
0010
1000
0000
0001
0010
0100
,
0000
0000
0000
0000
0000
0000
0000
1000
,
1001
0001
0100
0010
0100
0001
0010
0100
,
1000
0000
0100
0000
0010
0000
0001
0000
1000
0000
0010
0000
1000
0000
0100
0010
,
0001
0000
0100
0000
0010
0000
1000
0000
0001
0000
0010
0000
0100
0000
1000
0100
,
0010
0001
0010
0100
1000
0001
0100
0010
0100
0000
0000
0000
0000
0000
0000
0000
,
0001
0100
0001
0100
0010
1000
0000
0100
0010
0001
0010
0001
1000
0010
1000
0000
,
0010
0000
0000
0000
0000
0000
0100
0000
0000
0000
0000
0000
0001
0000
0000
0000
0100
0000
0000
0000
0010
0000
0000
0000
1000
0000
0000
0001
0000
0000
0000
0000
0000
1000
0000
0000
0001
0000
0000
0010
0000
0000
0100
0000
0000
1000
0000
0000
,
0010
0000
0000
0000
0000
0000
0100
0000
0000
0000
0000
0000
0001
0000
0000
0000
1000
0000
0000
0000
0100
0000
0000
0000
0010
0000
0000
0000
0000
0000
0100
0000
0000
1000
0000
0000
0001
0000
0000
1000
0000
0000
0010
0000
0000
0100
0000
0000
,
0001
1000
0010
0100
0001
0100
0010
1000
0001
0010
0001
1000
0100
0000
0000
0010
0000
0000
0001
0000
0000
0100
0000
0000
,
0001
0010
0100
1000
0001
0100
0000
0010
1000
0010
0100
0001
1000
0100
0010
0000
,
0002
0000
0000
0000
0000
0000
0000
0000
0000
0000
0000
0000
1003
0000
0000
0000
0010
0000
0000
0000
1000
0000
0000
0000
0001
0000
0000
0000
0000
0000
0020
0000
0000
0000
0000
0000
0130
0000
0000
1000
0000
0000
0100
0000
0000
0000
0000
0000
,
2000
0000
0000
0000
3001
0100
0010
2000
,
3001
0010
0100
0010
0001
1000
0001
0100
0010
0100
0001
1000
0001
0000
0000
1000
0000
0000
0100
0000
0000
1000
0000
0000
,
0100
0010
0001
0010
0100
1000
0000
0001
0100
0010
1000
0010
0100
0001
1000
0000
,
0002
0000
0000
0000
0000
0000
0000
0000
0000
0000
0000
0000
0013
0000
0000
0000
0100
0000
0000
0000
1000
0000
0000
0000
0100
0000
0000
1000
0000
0000
0000
0000
0000
0001
0000
0000
0100
0000
0000
0010
0000
0000
1000
0000
0000
0001
0000
0000
,
0200
0000
0000
0000
0000
0000
0000
0000
0000
0000
0000
0000
0301
0000
0000
0000
0100
0000
0000
0000
0010
0000
0000
0000
2000
0000
0000
0000
0000
0000
3100
0000
0000
0010
0000
0000
0001
0000
0000
1000
0000
0000
0002
0000
0000
0000
0000
0000
,
0103
0000
0010
0000
1000
0000
0010
0000
0100
0000
0001
0000
1000
0000
0100
0000
1000
0000
0001
0000
0010
0000
0100
0000
1000
0000
0000
0000
0000
0000
0001
0000
0000
0100
0000
0000
0000
0000
0000
0001
0000
0000
1000
0000
0000
0000
0000
0000
,
0100
1000
0001
0010
0001
1000
0000
0001
0100
0010
1000
0001
0100
0010
1000
0000
,
0002
0000
0000
0000
0000
0000
1003
0000
0010
0000
1000
0000
0001
0000
0000
0020
0000
0000
0130
0000
0000
0100
0000
0000
,
2000
0000
0000
0000
0000
0000
0000
0000
3001
0000
0100
0000
0010
1000
0001
0010
,
0001
1000
0100
0010
0001
1000
0001
0100
0010
0100
0001
1000
0001
0000
0000
1000
0000
0000
0100
0000
0000
1000
0000
0000
,
0001
0100
0010
1000
0001
0010
0100
1000
,
0001
0010
0100
1000
0001
0100
0010
1000
,
0001
0000
0010
0000
0100
0000
1000
0000
0010
0000
0100
0000
0001
0000
0010
0100
,
1000
0100
0010
0001
0100
0010
1000
0100
1000
0000
0000
0000
0000
0000
0000
0000
,
0001
0010
0100
1000
0100
1000
0001
0000
0200
0000
0310
0000
2000
0000
3010
0000
,
0200
0000
0000
0000
0000
0000
0000
0000
0301
0000
1000
0100
2000
0000
0000
0000
,
3200
0000
0000
0000
0000
0000
0000
0000
0310
0000
0001
1000
0002
0000
0000
0000
,
1003
0010
0100
0010
1000
0001
0010
0100
1000
0100
0010
0001
1000
0000
0000
0001
0000
0000
0200
0000
0000
0301
0000
0000
,
0010
0001
1000
0010
0100
0010
1000
0000
0200
0000
1300
0000
0020
0000
1030
0000
,
0002
0000
0000
0000
0000
0000
1003
0000
0100
0000
0010
0001
0020
0000
0031
0000
,
2000
0000
0000
0000
0000
0000
0000
0000
3010
0000
0100
0001
0200
0000
0000
0000
,
0301
0000
1000
0000
0001
0000
0010
0000
0100
0000
0010
0000
0001
0000
1000
0000
0001
0000
0100
0000
0010
0000
1000
0000
0001
0000
0000
0000
0000
0000
0100
0000
0000
0001
0000
0000
1000
0000
0000
0000
0000
0000
0100
0000
0000
0000
0000
0000
,
1000
0001
0010
0100
1000
0100
0010
0000
0200
0000
1300
0000
0020
0000
1030
0000
,
0200
0000
0000
0000
0000
0000
0010
0000
0310
0000
0001
1000
0002
0000
0000
0000
,
2003
0000
0000
0000
0000
0000
0000
0000
3010
0000
0100
0001
0200
0000
0000
0000
,
0301
0000
1000
0000
0001
0000
0010
0000
0100
0000
0010
0000
0001
0000
1000
0000
0001
0000
0100
0000
0000
0001
0000
0000
1000
0000
0000
0000
0000
0000
0100
0000
0000
0000
0000
0000
0010
0000
0000
0000
0000
0000
0001
0000
0000
0000
0000
0000
,
0100
0010
0100
0001
1000
0100
1000
0000
0020
0000
1030
0000
0200
0000
1300
0000
,
0020
0000
0000
0000
0000
0000
0130
0000
0001
0000
1000
0100
2000
0000
3001
0000
,
0200
0000
0000
0000
0000
0000
0000
0000
0301
0000
1000
0010
2000
0000
0000
0000
,
3001
0000
0010
0000
0100
0000
0010
0000
0001
0000
1000
0000
0001
0000
0100
0000
0010
0000
0100
0000
0001
0000
1000
0000
0100
0000
0000
0000
0000
0000
1000
0000
0000
0010
0000
0000
0100
0000
0000
0000
0000
0000
0001
0000
0000
0000
0000
0000
,
1000
0001
0010
0100
0010
0001
0000
1000
0010
0100
0001
0100
0010
1000
0001
0000
,
1000
0000
0000
0000
0000
0000
0000
0000
0000
0000
0000
0000
0100
0000
0000
0000
1000
0000
0000
0000
0001
0000
0000
0000
0100
0000
0000
0001
0000
0000
0000
0000
0000
1000
0000
0000
0010
0000
0000
0100
0000
0000
0001
0000
0000
1000
0000
0000
,
0100
0000
0000
0000
0000
0000
0000
0000
0000
0000
0000
0000
1000
0000
0000
0000
0100
0000
0000
0000
0010
0000
0000
0000
0001
0000
0000
0000
0000
0000
1000
0000
0000
0010
0000
0000
0100
0000
0000
0001
0000
0000
1000
0000
0000
0100
0000
0000
,
0010
0001
1000
0001
0100
0010
0100
0001
1000
0100
1000
0001
0010
0000
0000
0002
0000
0000
1003
0000
0000
0020
0000
0000
,
0130
0001
1000
0100
0010
0001
0000
1000
0001
0100
0010
0100
0001
1000
0100
0000
,
0020
0000
0000
0000
0000
0000
0000
0000
0000
0000
0000
0000
0031
0000
0000
0000
1000
0000
0000
0000
0001
0000
0000
0000
0100
0000
0000
0000
0000
0000
0010
0000
0000
0000
0000
0000
1000
0000
0000
0001
0000
0000
2000
0000
0000
0000
0000
0000
,
0001
0000
0000
0000
3002
0103
0020
1030
,
0001
1000
0001
0100
0010
0100
0001
1000
0100
1000
0001
0010
0001
0000
0000
1000
0000
0000
0001
0000
0000
1000
0000
0000
,
0001
1000
0100
0010
0100
1000
0000
0001
0100
0010
1000
0010
0100
0001
1000
0000
,
0001
0000
0000
0000
0000
0000
0000
0000
0000
0000
0000
0000
0010
0000
0000
0000
0001
0000
0000
0000
1000
0000
0000
0000
0010
0000
0000
1000
0000
0000
0000
0000
0000
0001
0000
0000
0100
0000
0000
0010
0000
0000
1000
0000
0000
0001
0000
0000
,
0010
0000
0000
0000
0000
0000
0000
0000
0000
0000
0000
0000
0001
0000
0000
0000
0010
0000
0000
0000
0100
0000
0000
0000
1000
0000
0000
0000
0000
0000
0001
0000
0000
0100
0000
0000
0010
0000
0000
0000
0000
0000
1000
0000
0000
0000
0000
0000
,
0100
0000
1000
0000
0001
0000
1000
0000
0010
0000
0100
0000
0010
0000
1000
0000
0001
0000
0010
0000
0001
0000
1000
0000
0100
0000
0000
0000
0000
0000
1000
0000
0000
0010
0000
0000
0000
0000
0000
1000
0000
0000
0001
0000
0000
0000
0000
0000
,
0010
0001
1000
0100
1000
0001
0000
1000
0010
0100
0001
1000
0010
0100
0001
0000
,
2000
0000
0000
0000
0000
0000
3001
0000
0100
0000
0001
0000
1000
0000
0000
0200
0000
0000
0310
0000
0000
0010
0000
0000
,
0002
0000
0000
0000
0000
0000
0000
0000
1003
0000
0010
0000
0100
0001
1000
0100
,
1000
0001
0010
0100
1000
0001
1000
0010
0100
0010
1000
0001
1000
0000
0000
0001
0000
0000
0010
0000
0000
0001
0000
0000
,
1000
0010
0100
0001
1000
0100
0010
0001
,
1000
0100
0010
0001
1000
0010
0100
0001
,
1000
0000
0100
0000
0010
0000
0001
0000
0100
0000
0010
0000
1000
0000
0100
0010
,
0001
0010
0100
1000
0010
0100
0001
0010
0001
0000
0000
0000
0000
0000
0000
0000
,
1000
0100
0010
0001
0010
0001
1000
0000
0020
0000
0130
0000
0002
0000
0103
0000
,
0020
0000
0000
0000
0000
0000
0000
0000
1030
0000
0001
0010
0002
0000
0000
0000
,
0023
0000
0000
0000
0000
0000
0000
0000
0130
0000
1000
0001
2000
0000
0000
0000
,
3001
0100
0010
0100
0001
1000
0100
0010
0001
0010
0100
1000
0001
0000
0000
1000
0000
0000
0020
0000
0000
1030
0000
0000
,
0100
1000
0001
0100
0010
0100
0001
0000
0020
0000
0031
0000
0200
0000
0301
0000
,
2000
0000
0000
0000
0000
0000
3001
0000
0010
0000
0100
1000
0200
0000
1300
0000
,
0002
0000
0000
0000
0000
0000
0000
0000
0103
0000
0010
1000
0020
0000
0000
0000
,
1030
0000
0001
0000
1000
0000
0100
0000
0010
0000
0100
0000
1000
0000
0001
0000
1000
0000
0010
0000
0100
0000
0001
0000
1000
0000
0000
0000
0000
0000
0010
0000
0000
1000
0000
0000
0001
0000
0000
0000
0000
0000
0010
0000
0000
0000
0000
0000
,
0001
1000
0100
0010
0001
0010
0100
0000
0020
0000
0031
0000
0200
0000
0301
0000
,
0020
0000
0000
0000
0000
0000
0100
0000
0130
0000
1000
0001
2000
0000
0000
0000
,
3002
0000
0000
0000
0000
0000
0000
0000
0103
0000
0010
1000
0020
0000
0000
0000
,
1030
0000
0001
0000
1000
0000
0100
0000
0010
0000
0100
0000
1000
0000
0001
0000
1000
0000
0010
0000
0000
1000
0000
0000
0001
0000
0000
0000
0000
0000
0010
0000
0000
0000
0000
0000
0100
0000
0000
0000
0000
0000
1000
0000
0000
0000
0000
0000
,
0010
0100
0010
1000
0001
0010
0001
0000
0200
0000
0301
0000
0020
0000
0031
0000
,
0200
0000
0000
0000
0000
0000
0310
0000
1000
0000
0001
0010
0002
0000
1003
0000
,
0020
0000
0000
0000
0000
0000
0000
0000
1030
0000
0001
0100
0002
0000
0000
0000
,
1003
0000
0100
0000
0010
0000
0100
0000
1000
0000
0001
0000
1000
0000
0010
0000
0100
0000
0010
0000
1000
0000
0001
0000
0010
0000
0000
0000
0000
0000
0001
0000
0000
0100
0000
0000
0010
0000
0000
0000
0000
0000
1000
0000
0000
0000
0000
0000
,
0100
0010
0001
0100
0010
1000
0001
0010
,
0100
1000
0001
0100
0010
0100
0001
1000
,
0100
0010
0001
0100
0010
0100
0001
1000
,
0100
1000
0001
0100
0010
0100
0001
1000
,
0100
1000
0001
0100
0010
0100
0001
0010
,
0100
0010
0001
0100
0010
1000
0001
0010
,
0100
0010
0001
0100
0010
1000
0001
0010
,
0100
1000
0100
1000
0010
0100
0010
1000
,
0100
0000
0000
0000
;
