#TITLE:Never Had a Dream Come True;
#SUBTITLE:Sexuality Violation;
#ARTIST:S Club 7;
#TITLETRANSLIT:;
#SUBTITLETRANSLIT:;
#ARTISTTRANSLIT:;
#CREDIT:;
#BANNER:Never Had a Dream Come True-bn.png;
#BACKGROUND:Never Had a Dream Come True-bg.png;
#LYRICSPATH:;
#CDTITLE:;
#MUSIC:13 - Never Had A Dream Come True.ogg;
#OFFSET:-0.466;
#SAMPLESTART:119.232;
#SAMPLELENGTH:12.000;
#SELECTABLE:YES;
#BPMS:0.000=246.000;
#STOPS:;
#BGCHANGES:;
// cache tags:
#FIRSTBEAT:32.000;
#LASTBEAT:926.000;
#SONGFILENAME:Songs/Sexuality Violation 2/Never Had a Dream Come True - [Janus5k]/Never Had a Dream Come True.sm;
#HASMUSIC:1;
#HASBANNER:1;
#MUSICLENGTH:240.718;
// end cache tags

//---------------dance-single - T. Swag----------------
#NOTES:
     dance-single:
     T. Swag:
     Easy:
     12:
     0.951,1.000,0.108,0.777,0.775,1390.000,26.000,187.000,2.000,1.000:
0000
0000
0000
0000
,
0000
0000
0000
0000
,
0000
0000
0000
0000
,
0000
0000
0000
0000
,
0000
0000
0000
0000
,
0000
0000
0000
0000
,
0000
0000
0000
0000
,
0000
0000
0000
0000
,
2000
0000
3020
0000
,
0000
0000
0000
0000
,
0000
0000
1030
0001
0200
0000
0000
0000
,
0000
0000
0000
0000
,
0000
0000
0000
0000
,
0302
0023
0230
2300
3002
0023
0230
2300
,
3002
0203
0320
2030
3002
0203
0320
2030
,
3002
0023
0230
0320
0032
0023
0230
0320
,
0032
0203
0302
2003
3002
0203
0302
2003
,
3200
0300
0010
0001
,
1000
0001
0010
0000
,
0100
0000
2000
0000
,
0000
0000
3000
0001
,
0200
0000
0310
2000
,
0000
0000
3100
0020
,
0000
0000
0000
0000
,
0030
0000
0000
0000
,
0MM0
0000
0001
1000
,
0002
0000
0000
0103
,
0010
0100
0002
0000
,
0003
0000
1000
0100
,
0020
0000
0032
2003
,
0000
0000
3020
0230
,
0000
0000
0302
0000
,
0000
0000
2003
3200
,
0310
0001
0010
0001
0100
0010
1000
0010
,
0100
0000
0001
0000
0100
0000
0001
0000
1000
0000
0100
0000
1000
0100
1000
0100
,
1000
0001
0100
0001
0010
0001
0010
0001
,
1000
0000
0010
0000
1000
0000
0001
0000
1000
0000
0100
0000
0010
0001
0010
0001
,
1000
0001
1000
0001
0100
0010
0100
0001
,
1000
0000
0100
0000
1000
0000
0100
0000
0010
0000
0001
0000
1000
0001
1000
0001
,
1000
0010
0100
0010
1000
0001
1000
0001
,
0010
0000
0100
0000
0010
0000
0001
0000
1000
0000
0010
0000
1000
0010
1000
0010
,
1000
0001
1000
0100
0010
0001
0010
0100
,
1000
0000
0001
0000
1000
0000
0010
0000
0100
0000
0001
0000
0100
0001
0100
0001
,
0100
0001
0010
0001
1000
0010
0100
0010
,
1000
0000
0100
0000
0010
0000
0001
0000
1000
0000
0010
0000
0100
0001
0100
0001
,
0100
0001
0010
0100
1000
0100
0010
0001
,
1000
0010
0100
0010
1000
0001
1000
0001
,
0020
0000
0000
0032
,
2003
3020
0230
0302
,
1003
0000
0100
0000
0010
0000
0100
0000
1000
0000
0001
0000
1000
0000
0000
0010
0000
0000
0100
0000
0000
0010
0000
0000
,
1000
0000
0001
0000
0100
0000
0001
0000
1000
0000
0100
0000
0010
0000
0000
0001
0000
0000
1000
0000
0000
0001
0000
0000
,
0100
0000
0010
0000
1000
0000
0010
0000
0100
0000
0001
0000
1000
0000
0000
0001
0000
0000
0010
0000
0000
0100
0000
0000
,
2000
3020
0230
0302
,
1003
0000
0010
0000
0100
0000
0010
0000
1000
0000
0001
0000
1000
0000
0000
0100
0000
0000
0010
0000
0000
0100
0000
0000
,
1000
0001
0010
0001
1000
0010
0100
0001
0010
0100
1000
0010
,
0100
0000
0001
0000
1000
0000
0001
0000
0100
0000
0001
0000
1000
0000
0000
0100
0000
0000
0010
0000
0000
0001
0000
0000
,
2000
3002
0203
0320
,
1030
0000
0010
0000
0100
0000
0010
0000
0000
1000
0000
0000
0001
0000
0100
0000
0001
0000
1000
0000
0100
0000
1000
0000
,
0001
0000
0010
0000
0100
0000
1000
0000
0000
0001
0000
0000
0100
0000
0010
0000
0100
0000
0001
0000
0000
1000
0000
0000
,
0001
0000
0010
0000
0100
0000
0010
0000
0000
0001
0000
0000
1000
0000
0010
0000
1000
0000
0001
0000
0000
0100
0000
0000
,
0001
0010
0100
1000
0001
0100
0010
1000
0001
0020
0000
0000
,
0032
0000
1003
2000
,
0000
0000
3020
0000
,
0230
0300
0100
0002
,
2003
3020
0230
0302
,
1003
0000
0100
0000
0010
0000
0100
0000
1000
0000
0001
0000
1000
0000
0000
0010
0000
0000
0100
0000
0000
0010
0000
0000
,
1000
0000
0001
0000
0100
0000
0001
0000
1000
0000
0100
0000
0010
0000
0000
0001
0000
0000
1000
0000
0000
0001
0000
0000
,
0100
0000
0010
0000
1000
0000
0010
0000
0100
0000
0001
0000
1000
0000
0000
0001
0000
0000
0010
0000
0000
0100
0000
0000
,
2000
3020
0230
0302
,
1003
0000
0010
0000
0100
0000
0010
0000
0000
1000
0000
0000
0001
0000
0010
0000
0001
0000
0100
0000
0010
0000
1000
0000
,
0001
0000
0010
0000
0001
0000
1000
0000
0000
0010
0000
0000
0100
0000
0001
0000
0010
0000
0100
0000
1000
0000
0010
0000
,
0100
0000
0001
0000
1000
0000
0001
0000
0100
0000
0001
0000
1000
0000
0000
0100
0000
0000
0010
0000
0000
0001
0000
0000
,
2000
3002
0203
0320
,
1030
0000
0010
0000
0100
0000
0010
0000
0000
1000
0000
0000
0001
0000
0100
0000
0001
0000
1000
0000
0100
0000
1000
0000
,
0001
0000
0010
0000
0100
0000
1000
0000
0000
0001
0000
0000
0100
0000
0010
0000
0100
0000
0001
0000
0000
1000
0000
0000
,
0001
0000
0010
0000
0100
0000
0010
0000
0000
0001
0000
0000
1000
0000
0010
0000
1000
0000
0001
0000
0000
0100
0000
0000
,
0001
0010
0100
1000
0001
0100
0010
1000
0001
0020
0000
0000
,
0032
0000
1003
2000
,
0000
0000
3020
0000
,
0130
0000
0001
0000
,
0002
0000
0000
0000
,
1003
0010
0100
0001
,
1001
1000
0100
0010
,
0100
1000
0001
0100
,
0110
0000
0010
1000
,
0001
0000
0000
0020
0000
0000
0032
0000
,
0000
0000
1003
0000
,
0010
0100
0001
1000
,
1001
0000
0001
1000
,
1010
0000
0100
0000
,
1001
0001
0010
0000
,
0110
0100
1000
0001
,
1001
0000
1000
0010
,
0110
0100
0001
0000
,
1001
1000
0100
0010
,
0110
0100
1000
0001
,
1001
1000
0010
0100
,
0110
0010
1000
0000
,
1001
0000
0001
0010
,
0110
0100
1000
0001
,
1001
0000
1000
0010
,
0110
0100
0001
1000
,
0001
0000
0010
0000
,
0100
0010
0100
1000
,
1001
0000
0002
0023
,
0130
1000
0100
1000
0010
0100
0001
0100
,
0010
0000
1000
0000
0010
0000
1000
0000
0001
0000
0010
0000
0001
0010
0001
0010
,
0001
1000
0010
1000
0100
1000
0100
1000
,
0001
0000
0100
0000
0001
0000
1000
0000
0001
0000
0010
0000
0100
1000
0100
1000
,
0001
1000
0001
1000
0010
0100
0010
1000
,
0001
0000
0010
0000
0001
0000
0010
0000
0100
0000
1000
0000
0001
1000
0001
1000
,
0001
0100
0010
0100
0001
1000
0001
1000
,
0100
0000
0010
0000
0100
0000
1000
0000
0001
0000
0100
0000
0001
0100
0001
0100
,
0001
1000
0001
0010
0100
1000
0100
0010
,
0001
0000
1000
0000
0001
0000
0100
0000
0010
0000
1000
0000
0010
1000
0010
1000
,
0010
1000
0100
1000
0001
0100
0010
0100
,
0001
0000
0010
0000
0100
0000
1000
0000
0001
0000
0100
0000
0010
1000
0010
1000
,
0010
1000
0100
0010
0001
0010
0100
1000
,
0001
0100
0010
0100
0001
1000
0001
1000
,
0100
0010
0001
1000
0200
0000
0000
0000
,
0000
0000
0000
0000
,
1301
0000
0000
2000
,
3002
0203
0320
2030
,
3001
0000
0010
0000
0100
0000
0010
0000
0001
0000
1000
0000
0001
0000
0000
0100
0000
0000
0010
0000
0000
0100
0000
0000
,
0001
0000
1000
0000
0010
0000
1000
0000
0001
0000
0010
0000
0100
0000
0000
1000
0000
0000
0001
0000
0000
1000
0000
0000
,
0010
0000
0100
0000
0001
0000
0100
0000
0010
0000
1000
0000
0001
0000
0000
1000
0000
0000
0100
0000
0000
0010
0000
0000
,
0002
0203
0320
2030
,
3001
0000
0100
0000
0010
0000
0100
0000
0001
0000
1000
0000
0001
0000
0000
0010
0000
0000
0100
0000
0000
0010
0000
0000
,
0001
1000
0100
1000
0001
0100
0010
1000
0100
0010
0001
0100
,
0010
0000
1000
0000
0001
0000
1000
0000
0010
0000
1000
0000
0001
0000
0000
0010
0000
0000
0100
0000
0000
1000
0000
0000
,
0002
2003
3020
0230
,
0301
0000
0100
0000
0010
0000
0100
0000
0000
0001
0000
0000
1000
0000
0010
0000
1000
0000
0001
0000
0010
0000
0001
0000
,
1000
0000
0100
0000
0010
0000
0001
0000
0000
1000
0000
0000
0010
0000
0100
0000
0010
0000
1000
0000
0000
0001
0000
0000
,
1000
0000
0100
0000
0010
0000
0100
0000
0000
1000
0000
0000
0001
0000
0100
0000
0001
0000
1000
0000
0000
0010
0000
0000
,
1000
0100
0010
0001
1000
0010
0100
0001
1000
0200
0000
0000
,
2300
0000
3001
0002
,
0000
0000
0203
0000
,
0320
0030
0010
2000
,
3002
0203
0320
2030
,
3001
0000
0010
0000
0100
0000
0010
0000
0001
0000
1000
0000
0001
0000
0000
0100
0000
0000
0010
0000
0000
0100
0000
0000
,
0001
0000
1000
0000
0010
0000
1000
0000
0001
0000
0010
0000
0100
0000
0000
1000
0000
0000
0001
0000
0000
1000
0000
0000
,
0010
0000
0100
0000
0001
0000
0100
0000
0010
0000
1000
0000
0001
0000
0000
1000
0000
0000
0100
0000
0000
0010
0000
0000
,
0002
0203
0320
2030
,
3001
0000
0100
0000
0010
0000
0100
0000
0000
0001
0000
0000
1000
0000
0100
0000
1000
0000
0010
0000
0100
0000
0001
0000
,
1000
0000
0100
0000
1000
0000
0001
0000
0000
0100
0000
0000
0010
0000
1000
0000
0100
0000
0010
0000
0001
0000
0100
0000
,
0010
0000
1000
0000
0001
0000
1000
0000
0010
0000
1000
0000
0001
0000
0000
0010
0000
0000
0100
0000
0000
1000
0000
0000
,
0002
2003
3020
0230
,
0301
0000
0100
0000
0010
0000
0100
0000
0000
0001
0000
0000
1000
0000
0010
0000
1000
0000
0001
0000
0010
0000
0001
0000
,
1000
0000
0100
0000
0010
0000
0001
0000
0000
1000
0000
0000
0010
0000
0100
0000
0010
0000
1000
0000
0000
0001
0000
0000
,
1000
0000
0100
0000
0010
0000
0100
0000
0000
1000
0000
0000
0001
0000
0100
0000
0001
0000
1000
0000
0000
0010
0000
0000
,
1000
0100
0010
0001
1000
0010
0100
0001
1000
0200
0000
0000
,
2300
0000
3001
0002
,
0000
0000
0203
0000
,
0310
0000
1000
0000
,
2000
0000
0000
0000
,
3001
0000
0000
0010
0000
0000
0001
0000
0000
0100
0000
0000
0001
0000
0000
1000
0000
0000
0001
0000
0100
0000
0010
0000
,
1000
0100
0010
0100
1000
0001
1000
0010
0100
0001
0100
0010
,
1000
0000
0001
0000
0100
0000
0001
0000
0000
1000
0000
0000
0100
0000
0010
0000
0100
0000
1000
0000
0000
0001
0000
0000
,
0100
0000
0010
0000
0100
0000
0001
0000
0000
1000
0000
0000
0001
0000
1000
0000
0100
0000
0010
0000
0000
0001
0000
0000
,
1000
0000
0000
0010
0000
0000
0100
0010
1000
0010
0100
0001
,
1000
0000
0000
0100
0000
0000
0010
0001
0010
0100
1000
0100
,
0010
0000
0000
0001
0000
0000
0100
0000
0010
0000
1000
0000
0100
0000
0010
0000
0100
0000
1000
0000
0010
0000
0100
0000
,
0001
0100
0010
1000
0002
0000
0023
0000
,
0031
0000
0000
0010
0000
0000
0001
0000
0000
0100
0000
0000
0001
0000
0000
1000
0000
0000
0001
0000
0100
0000
0001
0000
,
1000
0100
0010
0001
1000
0001
0100
0010
0100
0001
1000
0001
,
1000
0000
0100
0000
0010
0000
0001
0000
0000
1000
0000
0000
0010
0000
0100
0000
0010
0000
1000
0000
0000
0001
0000
0000
,
0100
0000
0001
0000
1000
0000
0001
0000
0000
0010
0000
0000
0100
0000
1000
0000
0001
0000
0010
0000
0100
0000
0010
0000
,
0002
0000
0203
0000
,
0320
0000
0230
0000
,
0000
0000
0302
0023
0230
0300
1000
0000
,
1010
0000
0020
0230
,
0301
1000
0010
1000
0001
0010
0100
0010
,
0001
0000
1000
0000
0001
0000
1000
0000
0010
0000
1000
0000
0001
0100
0001
0100
,
0010
1000
0100
1000
0001
0010
0001
0010
,
0100
0000
1000
0000
0001
0000
1000
0000
0010
0000
0100
0000
0001
1000
0001
1000
,
0001
0010
0100
0010
0001
1000
0010
0100
,
0001
0000
0010
0000
0001
0000
0010
0000
0100
0000
1000
0000
0100
1000
0100
1000
,
0001
0100
0010
0100
0001
1000
0001
1000
,
0100
0010
0001
1000
0001
0010
0100
1000
,
0001
0100
0010
1000
0001
0010
0100
1000
,
0010
0100
0010
1000
0100
0010
0100
1000
,
0001
0100
0010
0100
0001
0010
0100
0010
,
0001
0100
0010
1000
0100
0010
0001
1000
,
1001
0000
0010
0000
,
1001
0000
0100
0000
,
2001
0000
0000
0000
,
0001
0000
0000
0000
,
3001
0000
0000
0000
,
0011
0000
0000
0000
1001
0000
0000
0000
1010
0000
0000
0000
,
2002
0000
3003
2000
,
3002
0023
0230
2300
,
3001
0000
0100
0000
0010
0000
0100
0000
0001
0000
1000
0000
0001
0000
0000
0010
0000
0000
0100
0000
0000
0010
0000
0000
,
0001
0000
1000
0000
0100
0000
1000
0000
0001
0000
0100
0000
0010
0000
0000
1000
0000
0000
0001
0000
0000
1000
0000
0000
,
0100
0000
0010
0000
0001
0000
0010
0000
0100
0000
1000
0000
0001
0000
0000
1000
0000
0000
0010
0000
0000
0100
0000
0000
,
0002
0023
0230
2300
,
3001
0000
0010
0000
0100
0000
0010
0000
0001
0000
1000
0000
0001
0000
0000
0100
0000
0000
0010
0000
0000
0100
0000
0000
,
0001
1000
0010
1000
0001
0010
0100
1000
0010
0100
0001
0010
,
0100
0000
1000
0000
0001
0000
1000
0000
0100
0000
1000
0000
0001
0000
0000
0100
0000
0000
0010
0000
0000
1000
0000
0000
,
0002
2003
3200
0320
,
0031
0000
0010
0000
0100
0000
0010
0000
0000
0001
0000
0000
1000
0000
0100
0000
1000
0000
0001
0000
0100
0000
0001
0000
,
1000
0000
0010
0000
0100
0000
0001
0000
0000
1000
0000
0000
0100
0000
0010
0000
0100
0000
1000
0000
0000
0001
0000
0000
,
1000
0000
0010
0000
0100
0000
0010
0000
0000
1000
0000
0000
0001
0000
0010
0000
0001
0000
1000
0000
0000
0100
0000
0000
,
1000
0010
0100
0001
1000
0100
0010
0001
1000
0020
0000
0000
,
2030
0000
3001
0002
,
0000
0000
0023
0000
,
0230
0300
0100
2000
,
3002
0023
0230
2300
,
3001
0000
0100
0000
0010
0000
0100
0000
0001
0000
1000
0000
0001
0000
0000
0010
0000
0000
0100
0000
0000
0010
0000
0000
,
0001
0000
1000
0000
0100
0000
1000
0000
0001
0000
0100
0000
0010
0000
0000
1000
0000
0000
0001
0000
0000
1000
0000
0000
,
0100
0000
0010
0000
0001
0000
0010
0000
0100
0000
1000
0000
0001
0000
0000
1000
0000
0000
0010
0000
0000
0100
0000
0000
,
0002
0023
0230
2300
,
3001
0000
0010
0000
0100
0000
0010
0000
0000
0001
0000
0000
1000
0000
0010
0000
1000
0000
0100
0000
0010
0000
0001
0000
,
1000
0000
0010
0000
1000
0000
0001
0000
0000
0010
0000
0000
0100
0000
1000
0000
0010
0000
0100
0000
0001
0000
0010
0000
,
0100
0000
1000
0000
0001
0000
1000
0000
0100
0000
1000
0000
0001
0000
0000
0100
0000
0000
0010
0000
0000
1000
0000
0000
,
0002
2003
3200
0320
,
0031
0000
0010
0000
0100
0000
0010
0000
0000
0001
0000
0000
1000
0000
0100
0000
1000
0000
0001
0000
0100
0000
0001
0000
,
1000
0000
0010
0000
0100
0000
0001
0000
0000
1000
0000
0000
0100
0000
0010
0000
0100
0000
1000
0000
0000
0001
0000
0000
,
1000
0000
0010
0000
0100
0000
0010
0000
0000
1000
0000
0000
0001
0000
0010
0000
0001
0000
1000
0000
0000
0100
0000
0000
,
1000
0010
0100
0001
1000
0100
0010
0001
1000
0020
0000
0000
,
2030
0000
3001
0002
,
0000
0000
0023
0000
,
0130
0000
1000
0000
,
2000
0000
0000
3001
,
0002
0000
0103
0200
,
0000
0000
0320
0000
,
1030
0000
0001
0000
,
0002
0000
0000
0000
,
0003
0000
0000
0000
0000
0000
0000
0020
,
0000
0000
0000
0000
0000
0230
0000
0000
,
0000
0000
0000
0000
0000
0000
0000
0000
0300
0000
0000
0000
0000
2000
0000
0000
,
0000
3002
0200
0000
0000
0000
0000
0000
,
0000
0000
0303
0000
;

//---------------dance-single - T. Swag----------------
#NOTES:
     dance-single:
     T. Swag:
     Challenge:
     21:
     1.000,1.000,0.091,0.440,1.000,2288.000,22.000,106.000,2.000,1.000:

0000
0000
0000
0000
,
0000
0000
0000
0000
,
0000
0000
0000
0000
,
0000
0000
0000
0000
,
0000
0000
0000
0000
,
0000
0000
0000
0000
,
0000
0000
0000
0000
,
0000
0000
0000
0000
,
2000
0000
3020
0000
,
0000
0000
0000
0000
,
0000
0000
1030
0001
0200
0000
0000
0000
,
0000
0000
0000
0000
,
0000
0000
0000
0000
,
0302
0023
0230
2300
3002
0023
0230
2300
,
3002
0203
0320
2030
3002
0203
0320
2030
,
3002
0023
0230
0320
0032
0023
0230
0320
,
0032
0203
0302
2003
3002
0203
0302
2003
,
3200
0300
0010
0001
,
1000
0001
0010
0000
,
0100
0000
2000
0000
,
0000
0000
3000
0001
,
0200
0000
0310
2000
,
0000
0000
3100
0020
,
0000
0000
0000
0000
,
0030
0000
0000
0000
,
0MM0
0000
0001
1000
,
0002
0000
0000
0103
,
0010
0100
0002
0000
,
0003
0000
1000
0100
,
0020
0000
0032
2003
,
0000
0000
3020
0230
,
0000
0000
0302
0000
,
0000
0000
2003
3200
,
0310
0001
0010
0001
0100
0010
1000
0010
,
0100
0000
0001
0000
0100
0000
0001
0000
1000
0000
0100
0000
1000
0100
1000
0100
,
1000
0001
0100
0001
0010
0001
0010
0001
,
1000
0000
0010
0000
1000
0000
0001
0000
1000
0000
0100
0000
0010
0001
0010
0001
,
1000
0001
1000
0001
0100
0010
0100
0001
,
1000
0000
0100
0000
1000
0000
0100
0000
0010
0000
0001
0000
1000
0001
1000
0001
,
1000
0010
0100
0010
1000
0001
1000
0001
,
0010
0000
0100
0000
0010
0000
0001
0000
1000
0000
0010
0000
1000
0010
1000
0010
,
1000
0001
1000
0100
0010
0001
0010
0100
,
1000
0000
0001
0000
1000
0000
0010
0000
0100
0000
0001
0000
0100
0001
0100
0001
,
0100
0001
0010
0001
1000
0010
0100
0010
,
1000
0000
0100
0000
0010
0000
0001
0000
1000
0000
0010
0000
0100
0001
0100
0001
,
0100
0001
0010
0100
1000
0100
0010
0001
,
1000
0010
0100
0010
1000
0001
1000
0001
,
0020
0000
0000
0032
,
2003
3020
0230
0302
,
1003
0100
0010
0001
1000
0001
0010
0100
1000
0001
0010
0001
1000
0100
0010
0001
,
1000
0001
0100
0010
1000
0010
0100
0001
1000
0010
1000
0001
0100
0001
1000
0001
,
0010
0100
0010
0001
1000
0001
0010
0001
1000
0100
1000
0001
1000
0100
0010
0001
,
1000
0001
0100
0010
1000
0001
0100
0001
1000
0100
0010
0001
1000
0100
1000
0001
,
0100
0010
1000
0001
0100
0001
1000
0010
1000
0001
0100
0010
1000
0001
1000
0001
,
0010
0100
1000
0001
1000
0001
0100
0010
1000
0100
0010
0001
0100
0010
1000
0001
,
1000
0100
0010
0001
1000
0100
1000
0001
0010
0001
1000
0100
0010
0001
1000
0001
,
0100
0010
0100
0001
1000
0010
1000
0001
1000
0100
0010
0001
1000
0001
0010
0100
,
1000
0010
0100
0010
1000
0001
0100
0010
1000
0001
1000
0100
0010
0001
0010
0100
,
1000
0001
0010
0001
1000
0100
0010
0001
0100
0010
1000
0010
0100
0001
1000
0001
,
1000
0100
0010
0001
1000
0100
1000
0001
1000
0010
0100
0001
1000
0001
0100
0010
,
1000
0001
1000
0100
0010
0100
1000
0001
0010
0001
1000
0100
0010
0001
0100
0010
,
1000
0100
0010
0100
1000
0001
1000
0010
0100
0001
0100
0010
1000
0001
1000
0001
,
0100
0010
1000
0001
0100
0010
1000
0001
1000
0100
1000
0001
0010
0100
1000
0001
,
1000
0010
0100
0001
0100
0010
1000
0001
0100
0000
0000
0000
0002
0000
0000
0000
,
2003
3020
0230
0302
,
1003
0100
0010
0001
1000
0001
0010
0100
1000
0001
0010
0001
1000
0100
0010
0001
,
1000
0001
0100
0010
1000
0010
0100
0001
1000
0010
1000
0001
0100
0001
1000
0001
,
0010
0100
0010
0001
1000
0001
0010
0001
1000
0100
1000
0001
1000
0100
0010
0001
,
1000
0001
0100
0010
1000
0001
0100
0001
1000
0100
0010
0001
1000
0100
1000
0001
,
0100
0010
1000
0001
0100
0001
1000
0010
1000
0001
0010
0100
1000
0001
1000
0001
,
0010
0100
1000
0001
1000
0001
0100
0010
1000
0100
0010
0001
0100
0010
1000
0001
,
1000
0100
0010
0001
1000
0100
1000
0001
0010
0001
1000
0100
0010
0001
1000
0001
,
0100
0010
0100
0001
1000
0010
1000
0001
1000
0100
0010
0001
1000
0001
0010
0100
,
1000
0010
0100
0010
1000
0001
0100
0010
1000
0001
1000
0100
0010
0001
0010
0100
,
1000
0001
0010
0001
1000
0100
0010
0001
0100
0010
1000
0010
0100
0001
1000
0001
,
1000
0100
0010
0001
1000
0100
1000
0001
1000
0010
0100
0001
1000
0001
0100
0010
,
1000
0001
1000
0100
0010
0100
1000
0001
0010
0001
1000
0100
0010
0001
0100
0010
,
1000
0100
0010
0100
1000
0001
1000
0010
0100
0001
0100
0010
1000
0001
1000
0001
,
0100
0010
1000
0001
0100
0010
1000
0001
1000
0100
1000
0001
0010
0100
1000
0001
,
0100
0000
0001
0000
,
0002
0000
0000
0000
,
1003
0010
0100
0001
,
1001
1000
0100
0010
,
0100
1000
0001
0100
,
0110
0000
0010
1000
,
0001
0000
0000
0020
0000
0000
0032
0000
,
0000
0000
1003
0000
,
0010
0100
0001
1000
,
1001
0000
0001
1000
,
1010
0000
0100
0000
,
1001
0001
0010
0000
,
0110
0100
1000
0001
,
1001
0000
1000
0010
,
0110
0100
0001
0000
,
1001
1000
0100
0010
,
0110
0100
1000
0001
,
1001
1000
0010
0100
,
0110
0010
1000
0000
,
1001
0000
0001
0010
,
0110
0100
1000
0001
,
1001
0000
1000
0010
,
0110
0100
0001
1000
,
0001
0000
0010
0000
,
0100
0010
0100
1000
,
1001
0000
0002
0023
,
0130
1000
0100
1000
0010
0100
0001
0100
,
0010
0000
1000
0000
0010
0000
1000
0000
0001
0000
0010
0000
0001
0010
0001
0010
,
0001
1000
0010
1000
0100
1000
0100
1000
,
0001
0000
0100
0000
0001
0000
1000
0000
0001
0000
0010
0000
0100
1000
0100
1000
,
0001
1000
0001
1000
0010
0100
0010
1000
,
0001
0000
0010
0000
0001
0000
0010
0000
0100
0000
1000
0000
0001
1000
0001
1000
,
0001
0100
0010
0100
0001
1000
0001
1000
,
0100
0000
0010
0000
0100
0000
1000
0000
0001
0000
0100
0000
0001
0100
0001
0100
,
0001
1000
0001
0010
0100
1000
0100
0010
,
0001
0000
1000
0000
0001
0000
0100
0000
0010
0000
1000
0000
0010
1000
0010
1000
,
0010
1000
0100
1000
0001
0100
0010
0100
,
0001
0000
0010
0000
0100
0000
1000
0000
0001
0000
0100
0000
0010
1000
0010
1000
,
0010
1000
0100
0010
0001
0010
0100
1000
,
0001
0100
0010
0100
0001
1000
0001
1000
,
0100
0010
0001
1000
0200
0000
0000
0000
,
0000
0000
0000
0000
,
1301
0000
0000
2000
,
3002
0203
0320
2030
,
3001
0010
0100
1000
0001
1000
0100
0010
0001
1000
0100
1000
0001
0010
0100
1000
,
0001
1000
0010
0100
0001
0100
0010
1000
0001
0100
0001
1000
0010
1000
0001
1000
,
0100
0010
0100
1000
0001
1000
0100
1000
0001
0010
0001
1000
0001
0010
0100
1000
,
0001
1000
0010
0100
0001
1000
0010
1000
0001
0010
0100
1000
0001
0010
0001
1000
,
0010
0100
0001
1000
0010
1000
0001
0100
0001
1000
0010
0100
0001
1000
0001
1000
,
0100
0010
0001
1000
0001
1000
0010
0100
0001
0010
0100
1000
0010
0100
0001
1000
,
0001
0010
0100
1000
0001
0010
0001
1000
0100
1000
0001
0010
0100
1000
0001
1000
,
0010
0100
0010
1000
0001
0100
0001
1000
0001
0010
0100
1000
0001
1000
0100
0010
,
0001
0100
0010
0100
0001
1000
0010
0100
0001
1000
0001
0010
0100
1000
0100
0010
,
0001
1000
0100
1000
0001
0010
0100
1000
0010
0100
0001
0100
0010
1000
0001
1000
,
0001
0010
0100
1000
0001
0010
0001
1000
0001
0100
0010
1000
0001
1000
0010
0100
,
0001
1000
0001
0010
0100
0010
0001
1000
0100
1000
0001
0010
0100
1000
0010
0100
,
0001
0010
0100
0010
0001
1000
0001
0100
0010
1000
0010
0100
0001
1000
0001
1000
,
0010
0100
0001
1000
0010
0100
0001
1000
0001
0010
0001
1000
0100
0010
0001
1000
,
0001
0100
0010
1000
0010
0100
0001
1000
0010
0000
0000
0000
2000
0000
0000
0000
,
3002
0203
0320
2030
,
3001
0010
0100
1000
0001
1000
0100
0010
0001
1000
0100
1000
0001
0010
0100
1000
,
0001
1000
0010
0100
0001
0100
0010
1000
0001
0100
0001
1000
0010
1000
0001
1000
,
0100
0010
0100
1000
0001
1000
0100
1000
0001
0010
0001
1000
0001
0010
0100
1000
,
0001
1000
0010
0100
0001
1000
0010
1000
0001
0010
0100
1000
0001
0010
0001
1000
,
0010
0100
0001
1000
0010
1000
0001
0100
0001
1000
0100
0010
0001
1000
0001
1000
,
0100
0010
0001
1000
0001
1000
0010
0100
0001
0010
0100
1000
0010
0100
0001
1000
,
0001
0010
0100
1000
0001
0010
0001
1000
0100
1000
0001
0010
0100
1000
0001
1000
,
0010
0100
0010
1000
0001
0100
0001
1000
0001
0010
0100
1000
0001
1000
0100
0010
,
0001
0100
0010
0100
0001
1000
0010
0100
0001
1000
0001
0010
0100
1000
0100
0010
,
0001
1000
0100
1000
0001
0010
0100
1000
0010
0100
0001
0100
0010
1000
0001
1000
,
0001
0010
0100
1000
0001
0010
0001
1000
0001
0100
0010
1000
0001
1000
0010
0100
,
0001
1000
0001
0010
0100
0010
0001
1000
0100
1000
0001
0010
0100
1000
0010
0100
,
0001
0010
0100
0010
0001
1000
0001
0100
0010
1000
0010
0100
0001
1000
0001
1000
,
0010
0100
0001
1000
0010
0100
0001
1000
0001
0010
0001
1000
0100
0010
0001
1000
,
0010
0000
1000
0000
,
2000
0000
0000
0000
,
3001
0000
0010
0000
0001
0000
0100
0000
0001
0000
1000
0000
0001
0100
0010
1000
,
0001
0100
0001
1000
0100
0010
0001
1000
0001
0100
0010
1000
0001
1000
0010
0100
,
0001
1000
0001
0010
0100
1000
0001
1000
0010
0100
0001
0100
0010
1000
0001
1000
,
0100
0010
0100
1000
0001
0010
0100
1000
0001
1000
0010
0100
0010
1000
0001
0100
,
0001
0000
0000
0000
1000
0000
0000
0000
0100
0010
0001
1000
0100
0010
0001
1000
,
0001
0000
0000
0000
0100
0000
0000
0000
0010
1000
0001
0100
0010
1000
0001
0100
,
0010
1000
0001
1000
0100
0010
0001
0100
0010
1000
0100
0010
0001
1000
0100
1000
,
0001
1000
0010
0100
0001
0100
0010
1000
0100
0010
0001
0100
0010
1000
0010
0100
,
0001
0000
1000
0000
0001
0000
0100
0000
0001
0000
0010
0000
0001
1000
0001
0100
,
0010
1000
0010
0100
0001
1000
0100
1000
0001
0010
0001
1000
0010
0100
0010
1000
,
0001
0100
0010
1000
0001
0100
0001
1000
0100
0010
0100
1000
0001
0010
0001
1000
,
0001
0100
0010
1000
0010
0100
0001
1000
0001
0010
0100
1000
0001
1000
0100
0010
,
0001
0100
0010
1000
0001
0100
0010
1000
0001
1000
0100
0010
0001
1000
0100
0010
,
0001
1000
0010
0100
0001
1000
0010
0100
0001
0010
0100
1000
0001
0010
0100
1000
,
0001
0010
0001
1000
0100
1000
0001
0010
0200
0000
0000
0000
0000
0000
0000
0000
,
1300
0000
0020
0230
,
0301
0100
0010
1000
0001
1000
0010
0100
0001
1000
0001
0010
0100
1000
0010
0100
,
0001
1000
0010
1000
0001
0100
0010
1000
0100
0010
0001
0010
0100
1000
0001
1000
,
0010
0100
0001
0100
0010
1000
0001
1000
0200
0000
0000
0000
0000
0000
0000
0000
,
2300
3002
0203
0320
,
1030
0100
0010
0100
1000
0001
0010
0100
1000
0010
0100
0001
0100
0010
1000
0100
,
0010
0001
0010
0100
1000
0001
1000
0001
0100
0010
1000
0001
1000
0010
0100
0001
,
0010
0100
1000
0001
1000
0010
0100
0001
0020
0000
0000
0000
0000
0000
0000
0000
,
0230
0000
0000
0000
2300
0000
0000
0000
3001
0100
0010
1000
0010
0100
0001
1000
,
0001
0010
0100
0010
0001
1000
0100
1000
0001
0100
0010
1000
0001
0100
0010
1000
,
0100
0010
0100
1000
0001
0010
0001
1000
0010
0100
0001
1000
0010
0100
0001
1000
,
0100
0010
0001
1000
0001
0010
0100
1000
0010
0100
0010
1000
0001
0100
0001
1000
,
0100
1000
0001
0010
0100
0010
0001
0100
0010
1000
0001
0100
0010
0100
0001
1000
,
0100
0000
0010
0000
,
1001
0000
0100
0010
,
1001
0000
0001
0000
0100
0010
1000
0000
,
1001
0000
0001
0000
0010
0000
0100
1000
,
1001
0001
0100
0000
,
0001
0100
0001
0010
0001
1000
0100
1000
0010
1000
0001
0100
0001
0010
0001
1000
,
0020
0000
0000
2030
,
3002
0023
0230
2300
,
3001
0100
0010
1000
0001
1000
0010
0100
0001
1000
0010
1000
0001
0100
0010
1000
,
0001
1000
0100
0010
0001
0010
0100
1000
0001
0010
0001
1000
0100
1000
0001
1000
,
0010
0100
0010
1000
0001
1000
0010
1000
0001
0100
0001
1000
0001
0100
0010
1000
,
0001
1000
0100
0010
0001
1000
0100
1000
0001
0100
0010
1000
0001
0100
0001
1000
,
0100
0010
0001
1000
0100
1000
0001
0010
0001
1000
0100
0010
0001
1000
0001
1000
,
0010
0100
0001
1000
0001
1000
0100
0010
0001
0100
0010
1000
0100
0010
0001
1000
,
0001
0100
0010
1000
0001
0100
0001
1000
0010
1000
0001
0100
0010
1000
0001
1000
,
0100
0010
0100
1000
0001
0010
0001
1000
0001
0100
0010
1000
0001
1000
0010
0100
,
0001
0010
0100
0010
0001
1000
0100
0010
0001
1000
0001
0100
0010
1000
0010
0100
,
0001
1000
0010
1000
0001
0100
0010
1000
0100
0010
0001
0010
0100
1000
0001
1000
,
0001
0100
0010
1000
0001
0100
0001
1000
0001
0010
0100
1000
0001
1000
0100
0010
,
0001
1000
0001
0100
0010
0100
0001
1000
0010
1000
0001
0100
0010
1000
0100
0010
,
0001
0100
0010
0100
0001
1000
0001
0010
0100
1000
0100
0010
0001
1000
0001
1000
,
0100
0010
0001
1000
0100
0010
0001
1000
0001
0100
0001
1000
0010
0100
0001
1000
,
0001
0010
0100
1000
0100
0010
0001
1000
0100
0000
0000
0000
2000
0000
0000
0000
,
3002
0023
0230
2300
,
3001
0100
0010
1000
0001
1000
0010
0100
0001
1000
0010
1000
0001
0100
0010
1000
,
0001
1000
0100
0010
0001
0010
0100
1000
0001
0010
0001
1000
0100
1000
0001
1000
,
0010
0100
0010
1000
0001
1000
0010
1000
0001
0100
0001
1000
0001
0100
0010
1000
,
0001
1000
0100
0010
0001
1000
0100
1000
0001
0100
0010
1000
0001
0100
0001
1000
,
0100
0010
0001
1000
0100
1000
0001
0010
0001
1000
0100
0010
0001
1000
0001
1000
,
0010
0100
0001
1000
0001
1000
0100
0010
0001
0100
0010
1000
0100
0010
0001
1000
,
0001
0100
0010
1000
0001
0100
0001
1000
0010
1000
0001
0100
0010
1000
0001
1000
,
0100
0010
0100
1000
0001
0010
0001
1000
0001
0100
0010
1000
0001
1000
0010
0100
,
0001
0010
0100
0010
0001
1000
0100
0010
0001
1000
0001
0100
0010
1000
0010
0100
,
0001
1000
0010
1000
0001
0100
0010
1000
0100
0010
0001
0010
0100
1000
0001
1000
,
0001
0100
0010
1000
0001
0100
0001
1000
0001
0010
0100
1000
0001
1000
0100
0010
,
0001
1000
0001
0100
0010
0100
0001
1000
0010
1000
0001
0100
0010
1000
0100
0010
,
0001
0100
0010
0100
0001
1000
0001
0010
0100
1000
0100
0010
0001
1000
0001
1000
,
0100
0010
0001
1000
0100
0010
0001
1000
0001
0100
0001
1000
0010
0100
0001
1000
,
0001
0010
0100
1000
0100
0010
0001
1000
0001
0100
0010
0100
0001
0100
0010
1000
,
0001
1000
0100
0010
0100
1000
0001
0010
0001
1000
0100
1000
0001
1000
0010
0100
,
0001
0100
0010
1000
0001
0100
0001
1000
0100
0010
0001
0100
0010
1000
0100
0010
,
0001
1000
0001
1000
0100
0010
0001
1000
0001
0100
0010
1000
0010
0100
0001
1000
,
0100
0000
1000
0000
,
2000
0000
0000
0000
,
3000
0000
0000
0000
0000
0000
0000
0200
,
0000
0000
0000
0000
0000
0320
0000
0000
,
0000
0000
0000
0000
0000
0000
0000
0000
0030
0000
0000
0000
0000
0002
0000
0000
,
0000
2003
0020
0000
0000
0000
0000
0000
,
0000
0000
3030
0000
;

//---------------dance-single - Dumpstream----------------
#NOTES:
     dance-single:
     Dumpstream:
     Edit:
     23:
     1.000,1.000,0.062,0.287,1.000,2683.000,15.000,69.000,2.000,1.000:
0000
0000
0000
0000
,
0000
0000
0000
0000
,
0000
0000
0000
0000
,
0000
0000
0000
0000
,
0000
0000
0000
0000
,
0000
0000
0000
0000
,
0000
0000
0000
0000
,
0000
0000
0000
0000
,
2000
0000
3020
0000
,
0000
0000
0000
0000
,
0000
0000
1030
0001
0200
0000
0000
0000
,
0000
0000
0000
0000
,
0000
0000
0000
0000
,
0302
0023
0230
2300
3002
0023
0230
2300
,
3002
0203
0320
2030
3002
0203
0320
2030
,
3002
0023
0230
0320
0032
0023
0230
0320
,
0032
0203
0302
2003
3002
0203
0302
2003
,
3200
0300
0010
0001
,
1000
0001
0010
0000
,
0100
0000
2000
0000
,
0000
0000
3000
0001
,
0200
0000
0310
2000
,
0000
0000
3100
0020
,
0000
0000
0000
0000
,
0030
0000
0000
0000
,
0MM0
0000
0001
1000
,
0002
0000
0000
0103
,
0010
0100
0002
0000
,
0003
0000
1000
0100
,
0020
0000
0032
2003
,
0000
0000
3020
0230
,
0000
0000
0302
0000
,
0000
0000
2003
3200
,
0310
0001
0010
0001
0100
0010
1000
0010
,
0100
0000
0001
0000
0100
0000
0001
0000
1000
0000
0100
0000
1000
0100
1000
0100
,
1000
0001
0100
0001
0010
0001
0010
0001
,
1000
0000
0010
0000
1000
0000
0001
0000
1000
0000
0100
0000
0010
0001
0010
0001
,
1000
0001
1000
0001
0100
0010
0100
0001
,
1000
0000
0100
0000
1000
0000
0100
0000
0010
0000
0001
0000
1000
0001
1000
0001
,
1000
0010
0100
0010
1000
0001
1000
0001
,
0010
0000
0100
0000
0010
0000
0001
0000
1000
0000
0010
0000
1000
0010
1000
0010
,
1000
0001
1000
0100
0010
0001
0010
0100
,
1000
0000
0001
0000
1000
0000
0010
0000
0100
0000
0001
0000
0100
0001
0100
0001
,
0100
0001
0010
0001
1000
0010
0100
0010
,
1000
0000
0100
0000
0010
0000
0001
0000
1000
0000
0010
0000
0100
0001
0100
0001
,
0100
0001
0010
0100
1000
0100
0010
0001
,
1000
0010
0100
0010
1000
0001
1000
0001
,
0020
0000
0000
0032
,
2003
3020
0230
0302
,
1003
0100
0010
0001
1000
0001
0010
0100
1000
0001
0010
0001
1000
0100
0010
0001
,
1000
0001
0100
0010
1000
0010
0100
0001
1000
0010
1000
0001
0100
0001
1000
0001
,
0010
0100
0010
0001
1000
0001
0010
0001
1000
0100
1000
0001
1000
0100
0010
0001
,
1000
0001
0100
0010
1000
0001
0100
0001
1000
0100
0010
0001
1000
0100
1000
0001
,
0100
0010
1000
0001
0100
0001
1000
0010
1000
0001
0100
0010
1000
0001
1000
0001
,
0010
0100
1000
0001
1000
0001
0100
0010
1000
0100
0010
0001
0100
0010
1000
0001
,
1000
0100
0010
0001
1000
0100
1000
0001
0010
0001
1000
0100
0010
0001
1000
0001
,
0100
0010
0100
0001
1000
0010
1000
0001
1000
0100
0010
0001
1000
0001
0010
0100
,
1000
0010
0100
0010
1000
0001
0100
0010
1000
0001
1000
0100
0010
0001
0010
0100
,
1000
0001
0010
0001
1000
0100
0010
0001
0100
0010
1000
0010
0100
0001
1000
0001
,
1000
0100
0010
0001
1000
0100
1000
0001
1000
0010
0100
0001
1000
0001
0100
0010
,
1000
0001
1000
0100
0010
0100
1000
0001
0010
0001
1000
0100
0010
0001
0100
0010
,
1000
0100
0010
0100
1000
0001
1000
0010
0100
0001
0100
0010
1000
0001
1000
0001
,
0100
0010
1000
0001
0100
0010
1000
0001
1000
0100
1000
0001
0010
0100
1000
0001
,
1000
0010
0100
0001
0100
0010
1000
0001
1000
0100
0010
0100
1000
0001
0100
0010
,
1000
0001
0010
0100
1000
0010
0100
0001
1000
0001
0010
0100
1000
0001
0100
0001
,
1000
0100
0010
0001
1000
0001
0010
0100
1000
0001
0010
0001
1000
0100
0010
0001
,
1000
0001
0100
0010
1000
0010
0100
0001
1000
0010
1000
0001
0100
0001
1000
0001
,
0010
0100
0010
0001
1000
0001
0010
0001
1000
0100
1000
0001
1000
0100
0010
0001
,
1000
0001
0100
0010
1000
0001
0100
0001
1000
0100
0010
0001
1000
0100
1000
0001
,
0100
0010
1000
0001
0100
0001
1000
0010
1000
0001
0010
0100
1000
0001
1000
0001
,
0010
0100
1000
0001
1000
0001
0100
0010
1000
0100
0010
0001
0100
0010
1000
0001
,
1000
0100
0010
0001
1000
0100
1000
0001
0010
0001
1000
0100
0010
0001
1000
0001
,
0100
0010
0100
0001
1000
0010
1000
0001
1000
0100
0010
0001
1000
0001
0010
0100
,
1000
0010
0100
0010
1000
0001
0100
0010
1000
0001
1000
0100
0010
0001
0010
0100
,
1000
0001
0010
0001
1000
0100
0010
0001
0100
0010
1000
0010
0100
0001
1000
0001
,
1000
0100
0010
0001
1000
0100
1000
0001
1000
0010
0100
0001
1000
0001
0100
0010
,
1000
0001
1000
0100
0010
0100
1000
0001
0010
0001
1000
0100
0010
0001
0100
0010
,
1000
0100
0010
0100
1000
0001
1000
0010
0100
0001
0100
0010
1000
0001
1000
0001
,
0100
0010
1000
0001
0100
0010
1000
0001
1000
0100
1000
0001
0010
0100
1000
0001
,
0100
0010
1000
0010
0100
0001
1000
0001
0010
0100
0010
0001
1000
0001
1000
0010
,
0100
0001
1000
0001
0100
0001
1000
0010
1000
0001
0100
0010
1000
0001
1000
0100
,
0010
0001
0010
0100
1000
0001
1000
0001
0010
0100
1000
0001
1000
0100
1000
0001
,
0100
0010
1000
0010
0100
0001
1000
0010
0100
0001
1000
0001
0010
0100
0010
0001
,
1000
0001
1000
0100
0010
0001
1000
0100
0010
0001
0100
0010
1000
0100
0010
0001
,
1000
0001
0100
0010
1000
0010
0100
0001
1000
0001
0010
0100
1000
0010
0100
0001
,
1000
0001
1000
0100
0010
0001
0100
0010
0100
0001
0100
0010
1000
0100
0010
0001
,
1000
0001
1000
0010
0100
0001
1000
0010
1000
0001
0100
0010
0100
0001
1000
0010
,
1000
0001
1000
0100
0010
0100
1000
0001
0010
0100
0010
0001
1000
0001
0100
0010
,
1000
0000
0001
1000
,
1010
0000
0100
0000
,
1001
0001
0010
0000
,
0110
0100
1000
0001
,
1001
0000
1000
0010
,
0110
0100
0001
0000
,
1001
1000
0100
0010
,
0110
0100
1000
0001
,
1001
1000
0010
0100
,
0110
0010
1000
0000
,
1001
0000
0001
0010
,
0110
0100
1000
0001
,
1001
0000
1000
0010
,
0110
0100
0001
1000
,
0001
0000
0010
0000
,
0100
0010
0100
1000
,
1001
0000
0002
0023
,
0130
1000
0100
1000
0010
0100
0001
0100
,
0010
0000
1000
0000
0010
0000
1000
0000
0001
0000
0010
0000
0001
0010
0001
0010
,
0001
1000
0010
1000
0100
1000
0100
1000
,
0001
0000
0100
0000
0001
0000
1000
0000
0001
0000
0010
0000
0100
1000
0100
1000
,
0001
1000
0001
1000
0010
0100
0010
1000
,
0001
0000
0010
0000
0001
0000
0010
0000
0100
0000
1000
0000
0001
1000
0001
1000
,
0001
0100
0010
0100
0001
1000
0001
1000
,
0100
0000
0010
0000
0100
0000
1000
0000
0001
0000
0100
0000
0001
0100
0001
0100
,
0001
1000
0001
0010
0100
1000
0100
0010
,
0001
0000
1000
0000
0001
0000
0100
0000
0010
0000
1000
0000
0010
1000
0010
1000
,
0010
1000
0100
1000
0001
0100
0010
0100
,
0001
0000
0010
0000
0100
0000
1000
0000
0001
0000
0100
0000
0010
1000
0010
1000
,
0010
1000
0100
0010
0001
0010
0100
1000
,
0001
0100
0010
0100
0001
1000
0001
1000
,
0100
0010
0001
1000
0200
0000
0000
0000
,
0000
0000
0000
0000
,
1301
0000
0000
2000
,
3002
0203
0320
2030
,
3001
0010
0100
1000
0001
1000
0100
0010
0001
1000
0100
1000
0001
0010
0100
1000
,
0001
1000
0010
0100
0001
0100
0010
1000
0001
0100
0001
1000
0010
1000
0001
1000
,
0100
0010
0100
1000
0001
1000
0100
1000
0001
0010
0001
1000
0001
0010
0100
1000
,
0001
1000
0010
0100
0001
1000
0010
1000
0001
0010
0100
1000
0001
0010
0001
1000
,
0010
0100
0001
1000
0010
1000
0001
0100
0001
1000
0010
0100
0001
1000
0001
1000
,
0100
0010
0001
1000
0001
1000
0010
0100
0001
0010
0100
1000
0010
0100
0001
1000
,
0001
0010
0100
1000
0001
0010
0001
1000
0100
1000
0001
0010
0100
1000
0001
1000
,
0010
0100
0010
1000
0001
0100
0001
1000
0001
0010
0100
1000
0001
1000
0100
0010
,
0001
0100
0010
0100
0001
1000
0010
0100
0001
1000
0001
0010
0100
1000
0100
0010
,
0001
1000
0100
1000
0001
0010
0100
1000
0010
0100
0001
0100
0010
1000
0001
1000
,
0001
0010
0100
1000
0001
0010
0001
1000
0001
0100
0010
1000
0001
1000
0010
0100
,
0001
1000
0001
0010
0100
0010
0001
1000
0100
1000
0001
0010
0100
1000
0010
0100
,
0001
0010
0100
0010
0001
1000
0001
0100
0010
1000
0010
0100
0001
1000
0001
1000
,
0010
0100
0001
1000
0010
0100
0001
1000
0001
0010
0001
1000
0100
0010
0001
1000
,
0001
0100
0010
1000
0010
0100
0001
1000
0001
0010
0100
0010
0001
1000
0010
0100
,
0001
1000
0100
0010
0001
0100
0010
1000
0001
1000
0100
0010
0001
1000
0010
1000
,
0001
0010
0100
1000
0001
1000
0100
0010
0001
1000
0100
1000
0001
0010
0100
1000
,
0001
1000
0010
0100
0001
0100
0010
1000
0001
0100
0001
1000
0010
1000
0001
1000
,
0100
0010
0100
1000
0001
1000
0100
1000
0001
0010
0001
1000
0001
0010
0100
1000
,
0001
1000
0010
0100
0001
1000
0010
1000
0001
0010
0100
1000
0001
0010
0001
1000
,
0010
0100
0001
1000
0010
1000
0001
0100
0001
1000
0100
0010
0001
1000
0001
1000
,
0100
0010
0001
1000
0001
1000
0010
0100
0001
0010
0100
1000
0010
0100
0001
1000
,
0001
0010
0100
1000
0001
0010
0001
1000
0100
1000
0001
0010
0100
1000
0001
1000
,
0010
0100
0010
1000
0001
0100
0001
1000
0001
0010
0100
1000
0001
1000
0100
0010
,
0001
0100
0010
0100
0001
1000
0010
0100
0001
1000
0001
0010
0100
1000
0100
0010
,
0001
1000
0100
1000
0001
0010
0100
1000
0010
0100
0001
0100
0010
1000
0001
1000
,
0001
0010
0100
1000
0001
0010
0001
1000
0001
0100
0010
1000
0001
1000
0010
0100
,
0001
1000
0001
0010
0100
0010
0001
1000
0100
1000
0001
0010
0100
1000
0010
0100
,
0001
0010
0100
0010
0001
1000
0001
0100
0010
1000
0010
0100
0001
1000
0001
1000
,
0010
0100
0001
1000
0010
0100
0001
1000
0001
0010
0001
1000
0100
0010
0001
1000
,
0010
0100
0001
0100
0010
1000
0001
1000
0100
0010
0100
1000
0001
1000
0001
0100
,
0010
1000
0001
1000
0010
1000
0001
0100
0001
1000
0010
0100
0001
1000
0001
0010
,
0001
0010
0100
1000
0001
0010
0001
1000
0100
0010
0001
1000
0001
0100
0010
1000
,
0001
0100
0001
1000
0100
0010
0001
1000
0001
0100
0010
1000
0001
1000
0010
0100
,
0001
1000
0001
0010
0100
1000
0001
1000
0010
0100
0001
0100
0010
1000
0001
1000
,
0100
0010
0100
1000
0001
0010
0100
1000
0001
1000
0010
0100
0010
1000
0001
0100
,
0010
1000
0001
0100
0010
1000
0001
1000
0100
0010
0001
1000
0100
0010
0001
1000
,
0001
0100
0010
0100
0001
1000
0001
0100
0010
1000
0001
0100
0010
1000
0001
0100
,
0010
1000
0001
1000
0100
0010
0001
0100
0010
1000
0100
0010
0001
1000
0100
1000
,
0001
1000
0010
0100
0001
0100
0010
1000
0100
0010
0001
0100
0010
1000
0010
0100
,
0001
1000
0001
0010
0100
1000
0001
0010
0001
1000
0100
0010
0001
1000
0001
0100
,
0010
1000
0010
0100
0001
1000
0100
1000
0001
0010
0001
1000
0010
0100
0010
1000
,
0001
0100
0010
1000
0001
0100
0001
1000
0100
0010
0100
1000
0001
0010
0001
1000
,
0001
0100
0010
1000
0010
0100
0001
1000
0001
0010
0100
1000
0001
1000
0100
0010
,
0001
0100
0010
1000
0001
0100
0010
1000
0001
1000
0100
0010
0001
1000
0100
0010
,
0001
1000
0010
0100
0001
1000
0010
0100
0001
0010
0100
1000
0001
0010
0100
1000
,
0001
0010
0001
1000
0100
1000
0001
0010
0100
1000
0001
1000
0100
1000
0001
0010
,
0001
1000
0100
0010
0001
1000
0001
0100
0010
1000
0100
0010
0100
1000
0001
1000
,
0001
0100
0010
1000
0001
1000
0010
0100
0001
1000
0001
0010
0100
1000
0010
0100
,
0001
1000
0010
1000
0001
0100
0010
1000
0100
0010
0001
0010
0100
1000
0001
1000
,
0010
0100
0001
0100
0010
1000
0001
1000
0100
0010
0001
1000
0100
1000
0001
0010
,
0100
1000
0100
1000
0001
0010
0001
1000
0001
0100
0010
1000
0010
0100
0001
1000
,
0001
0010
0100
0010
0001
1000
0100
0010
0001
0100
0010
1000
0010
0100
0001
0010
,
0100
1000
0100
0010
0001
1000
0001
1000
0010
0100
0001
1000
0001
0100
0010
1000
,
0100
0010
0001
1000
0001
0100
0010
1000
0100
0010
0001
1000
0001
0010
0100
1000
,
0001
0010
0001
1000
0100
0010
0001
1000
0001
0100
0010
1000
0001
1000
0100
0010
,
0001
0100
0010
1000
0100
0010
0001
0100
0010
1000
0100
0010
0001
1000
0001
0100
,
0010
1000
0100
0010
0001
0010
0100
1000
0010
0100
0001
0010
0100
1000
0001
1000
,
0010
0100
0001
0010
0100
1000
0001
0100
0010
1000
0100
0010
0001
0100
0010
1000
,
0100
0010
0001
1000
0001
0100
0010
1000
0100
0010
0001
1000
0001
0100
0010
1000
,
0100
0010
0001
1000
0010
0100
0001
1000
0100
0010
0001
1000
0010
0100
0001
0010
,
0100
1000
0010
0100
0001
0010
0001
0100
0010
1000
0100
1000
0010
0100
0001
0010
,
0100
1000
0010
0100
0001
0010
0100
1000
0001
1000
0001
0010
0100
1000
0001
1000
,
0100
0010
0001
0100
0010
1000
0100
0010
0001
1000
0001
1000
0010
0100
0010
1000
,
0100
0010
0001
0100
0010
1000
0100
0010
0001
1000
0001
1000
0100
0010
0001
1000
,
0001
0010
0001
0100
0001
1000
0010
1000
0100
1000
0001
0010
0001
0100
0001
1000
,
0010
0100
0001
1000
0010
0100
0001
1000
0010
0100
0001
1000
0001
0010
0100
1000
,
0001
0100
0010
0100
0001
0010
0100
1000
0010
0100
0010
1000
0100
0010
0001
1000
,
0001
0100
0010
1000
0001
1000
0010
0100
0001
1000
0010
1000
0001
0100
0010
1000
,
0001
1000
0100
0010
0001
0010
0100
1000
0001
0010
0001
1000
0100
1000
0001
1000
,
0010
0100
0010
1000
0001
1000
0010
1000
0001
0100
0001
1000
0001
0100
0010
1000
,
0001
1000
0100
0010
0001
1000
0100
1000
0001
0100
0010
1000
0001
0100
0001
1000
,
0100
0010
0001
1000
0100
1000
0001
0010
0001
1000
0100
0010
0001
1000
0001
1000
,
0010
0100
0001
1000
0001
1000
0100
0010
0001
0100
0010
1000
0100
0010
0001
1000
,
0001
0100
0010
1000
0001
0100
0001
1000
0010
1000
0001
0100
0010
1000
0001
1000
,
0100
0010
0100
1000
0001
0010
0001
1000
0001
0100
0010
1000
0001
1000
0010
0100
,
0001
0010
0100
0010
0001
1000
0100
0010
0001
1000
0001
0100
0010
1000
0010
0100
,
0001
1000
0010
1000
0001
0100
0010
1000
0100
0010
0001
0010
0100
1000
0001
1000
,
0001
0100
0010
1000
0001
0100
0001
1000
0001
0010
0100
1000
0001
1000
0100
0010
,
0001
1000
0001
0100
0010
0100
0001
1000
0010
1000
0001
0100
0010
1000
0100
0010
,
0001
0100
0010
0100
0001
1000
0001
0010
0100
1000
0100
0010
0001
1000
0001
1000
,
0100
0010
0001
1000
0100
0010
0001
1000
0001
0100
0001
1000
0010
0100
0001
1000
,
0001
0010
0100
1000
0100
0010
0001
1000
0010
0100
0001
1000
0001
0010
0100
1000
,
0010
0100
0010
1000
0001
1000
0100
0010
0001
0100
0010
1000
0100
0010
0100
1000
,
0001
0100
0010
1000
0001
1000
0010
0100
0001
1000
0010
1000
0001
0100
0010
1000
,
0001
1000
0100
0010
0001
0010
0100
1000
0001
0010
0001
1000
0100
1000
0001
1000
,
0010
0100
0010
1000
0001
1000
0010
1000
0001
0100
0001
1000
0001
0100
0010
1000
,
0001
1000
0100
0010
0001
1000
0100
1000
0001
0100
0010
1000
0001
0100
0001
1000
,
0100
0010
0001
1000
0100
1000
0001
0010
0001
1000
0100
0010
0001
1000
0001
1000
,
0010
0100
0001
1000
0001
1000
0100
0010
0001
0100
0010
1000
0100
0010
0001
1000
,
0001
0100
0010
1000
0001
0100
0001
1000
0010
1000
0001
0100
0010
1000
0001
1000
,
0100
0010
0100
1000
0001
0010
0001
1000
0001
0100
0010
1000
0001
1000
0010
0100
,
0001
0010
0100
0010
0001
1000
0100
0010
0001
1000
0001
0100
0010
1000
0010
0100
,
0001
1000
0010
1000
0001
0100
0010
1000
0100
0010
0001
0010
0100
1000
0001
1000
,
0001
0100
0010
1000
0001
0100
0001
1000
0001
0010
0100
1000
0001
1000
0100
0010
,
0001
1000
0001
0100
0010
0100
0001
1000
0010
1000
0001
0100
0010
1000
0100
0010
,
0001
0100
0010
0100
0001
1000
0001
0010
0100
1000
0100
0010
0001
1000
0001
1000
,
0100
0010
0001
1000
0100
0010
0001
1000
0001
0100
0001
1000
0010
0100
0001
1000
,
0001
0010
0100
1000
0100
0010
0001
1000
0001
0100
0010
0100
0001
0100
0010
1000
,
0001
1000
0100
0010
0100
1000
0001
0010
0001
1000
0100
1000
0001
1000
0010
0100
,
0001
0100
0010
1000
0001
0100
0001
1000
0100
0010
0001
0100
0010
1000
0100
0010
,
0001
1000
0001
1000
0100
0010
0001
1000
0001
0100
0010
1000
0010
0100
0001
1000
,
0100
0010
0001
1000
0100
0010
0001
1000
0001
0100
0010
1000
0010
0100
0001
1000
,
0001
0010
0001
1000
0100
1000
0001
0010
0100
1000
0001
0010
0001
1000
0001
0100
,
0001
0000
0000
0000
0000
0000
0000
0020
,
0000
0000
0000
0000
0000
0230
0000
0000
,
0000
0000
0000
0000
0000
0000
0000
0000
0300
0000
0000
0000
0000
2000
0000
0000
,
0000
3002
0200
0000
0000
0000
0000
0000
,
0000
0000
0303
0000
;

//---------------dance-single - T. Swag----------------
#NOTES:
     dance-single:
     T. Swag:
     Medium:
     15:
     1.000,1.000,0.108,0.777,0.663,1506.000,26.000,187.000,2.000,1.000:
0000
0000
0000
0000
,
0000
0000
0000
0000
,
0000
0000
0000
0000
,
0000
0000
0000
0000
,
0000
0000
0000
0000
,
0000
0000
0000
0000
,
0000
0000
0000
0000
,
0000
0000
0000
0000
,
2000
0000
3020
0000
,
0000
0000
0000
0000
,
0000
0000
1030
0001
0200
0000
0000
0000
,
0000
0000
0000
0000
,
0000
0000
0000
0000
,
0302
0023
0230
2300
3002
0023
0230
2300
,
3002
0203
0320
2030
3002
0203
0320
2030
,
3002
0023
0230
0320
0032
0023
0230
0320
,
0032
0203
0302
2003
3002
0203
0302
2003
,
3200
0300
0010
0001
,
1000
0001
0010
0000
,
0100
0000
2000
0000
,
0000
0000
3000
0001
,
0200
0000
0310
2000
,
0000
0000
3100
0020
,
0000
0000
0000
0000
,
0030
0000
0000
0000
,
0MM0
0000
0001
1000
,
0002
0000
0000
0103
,
0010
0100
0002
0000
,
0003
0000
1000
0100
,
0020
0000
0032
2003
,
0000
0000
3020
0230
,
0000
0000
0302
0000
,
0000
0000
2003
3200
,
0310
0001
0010
0001
0100
0010
1000
0010
,
0100
0000
0001
0000
0100
0000
0001
0000
1000
0000
0100
0000
1000
0100
1000
0100
,
1000
0001
0100
0001
0010
0001
0010
0001
,
1000
0000
0010
0000
1000
0000
0001
0000
1000
0000
0100
0000
0010
0001
0010
0001
,
1000
0001
1000
0001
0100
0010
0100
0001
,
1000
0000
0100
0000
1000
0000
0100
0000
0010
0000
0001
0000
1000
0001
1000
0001
,
1000
0010
0100
0010
1000
0001
1000
0001
,
0010
0000
0100
0000
0010
0000
0001
0000
1000
0000
0010
0000
1000
0010
1000
0010
,
1000
0001
1000
0100
0010
0001
0010
0100
,
1000
0000
0001
0000
1000
0000
0010
0000
0100
0000
0001
0000
0100
0001
0100
0001
,
0100
0001
0010
0001
1000
0010
0100
0010
,
1000
0000
0100
0000
0010
0000
0001
0000
1000
0000
0010
0000
0100
0001
0100
0001
,
0100
0001
0010
0100
1000
0100
0010
0001
,
1000
0010
0100
0010
1000
0001
1000
0001
,
0020
0000
0000
0032
,
2003
3020
0230
0302
,
1003
0100
0010
0001
1000
0001
0010
0100
1000
0000
0001
0000
0010
0000
0001
0000
,
1000
0001
0100
0010
1000
0010
0100
0001
1000
0000
0010
0000
0100
0000
0001
0000
,
0010
0100
0010
0001
1000
0001
0010
0001
1000
0000
0100
0000
0010
0000
0001
0000
,
2000
3200
0320
0032
,
0103
0010
1000
0001
0100
0001
1000
0010
1000
0000
0010
0000
1000
0000
0001
0000
,
0010
0100
1000
0001
1000
0000
0001
0000
1000
0100
0010
0001
0100
0010
1000
0001
,
1000
0010
0100
0001
1000
0000
0001
0000
0010
0000
0100
0000
0010
0000
0001
0000
,
0200
0320
2030
3002
,
1003
0010
0100
0010
1000
0000
0001
0000
1000
0001
1000
0100
0010
0001
0010
0100
,
1000
0001
0010
0001
1000
0000
0001
0000
0100
0010
1000
0010
0100
0000
0001
0000
,
1000
0100
0010
0001
1000
0000
0001
0000
1000
0010
0100
0001
1000
0000
0001
0000
,
1000
0001
1000
0100
0010
0100
1000
0001
0010
0000
0100
0000
0020
0000
0000
0000
,
0032
0000
1003
2000
,
0000
0000
3020
0000
,
0230
0300
0100
0002
,
2003
3020
0230
0302
,
1003
0100
0010
0001
1000
0001
0010
0100
1000
0000
0001
0000
0010
0000
0001
0000
,
1000
0001
0100
0010
1000
0010
0100
0001
1000
0000
0010
0000
0100
0000
0001
0000
,
0010
0100
0010
0001
1000
0001
0010
0001
1000
0000
0100
0000
0010
0000
0001
0000
,
2000
3200
0320
0032
,
0103
0010
1000
0001
0100
0000
0001
0000
1000
0010
0100
0010
1000
0001
1000
0100
,
0010
0001
1000
0001
1000
0000
0001
0000
1000
0100
0010
0001
0100
0010
1000
0001
,
1000
0010
0100
0001
0010
0100
0010
0001
,
0200
0320
2030
3002
,
1003
0010
0100
0010
1000
0000
0001
0000
1000
0001
1000
0100
0010
0001
0010
0100
,
1000
0001
0010
0001
1000
0000
0001
0000
0100
0010
1000
0010
0100
0000
0001
0000
,
1000
0100
0010
0001
1000
0000
0001
0000
1000
0010
0100
0001
1000
0000
0001
0000
,
1000
0001
1000
0100
0010
0100
1000
0001
0010
0000
0100
0000
0020
0000
0000
0000
,
0032
0000
1003
2000
,
0000
0000
3020
0000
,
0130
0000
0001
0000
,
0002
0000
0000
0000
,
1003
0010
0100
0001
,
1001
1000
0100
0010
,
0100
1000
0001
0100
,
0110
0000
0010
1000
,
0001
0000
0000
0020
0000
0000
0032
0000
,
0000
0000
1003
0000
,
0010
0100
0001
1000
,
1001
0000
0001
1000
,
1010
0000
0100
0000
,
1001
0001
0010
0000
,
0110
0100
1000
0001
,
1001
0000
1000
0010
,
0110
0100
0001
0000
,
1001
1000
0100
0010
,
0110
0100
1000
0001
,
1001
1000
0010
0100
,
0110
0010
1000
0000
,
1001
0000
0001
0010
,
0110
0100
1000
0001
,
1001
0000
1000
0010
,
0110
0100
0001
1000
,
0001
0000
0010
0000
,
0100
0010
0100
1000
,
1001
0000
0002
0023
,
0130
1000
0100
1000
0010
0100
0001
0100
,
0010
0000
1000
0000
0010
0000
1000
0000
0001
0000
0010
0000
0001
0010
0001
0010
,
0001
1000
0010
1000
0100
1000
0100
1000
,
0001
0000
0100
0000
0001
0000
1000
0000
0001
0000
0010
0000
0100
1000
0100
1000
,
0001
1000
0001
1000
0010
0100
0010
1000
,
0001
0000
0010
0000
0001
0000
0010
0000
0100
0000
1000
0000
0001
1000
0001
1000
,
0001
0100
0010
0100
0001
1000
0001
1000
,
0100
0000
0010
0000
0100
0000
1000
0000
0001
0000
0100
0000
0001
0100
0001
0100
,
0001
1000
0001
0010
0100
1000
0100
0010
,
0001
0000
1000
0000
0001
0000
0100
0000
0010
0000
1000
0000
0010
1000
0010
1000
,
0010
1000
0100
1000
0001
0100
0010
0100
,
0001
0000
0010
0000
0100
0000
1000
0000
0001
0000
0100
0000
0010
1000
0010
1000
,
0010
1000
0100
0010
0001
0010
0100
1000
,
0001
0100
0010
0100
0001
1000
0001
1000
,
0100
0010
0001
1000
0200
0000
0000
0000
,
0000
0000
0000
0000
,
1301
0000
0000
2000
,
3002
0203
0320
2030
,
3001
0010
0100
1000
0001
1000
0100
0010
0001
0000
1000
0000
0100
0000
1000
0000
,
0001
1000
0010
0100
0001
0100
0010
1000
0001
0000
0100
0000
0010
0000
1000
0000
,
0100
0010
0100
1000
0001
1000
0100
1000
0001
0000
0010
0000
0100
0000
1000
0000
,
0002
0023
0230
2300
,
3010
0100
0001
1000
0010
1000
0001
0100
0001
0000
0100
0000
0001
0000
1000
0000
,
0100
0010
0001
1000
0001
0000
1000
0000
0001
0010
0100
1000
0010
0100
0001
1000
,
0001
0100
0010
1000
0001
0000
1000
0000
0100
0000
0010
0000
0100
0000
1000
0000
,
0020
0230
0302
2003
,
3001
0100
0010
0100
0001
0000
1000
0000
0001
1000
0001
0010
0100
1000
0100
0010
,
0001
1000
0100
1000
0001
0000
1000
0000
0010
0100
0001
0100
0010
0000
1000
0000
,
0001
0010
0100
1000
0001
0000
1000
0000
0001
0100
0010
1000
0001
0000
1000
0000
,
0001
1000
0001
0010
0100
0010
0001
1000
0100
0000
0010
0000
0200
0000
0000
0000
,
2300
0000
3001
0002
,
0000
0000
0203
0000
,
0320
0030
0010
2000
,
3002
0203
0320
2030
,
3001
0010
0100
1000
0001
1000
0100
0010
0001
0000
1000
0000
0100
0000
1000
0000
,
0001
1000
0010
0100
0001
0100
0010
1000
0001
0000
0100
0000
0010
0000
1000
0000
,
0100
0010
0100
1000
0001
1000
0100
1000
0001
0000
0010
0000
0100
0000
1000
0000
,
0002
0023
0230
2300
,
3010
0100
0001
1000
0010
0000
1000
0000
0001
1000
0010
0100
0001
1000
0001
0010
,
0100
1000
0001
1000
0001
0000
1000
0000
0001
0010
0100
1000
0010
0100
0001
1000
,
0001
0100
0010
1000
0100
0010
0100
1000
,
0020
0230
0302
2003
,
3001
0100
0010
0100
0001
0000
1000
0000
0001
1000
0001
0010
0100
1000
0100
0010
,
0001
1000
0100
1000
0001
0000
1000
0000
0010
0100
0001
0100
0010
0000
1000
0000
,
0001
0010
0100
1000
0001
0000
1000
0000
0001
0100
0010
1000
0001
0000
1000
0000
,
0001
1000
0001
0010
0100
0010
0001
1000
0100
0000
0010
0000
0200
0000
0000
0000
,
2300
0000
3001
0002
,
0000
0000
0203
0000
,
0310
0000
1000
0000
,
2000
0000
0000
0000
,
3001
0000
0010
0000
0001
0000
0100
0000
0001
0000
1000
0000
0001
0100
0010
1000
,
0001
0100
0001
1000
0100
0010
0001
1000
0001
0100
0010
1000
0001
1000
0010
0100
,
0001
0100
0001
1000
0100
0010
0100
1000
,
0001
0100
0010
1000
0001
0010
0100
1000
,
0010
0000
0000
0000
1000
0000
0000
0000
0100
0010
0001
1000
0100
0010
0001
1000
,
0001
0000
0000
0000
0100
0000
0000
0000
0010
1000
0001
0100
0010
1000
0001
0100
,
0010
0000
1000
0000
0100
0010
0001
0100
0010
1000
0100
0010
0001
1000
0100
1000
,
0001
0100
0010
1000
0002
0000
0023
0000
,
0031
0000
0010
0000
0001
0000
0100
0000
0001
0000
1000
0000
0001
1000
0001
0100
,
0010
1000
0010
0100
0001
1000
0100
1000
0001
0010
0001
1000
0010
0100
0010
1000
,
0001
0010
0001
1000
0010
0100
0010
1000
,
0001
0010
0100
1000
0001
0100
0010
1000
,
0002
0000
0203
0000
,
0320
0000
0230
0000
,
0000
0000
0302
0023
0230
0300
1000
0000
,
1010
0000
0020
0230
,
0301
1000
0010
1000
0001
0010
0100
0010
,
0001
0000
1000
0000
0001
0000
1000
0000
0010
0000
1000
0000
0001
0100
0001
0100
,
0010
1000
0100
1000
0001
0010
0001
0010
,
0100
0000
1000
0000
0001
0000
1000
0000
0010
0000
0100
0000
0001
1000
0001
1000
,
0001
0010
0100
0010
0001
1000
0010
0100
,
0001
0000
0010
0000
0001
0000
0010
0000
0100
0000
1000
0000
0100
1000
0100
1000
,
0001
0100
0010
0100
0001
1000
0001
1000
,
0100
0010
0001
1000
0001
0010
0100
1000
,
0001
0100
0010
1000
0001
0010
0100
1000
,
0010
0100
0010
1000
0100
0010
0100
1000
,
0001
0100
0010
0100
0001
0010
0100
0010
,
0001
0100
0010
1000
0100
0010
0001
1000
,
1001
0000
0010
0000
,
1001
0000
0100
0000
,
2001
0000
0000
0000
,
0001
0000
0000
0000
,
3001
0000
0000
0000
,
0011
0000
0000
0000
1001
0000
0000
0000
1010
0000
0000
0000
,
2002
0000
3003
2000
,
3002
0023
0230
2300
,
3001
0100
0010
1000
0001
1000
0010
0100
0001
0000
1000
0000
0010
0000
1000
0000
,
0001
1000
0100
0010
0001
0010
0100
1000
0001
0000
0010
0000
0100
0000
1000
0000
,
0010
0100
0010
1000
0001
1000
0010
1000
0001
0000
0100
0000
0010
0000
1000
0000
,
0002
0203
0320
2030
,
3100
0010
0001
1000
0100
1000
0001
0010
0001
0000
0010
0000
0001
0000
1000
0000
,
0010
0100
0001
1000
0001
0000
1000
0000
0001
0100
0010
1000
0100
0010
0001
1000
,
0001
0010
0100
1000
0001
0000
1000
0000
0010
0000
0100
0000
0010
0000
1000
0000
,
0200
0320
0032
2003
,
3001
0010
0100
0010
0001
0000
1000
0000
0001
1000
0001
0100
0010
1000
0010
0100
,
0001
1000
0010
1000
0001
0000
1000
0000
0100
0010
0001
0010
0100
0000
1000
0000
,
0001
0100
0010
1000
0001
0000
1000
0000
0001
0010
0100
1000
0001
0000
1000
0000
,
0001
1000
0001
0100
0010
0100
0001
1000
0010
0000
0100
0000
0020
0000
0000
0000
,
2030
0000
3001
0002
,
0000
0000
0023
0000
,
0230
0300
0100
2000
,
3002
0023
0230
2300
,
3001
0100
0010
1000
0001
1000
0010
0100
0001
0000
1000
0000
0010
0000
1000
0000
,
0001
1000
0100
0010
0001
0010
0100
1000
0001
0000
0010
0000
0100
0000
1000
0000
,
0010
0100
0010
1000
0001
1000
0010
1000
0001
0000
0100
0000
0010
0000
1000
0000
,
0002
0203
0320
2030
,
3100
0010
0001
1000
0100
0000
0010
0000
0001
0010
0100
1000
0001
1000
0010
0100
,
0001
1000
0010
1000
0001
0000
1000
0000
0001
0100
0010
1000
0100
0010
0001
1000
,
0001
0010
0100
1000
0010
0100
0010
1000
,
0200
0320
0032
2003
,
3001
0010
0100
0010
0001
0000
1000
0000
0001
1000
0001
0100
0010
1000
0010
0100
,
0001
1000
0010
1000
0001
0000
1000
0000
0100
0010
0001
0010
0100
0000
1000
0000
,
0001
0100
0010
1000
0001
0000
1000
0000
0001
0010
0100
1000
0001
0000
1000
0000
,
0001
1000
0001
0100
0010
0100
0001
1000
0010
0000
0100
0000
0020
0000
0000
0000
,
2030
0000
3001
0002
,
0000
0000
0023
0000
,
0130
0000
1000
0000
,
2000
0000
0000
3001
,
0002
0000
0103
0200
,
0000
0000
0320
0000
,
1030
0000
0001
0000
,
0002
0000
0000
0000
,
0003
0000
0000
0000
0000
0000
0000
0020
,
0000
0000
0000
0000
0000
0230
0000
0000
,
0000
0000
0000
0000
0000
0000
0000
0000
0300
0000
0000
0000
0000
2000
0000
0000
,
0000
3002
0200
0000
0000
0000
0000
0000
,
0000
0000
0303
0000
;

//---------------dance-single - T. Swag----------------
#NOTES:
     dance-single:
     T. Swag:
     Hard:
     18:
     1.000,1.000,0.108,0.777,1.000,1760.000,26.000,187.000,2.000,1.000:
0000
0000
0000
0000
,
0000
0000
0000
0000
,
0000
0000
0000
0000
,
0000
0000
0000
0000
,
0000
0000
0000
0000
,
0000
0000
0000
0000
,
0000
0000
0000
0000
,
0000
0000
0000
0000
,
2000
0000
3020
0000
,
0000
0000
0000
0000
,
0000
0000
1030
0001
0200
0000
0000
0000
,
0000
0000
0000
0000
,
0000
0000
0000
0000
,
0302
0023
0230
2300
3002
0023
0230
2300
,
3002
0203
0320
2030
3002
0203
0320
2030
,
3002
0023
0230
0320
0032
0023
0230
0320
,
0032
0203
0302
2003
3002
0203
0302
2003
,
3200
0300
0010
0001
,
1000
0001
0010
0000
,
0100
0000
2000
0000
,
0000
0000
3000
0001
,
0200
0000
0310
2000
,
0000
0000
3100
0020
,
0000
0000
0000
0000
,
0030
0000
0000
0000
,
0MM0
0000
0001
1000
,
0002
0000
0000
0103
,
0010
0100
0002
0000
,
0003
0000
1000
0100
,
0020
0000
0032
2003
,
0000
0000
3020
0230
,
0000
0000
0302
0000
,
0000
0000
2003
3200
,
0310
0001
0010
0001
0100
0010
1000
0010
,
0100
0000
0001
0000
0100
0000
0001
0000
1000
0000
0100
0000
1000
0100
1000
0100
,
1000
0001
0100
0001
0010
0001
0010
0001
,
1000
0000
0010
0000
1000
0000
0001
0000
1000
0000
0100
0000
0010
0001
0010
0001
,
1000
0001
1000
0001
0100
0010
0100
0001
,
1000
0000
0100
0000
1000
0000
0100
0000
0010
0000
0001
0000
1000
0001
1000
0001
,
1000
0010
0100
0010
1000
0001
1000
0001
,
0010
0000
0100
0000
0010
0000
0001
0000
1000
0000
0010
0000
1000
0010
1000
0010
,
1000
0001
1000
0100
0010
0001
0010
0100
,
1000
0000
0001
0000
1000
0000
0010
0000
0100
0000
0001
0000
0100
0001
0100
0001
,
0100
0001
0010
0001
1000
0010
0100
0010
,
1000
0000
0100
0000
0010
0000
0001
0000
1000
0000
0010
0000
0100
0001
0100
0001
,
0100
0001
0010
0100
1000
0100
0010
0001
,
1000
0010
0100
0010
1000
0001
1000
0001
,
0020
0000
0000
0032
,
2003
3020
0230
0302
,
1003
0100
0010
0001
1000
0001
0010
0100
1000
0001
0010
0001
1000
0100
0010
0001
,
1000
0001
0100
0010
1000
0010
0100
0001
1000
0010
1000
0001
0100
0001
1000
0001
,
0010
0100
0010
0001
1000
0001
0010
0001
1000
0100
1000
0001
1000
0100
0010
0001
,
2000
3200
0320
0032
,
0103
0010
1000
0001
0100
0001
1000
0010
1000
0001
0100
0010
1000
0001
1000
0001
,
0010
0100
1000
0001
1000
0001
0100
0010
1000
0100
0010
0001
0100
0010
1000
0001
,
1000
0100
0010
0001
1000
0100
1000
0001
0010
0001
1000
0100
0010
0001
1000
0001
,
0200
0320
2030
3002
,
1003
0010
0100
0010
1000
0001
0100
0010
1000
0001
1000
0100
0010
0001
0010
0100
,
1000
0001
0010
0001
1000
0100
0010
0001
0100
0010
1000
0010
0100
0001
1000
0001
,
1000
0100
0010
0001
1000
0100
1000
0001
1000
0010
0100
0001
1000
0001
0100
0010
,
1000
0001
1000
0100
0010
0100
1000
0001
0010
0001
1000
0100
0020
0000
0000
0000
,
0032
0000
1003
2000
,
0000
0000
3020
0000
,
0230
0300
0100
0002
,
2003
3020
0230
0302
,
1003
0100
0010
0001
1000
0001
0010
0100
1000
0001
0010
0001
1000
0100
0010
0001
,
1000
0001
0100
0010
1000
0010
0100
0001
1000
0010
1000
0001
0100
0001
1000
0001
,
0010
0100
0010
0001
1000
0001
0010
0001
1000
0100
1000
0001
1000
0100
0010
0001
,
2000
3200
0320
0032
,
0103
0010
1000
0001
0100
0001
1000
0010
1000
0001
0010
0100
1000
0001
1000
0001
,
0010
0100
1000
0001
1000
0001
0100
0010
1000
0100
0010
0001
0100
0010
1000
0001
,
1000
0100
0010
0001
1000
0100
1000
0001
0010
0001
1000
0100
0010
0001
1000
0001
,
0200
0320
2030
3002
,
1003
0010
0100
0010
1000
0001
0100
0010
1000
0001
1000
0100
0010
0001
0010
0100
,
1000
0001
0010
0001
1000
0100
0010
0001
0100
0010
1000
0010
0100
0001
1000
0001
,
1000
0100
0010
0001
1000
0100
1000
0001
1000
0010
0100
0001
1000
0001
0100
0010
,
1000
0001
1000
0100
0010
0100
1000
0001
0010
0001
1000
0100
0020
0000
0000
0000
,
0032
0000
1003
2000
,
0000
0000
3020
0000
,
0130
0000
0001
0000
,
0002
0000
0000
0000
,
1003
0010
0100
0001
,
1001
1000
0100
0010
,
0100
1000
0001
0100
,
0110
0000
0010
1000
,
0001
0000
0000
0020
0000
0000
0032
0000
,
0000
0000
1003
0000
,
0010
0100
0001
1000
,
1001
0000
0001
1000
,
1010
0000
0100
0000
,
1001
0001
0010
0000
,
0110
0100
1000
0001
,
1001
0000
1000
0010
,
0110
0100
0001
0000
,
1001
1000
0100
0010
,
0110
0100
1000
0001
,
1001
1000
0010
0100
,
0110
0010
1000
0000
,
1001
0000
0001
0010
,
0110
0100
1000
0001
,
1001
0000
1000
0010
,
0110
0100
0001
1000
,
0001
0000
0010
0000
,
0100
0010
0100
1000
,
1001
0000
0002
0023
,
0130
1000
0100
1000
0010
0100
0001
0100
,
0010
0000
1000
0000
0010
0000
1000
0000
0001
0000
0010
0000
0001
0010
0001
0010
,
0001
1000
0010
1000
0100
1000
0100
1000
,
0001
0000
0100
0000
0001
0000
1000
0000
0001
0000
0010
0000
0100
1000
0100
1000
,
0001
1000
0001
1000
0010
0100
0010
1000
,
0001
0000
0010
0000
0001
0000
0010
0000
0100
0000
1000
0000
0001
1000
0001
1000
,
0001
0100
0010
0100
0001
1000
0001
1000
,
0100
0000
0010
0000
0100
0000
1000
0000
0001
0000
0100
0000
0001
0100
0001
0100
,
0001
1000
0001
0010
0100
1000
0100
0010
,
0001
0000
1000
0000
0001
0000
0100
0000
0010
0000
1000
0000
0010
1000
0010
1000
,
0010
1000
0100
1000
0001
0100
0010
0100
,
0001
0000
0010
0000
0100
0000
1000
0000
0001
0000
0100
0000
0010
1000
0010
1000
,
0010
1000
0100
0010
0001
0010
0100
1000
,
0001
0100
0010
0100
0001
1000
0001
1000
,
0100
0010
0001
1000
0200
0000
0000
0000
,
0000
0000
0000
0000
,
1301
0000
0000
2000
,
3002
0203
0320
2030
,
3001
0010
0100
1000
0001
1000
0100
0010
0001
1000
0100
1000
0001
0010
0100
1000
,
0001
1000
0010
0100
0001
0100
0010
1000
0001
0100
0001
1000
0010
1000
0001
1000
,
0100
0010
0100
1000
0001
1000
0100
1000
0001
0010
0001
1000
0001
0010
0100
1000
,
0002
0023
0230
2300
,
3010
0100
0001
1000
0010
1000
0001
0100
0001
1000
0010
0100
0001
1000
0001
1000
,
0100
0010
0001
1000
0001
1000
0010
0100
0001
0010
0100
1000
0010
0100
0001
1000
,
0001
0010
0100
1000
0001
0010
0001
1000
0100
1000
0001
0010
0100
1000
0001
1000
,
0020
0230
0302
2003
,
3001
0100
0010
0100
0001
1000
0010
0100
0001
1000
0001
0010
0100
1000
0100
0010
,
0001
1000
0100
1000
0001
0010
0100
1000
0010
0100
0001
0100
0010
1000
0001
1000
,
0001
0010
0100
1000
0001
0010
0001
1000
0001
0100
0010
1000
0001
1000
0010
0100
,
0001
1000
0001
0010
0100
0010
0001
1000
0100
1000
0001
0010
0200
0000
0000
0000
,
2300
0000
3001
0002
,
0000
0000
0203
0000
,
0320
0030
0010
2000
,
3002
0203
0320
2030
,
3001
0010
0100
1000
0001
1000
0100
0010
0001
1000
0100
1000
0001
0010
0100
1000
,
0001
1000
0010
0100
0001
0100
0010
1000
0001
0100
0001
1000
0010
1000
0001
1000
,
0100
0010
0100
1000
0001
1000
0100
1000
0001
0010
0001
1000
0001
0010
0100
1000
,
0002
0023
0230
2300
,
3010
0100
0001
1000
0010
1000
0001
0100
0001
1000
0100
0010
0001
1000
0001
1000
,
0100
0010
0001
1000
0001
1000
0010
0100
0001
0010
0100
1000
0010
0100
0001
1000
,
0001
0010
0100
1000
0001
0010
0001
1000
0100
1000
0001
0010
0100
1000
0001
1000
,
0020
0230
0302
2003
,
3001
0100
0010
0100
0001
1000
0010
0100
0001
1000
0001
0010
0100
1000
0100
0010
,
0001
1000
0100
1000
0001
0010
0100
1000
0010
0100
0001
0100
0010
1000
0001
1000
,
0001
0010
0100
1000
0001
0010
0001
1000
0001
0100
0010
1000
0001
1000
0010
0100
,
0001
1000
0001
0010
0100
0010
0001
1000
0100
1000
0001
0010
0200
0000
0000
0000
,
2300
0000
3001
0002
,
0000
0000
0203
0000
,
0310
0000
1000
0000
,
2000
0000
0000
0000
,
3001
0000
0010
0000
0001
0000
0100
0000
0001
0000
1000
0000
0001
0100
0010
1000
,
0001
0100
0001
1000
0100
0010
0001
1000
0001
0100
0010
1000
0001
1000
0010
0100
,
0001
1000
0001
0010
0100
1000
0001
1000
0010
0100
0001
0100
0010
1000
0001
1000
,
0100
0010
0100
1000
0001
0010
0100
1000
0001
1000
0010
0100
0010
1000
0001
0100
,
0010
0000
0000
0000
1000
0000
0000
0000
0100
0010
0001
1000
0100
0010
0001
1000
,
0001
0000
0000
0000
0100
0000
0000
0000
0010
1000
0001
0100
0010
1000
0001
0100
,
0010
1000
0001
1000
0100
0010
0001
0100
0010
1000
0100
0010
0001
1000
0100
1000
,
0001
1000
0010
0100
0001
0100
0010
1000
0002
0000
0000
0000
0023
0000
0000
0000
,
0031
0000
0010
0000
0001
0000
0100
0000
0001
0000
1000
0000
0001
1000
0001
0100
,
0010
1000
0010
0100
0001
1000
0100
1000
0001
0010
0001
1000
0010
0100
0010
1000
,
0001
0100
0010
1000
0001
0100
0001
1000
0100
0010
0100
1000
0001
0010
0001
1000
,
0001
0100
0010
1000
0010
0100
0001
1000
0001
0010
0100
1000
0001
1000
0100
0010
,
0002
0000
0203
0000
,
0320
0000
0230
0000
,
0000
0000
0302
0023
0230
0300
1000
0000
,
1010
0000
0020
0230
,
0301
1000
0010
1000
0001
0010
0100
0010
,
0001
0000
1000
0000
0001
0000
1000
0000
0010
0000
1000
0000
0001
0100
0001
0100
,
0010
1000
0100
1000
0001
0010
0001
0010
,
0100
0000
1000
0000
0001
0000
1000
0000
0010
0000
0100
0000
0001
1000
0001
1000
,
0001
0010
0100
0010
0001
1000
0010
0100
,
0001
0000
0010
0000
0001
0000
0010
0000
0100
0000
1000
0000
0100
1000
0100
1000
,
0001
0100
0010
0100
0001
1000
0001
1000
,
0100
0010
0001
1000
0001
0010
0100
1000
,
0001
0100
0010
1000
0001
0010
0100
1000
,
0010
0100
0010
1000
0100
0010
0100
1000
,
0001
0100
0010
0100
0001
0010
0100
0010
,
0001
0100
0010
1000
0100
0010
0001
1000
,
1001
0000
0010
0000
,
1001
0000
0100
0000
,
2001
0000
0000
0000
,
0001
0000
0000
0000
,
3001
0000
0000
0000
,
0011
0000
0000
0000
1001
0000
0000
0000
1010
0000
0000
0000
,
2002
0000
3003
2000
,
3002
0023
0230
2300
,
3001
0100
0010
1000
0001
1000
0010
0100
0001
1000
0010
1000
0001
0100
0010
1000
,
0001
1000
0100
0010
0001
0010
0100
1000
0001
0010
0001
1000
0100
1000
0001
1000
,
0010
0100
0010
1000
0001
1000
0010
1000
0001
0100
0001
1000
0001
0100
0010
1000
,
0002
0203
0320
2030
,
3100
0010
0001
1000
0100
1000
0001
0010
0001
1000
0100
0010
0001
1000
0001
1000
,
0010
0100
0001
1000
0001
1000
0100
0010
0001
0100
0010
1000
0100
0010
0001
1000
,
0001
0100
0010
1000
0001
0100
0001
1000
0010
1000
0001
0100
0010
1000
0001
1000
,
0200
0320
0032
2003
,
3001
0010
0100
0010
0001
1000
0100
0010
0001
1000
0001
0100
0010
1000
0010
0100
,
0001
1000
0010
1000
0001
0100
0010
1000
0100
0010
0001
0010
0100
1000
0001
1000
,
0001
0100
0010
1000
0001
0100
0001
1000
0001
0010
0100
1000
0001
1000
0100
0010
,
0001
1000
0001
0100
0010
0100
0001
1000
0010
1000
0001
0100
0020
0000
0000
0000
,
2030
3000
1000
0002
,
0000
0000
0203
0000
,
0320
0030
0010
2000
,
3002
0023
0230
2300
,
3001
0100
0010
1000
0001
1000
0010
0100
0001
1000
0010
1000
0001
0100
0010
1000
,
0001
1000
0100
0010
0001
0010
0100
1000
0001
0010
0001
1000
0100
1000
0001
1000
,
0010
0100
0010
1000
0001
1000
0010
1000
0001
0100
0001
1000
0001
0100
0010
1000
,
0002
0203
0320
2030
,
3100
0010
0001
1000
0100
1000
0001
0010
0001
1000
0100
0010
0001
1000
0001
1000
,
0010
0100
0001
1000
0001
1000
0100
0010
0001
0100
0010
1000
0100
0010
0001
1000
,
0001
0100
0010
1000
0001
0100
0001
1000
0010
1000
0001
0100
0010
1000
0001
1000
,
0200
0320
0032
2003
,
3001
0010
0100
0010
0001
1000
0100
0010
0001
1000
0001
0100
0010
1000
0010
0100
,
0001
1000
0010
1000
0001
0100
0010
1000
0100
0010
0001
0010
0100
1000
0001
1000
,
0001
0100
0010
1000
0001
0100
0001
1000
0001
0010
0100
1000
0001
1000
0100
0010
,
0001
1000
0001
0100
0010
0100
0001
1000
0010
1000
0001
0100
0020
0000
0000
0000
,
2030
0000
3001
0002
,
0000
0000
0023
0000
,
0130
0000
1000
0000
,
2000
0000
0000
3001
,
0002
0000
0103
0200
,
0000
0000
0320
0000
,
1030
0000
0001
0000
,
0002
0000
0000
0000
,
0003
0000
0000
0000
0000
0000
0000
0020
,
0000
0000
0000
0000
0000
0230
0000
0000
,
0000
0000
0000
0000
0000
0000
0000
0000
0300
0000
0000
0000
0000
2000
0000
0000
,
0000
3002
0200
0000
0000
0000
0000
0000
,
0000
0000
0303
0000
;
