#TITLE:Remember December;
#SUBTITLE:;
#ARTIST:Mind Reflection;
#TITLETRANSLIT:;
#SUBTITLETRANSLIT:;
#ARTISTTRANSLIT:;
#CREDIT:;
#BANNER:remember.png;
#BACKGROUND:remember-bg.png;
#LYRICSPATH:;
#CDTITLE:ITG.png;
#MUSIC:Remember December.mp3;
#OFFSET:-0.078;
#SAMPLESTART:101.030;
#SAMPLELENGTH:12.000;
#SELECTABLE:YES;
#BPMS:0.000=192.400;
#STOPS:;
#BGCHANGES:32.000=arrow_foon.avi=1.000=0=0=1,
36.000=dropout_01.avi=1.000=0=0=1,
64.000=mad_01.avi=1.000=0=0=1,
68.000=dropout_01.avi=1.000=0=0=1,
84.000=inn04.avi=1.000=0=0=1,
85.500=sfm_07.png=1.000=0=0=1,
88.000=inn04.avi=1.000=0=0=1,
89.500=sfm_07.png=1.000=0=0=1,
92.000=mad_01.avi=1.000=0=0=1,
100.000=dropout_01.avi=1.000=0=0=1,
132.000=domino_01.avi=1.000=0=0=1,
148.000=dropout_01.avi=1.200=0=0=1,
160.000=mad_01.avi=1.200=0=0=1,
164.500=blare_00.avi=1.000=0=0=1,
180.000=snow_01.avi=1.000=0=0=1,
196.000=arrows_01.avi=1.000=0=0=1,
212.000=arrows_01.avi=1.200=0=0=1,
225.000=mariovictory.PNG=1.000=0=0=1,
228.000=msn.avi=1.000=0=0=1,
260.000=obroll_00.avi=1.000=0=0=1,
292.000=blare_00.avi=1.000=0=0=1,
322.500=mad_01.avi=1.000=0=0=1,
324.000=snow_01.avi=1.000=0=0=1,
356.000=domino_01.avi=1.200=0=0=1,
388.000=msn.avi=1.000=0=0=1,
394.000=arrows_01.avi=1.200=0=0=1,
402.000=remember-bg.png=1.000=0=0=1,
99999=-nosongbg-=1.000=0=0=0 // don't automatically add -songbackground-
;
// cache tags:
#FIRSTBEAT:16.000;
#LASTBEAT:402.000;
#SONGFILENAME:Songs/Beyond Legends/Remember December/Remember December.sm;
#HASMUSIC:1;
#HASBANNER:1;
#MUSICLENGTH:125.767;
// end cache tags

//---------------dance-single - S-10 Oni----------------
#NOTES:
     dance-single:
     S-10 Oni:
     Challenge:
     10:
     0.819,0.959,0.103,0.103,0.445,693.000,13.000,13.000,0.000,2.000:
0000
0000
0000
0000
,
0000
0000
0000
0000
,
0000
0000
0000
0000
,
0000
0000
0000
0000
,
1000
0000
0001
0000
0100
0001
0000
0010
,
0100
0000
1000
0001
0000
0100
0001
0000
,
0010
0000
0100
0000
1000
0010
0000
1000
,
0010
0000
0100
0001
0000
0010
0001
0000
,
1000
0100
1000
0010
0100
0000
1001
0000
,
0100
0001
0010
0001
1000
0010
1000
0001
,
0100
0001
1000
0100
1000
0100
1000
0001
,
0100
0001
0010
0001
1000
0001
0100
0001
,
0010
0000
0100
0000
1000
0000
0010
0000
0100
0001
0100
0000
0001
0000
1000
0000
,
0100
1000
0010
0100
0001
0010
0001
1000
,
0010
1000
0001
0010
0100
1000
0010
1000
,
0010
0100
0001
0010
0001
0100
0001
1000
,
0100
0000
1000
0010
1000
0001
1000
0000
0100
0000
0001
0100
0001
0100
0001
0000
,
1000
0010
1000
0001
0100
0001
0010
0100
,
1000
0000
0010
0000
0100
0000
0001
0000
1000
0000
0001
1000
0001
0000
0100
0000
,
0001
0010
0100
1000
0010
0100
0001
0010
,
0001
0000
1000
0000
0010
0000
0100
0000
0001
0010
0001
0010
0000
0000
0001
0000
,
1000
0010
0100
0001
0000
0001
1000
0010
,
0100
0001
1000
0001
0000
0001
1000
0010
,
0100
0000
0001
0000
1000
0000
0001
0000
0000
0000
0001
0000
0010
0000
0100
1000
,
0010
1000
0001
1000
0100
0000
1000
0000
0001
0000
0100
0000
0001
0010
0001
0000
,
1000
0000
0100
1000
0100
1000
0000
0000
0010
0000
0100
0000
1000
0000
0000
0000
,
0001
0000
1000
0001
1000
0000
0010
0000
1000
0000
0010
1000
0010
0000
0100
0001
,
0100
0000
0001
0010
0001
0000
1000
0000
0100
0000
1000
0000
0001
0000
0100
0000
,
0001
0000
0010
0001
0010
0000
0001
0000
1000
0000
0100
1000
0100
0000
1000
0010
,
1000
0010
0100
0010
0001
1000
0010
0100
,
0001
0000
0010
0001
0010
0000
0001
0000
1000
0000
0100
0000
0001
0000
0100
0001
,
0010
0000
0100
1000
0010
0000
0100
0000
0001
0000
0010
0000
0001
0000
0100
0000
,
1000
0000
0001
0100
0001
0010
0100
1000
0010
0100
0001
0010
0001
1000
0001
0100
,
0001
0010
0100
1000
0001
0100
0001
0010
,
0100
1000
0001
0100
0001
0010
0001
0100
,
0010
1000
0100
1000
0010
1000
0001
1000
,
0100
0000
1000
0100
1000
0000
0001
0100
0001
0000
0001
0010
0001
0010
0001
0010
,
0001
0100
0010
1000
0100
0010
0001
0100
,
0001
0010
0100
1000
0010
0100
0100
1000
,
0010
1000
0001
0100
0001
0010
0100
1000
,
0010
0000
1000
0100
1000
0000
0001
0100
0001
0000
0010
0001
1000
0000
0010
0100
,
0001
0010
0001
1000
0010
0100
0001
0010
,
0001
1000
0010
0100
0001
0010
0001
0001
,
1000
0010
1000
0100
0010
0001
0100
0010
,
1000
0100
0010
0100
1000
0010
1000
1000
,
0010
0100
0001
0010
0001
0100
0010
1000
,
0100
0010
0001
0100
0010
1000
0100
0100
,
0010
0001
0100
0001
1000
0010
0100
0001
,
0010
0000
0001
0000
0100
0000
0001
1000
0001
0000
0010
1000
0010
0000
0001
0100
,
0001
0000
0000
1000
0000
0000
0001
0000
0000
0000
0100
0000
0000
0000
0000
0000
0001
0000
0010
0000
0000
0000
0100
0000
,
1000
0000
0000
0001
0000
0100
0000
0000
0001
0000
0000
0010
,
0100
0000
0000
0100
0000
1000
0000
0000
0010
0100
0000
0001
,
0010
0000
0000
0001
0000
1000
0000
0000
1000
0100
0000
0000
,
0100
0000
0000
0010
0000
0001
0000
0000
0001
0100
0000
0010
,
1000
0000
0000
0001
0000
0100
0000
0000
0001
0000
0000
0010
,
0100
0001
0100
0001
,
0011
1100
1010
0101
,
1000
0000
0001
0100
0000
0010
1000
0000
0001
0100
0000
0001
,
0010
0000
0100
1000
0000
0010
0100
0000
0001
0010
0000
0001
,
1000
0000
0100
1000
0000
0001
0100
0000
0001
0010
0000
0100
,
2000
0000
0000
0100
0000
0000
0001
0000
0000
0010
0000
3000
,
0001
0000
0100
0001
0000
0010
0001
0000
1000
0100
0000
1000
,
0010
0000
0100
0001
0000
1000
0100
0000
0001
0100
0000
1000
,
0010
0000
0001
0010
0000
1000
0001
0000
0100
0001
0000
0010
,
0100
0000
1000
0010
0000
0100
0001
0000
0010
0001
0000
0000
,
2000
0000
0000
0000
,
0000
3000
1001
0000
,
0002
0000
0000
0000
0000
0003
0000
0000
,
2200
0000
0000
3300
,
0220
0000
0000
0330
,
0202
0000
0000
0000
0000
0000
0010
0303
,
2020
0000
0000
0000
0000
0000
0000
3030
,
0020
0000
0000
0030
0000
0000
0200
0000
0000
0000
0300
0000
,
0001
1000
0001
0100
,
0001
0010
0100
1000
,
0010
0100
0001
0010
,
0001
0000
0000
1000
0000
0000
0010
0000
0000
0100
0000
0100
,
1000
0010
0100
0001
,
0010
0001
0100
0010
,
1000
0001
0100
0001
,
0010
0100
1000
1000
,
0001
1000
0001
0100
0001
0010
0001
1000
,
0010
0100
0001
0010
0001
1000
0010
0100
,
0001
0010
0001
1000
0100
1000
0001
0100
,
0001
0010
0001
0000
0100
0000
1000
0000
0100
0000
1000
0100
1000
0000
0001
0000
,
0100
0001
0010
0001
0100
0010
1000
0001
,
0100
0001
0010
0100
1000
0010
0100
0001
,
1000
0100
1000
0001
0100
1000
0010
0001
,
0010
0000
0001
0000
0100
0000
0001
0000
1000
0000
0100
1000
0001
0000
0100
0001
,
0010
0001
1000
0010
0100
0001
0010
1000
,
0100
0001
0100
0001
0100
0000
0010
0000
1000
0100
1000
0100
1000
0000
0001
0000
,
0100
0001
0010
0001
1000
0001
0100
0001
,
0010
0100
0010
0100
0010
0000
0001
0000
1000
0001
1000
0001
1000
0000
0001
0000
,
0100
0001
0010
0001
0100
1000
0100
0001
,
0010
0001
0010
0001
0010
0000
0001
0000
0100
0001
0100
0001
0100
0000
0001
0000
,
1000
0010
0100
0001
0010
0001
1000
0001
,
0100
0001
0010
0001
1001
0000
1001
0000
,
0100
0001
0000
0010
0000
0000
0100
0000
,
1000
0000
0000
0000
0000
0000
0000
0010
1000
0100
1000
0001
0100
0001
0010
0001
,
0000
0000
1000
0010
0000
0000
0100
0001
0000
0000
0010
0001
0000
0000
1000
0000
,
0000
0100
0001
0000
1111
0000
0000
0000
;
