#TITLE:Unknown Soldier;
#SUBTITLE:;
#ARTIST:Warmen;
#TITLETRANSLIT:;
#SUBTITLETRANSLIT:;
#ARTISTTRANSLIT:;
#CREDIT:;
#BANNER:../fallback-bn.png;
#BACKGROUND:../fallback-bg.png;
#LYRICSPATH:;
#CDTITLE:monst3rjoe - cdtitle.png;
#MUSIC:Unknown Soldier.ogg;
#OFFSET:1.216;
#SAMPLESTART:36.760;
#SAMPLELENGTH:12.000;
#SELECTABLE:YES;
#BPMS:0.000=174.000;
#STOPS:;
#BGCHANGES:;
// cache tags:
#FIRSTBEAT:4.000;
#LASTBEAT:572.500;
#SONGFILENAME:Songs/SSSC PACK/[Monst3rjoe] - Unknown Soldier/Unknown Soldier.sm;
#HASMUSIC:1;
#HASBANNER:1;
#MUSICLENGTH:198.191;
// end cache tags

//---------------dance-single - Monst3rjoe----------------
#NOTES:
     dance-single:
     Monst3rjoe:
     Challenge:
     15:
     1.000,1.000,0.212,0.363,1.000,1709.000,42.000,72.000,98.000,7.000:



0000
0000
0000
0000
,
10MM
0100
0010
0001
0100
0010
0100
0001
0010
0100
0010
0100
1000
0001
1000
0001
,
0100
0010
1000
0100
1000
0010
0100
0010
1000
0001
1000
0001
0010
0100
001M
0100
,
100M
0010
0100
0001
0010
0001
1000
0001
0100
0010
0100
0010
1000
0100
1000
0100
,
0010
0100
1000
0010
0100
0001
0010
0001
1000
0010
1000
0010
0100
0001
0100
0001
,
M010
0100
1000
0010
M100
0001
1000
0100
0010
0001
0010
0001
0100
0010
0100
0010
,
1000
0001
0010
0100
1000
0010
0100
0010
1000
0100
1000
0100
1000
0010
1000
0000
,
1M1M
M111
11MM
11M1
,
1000
0100
1000
0100
1000
0100
0010
0001
0010
0001
0100
0010
0100
0001
1000
0001
,
0020
0000
0000
0000
0000
0000
0000
0000
0000
0000
0000
0000
0000
0000
0000
0000
0000
0000
0000
0000
0000
0000
0000
0000
0000
0000
0000
0000
0000
0000
0000
0000
0000
0000
0000
0000
0000
0000
0000
0000
0000
0000
0000
0000
0000
0000
0000
0000
0000
0000
0000
0000
0000
0000
0000
0000
0000
0000
0000
0000
0000
0000
0000
0000
0000
0000
0000
0000
0000
0000
0000
0000
0000
0000
0000
0000
0000
0000
0000
0000
0000
0000
0000
0000
0000
0000
0000
0000
0000
0000
0000
0000
0000
0000
0000
0000
0000
0000
0000
0000
0000
0000
0000
0000
0000
0000
0000
0000
0000
0000
0000
0000
0000
0000
0000
0000
0000
0000
0000
0000
0030
0000
0000
0000
0000
0000
0000
0000
0000
0000
0000
0000
0000
0000
0000
0000
0000
0000
0000
0000
0000
0000
0000
0100
1000
0000
0000
0000
0000
0000
0000
0000
0000
0000
0000
0000
0000
0000
0000
0000
0000
0000
0000
0000
0000
0000
0000
0000
0000
0000
0000
0000
0000
0000
0000
0000
0000
0000
0000
0000
0000
0000
0000
0000
0000
0000
0000
0000
0000
0000
0000
0000
,
1001
0000
0000
0000
0011
0000
0000
0000
0001
0000
0100
0000
0200
0000
0310
1000
,
0100
0000
0000
0000
0011
0000
0000
0000
1000
0100
0010
0001
0100
0010
1000
0100
,
1000
0010
0100
0010
1000
0100
1000
0010
0100
0010
1000
0001
0010
0100
1000
0001
,
0010
0001
0100
0010
1000
0001
0100
0010
1000
0100
1000
0100
0010
0001
0010
0001
,
0100
0010
0100
0001
1000
0100
1000
0010
0100
0001
0100
0001
1000
0010
1000
0010
,
0100
0000
0110
0000
0001
0011
0010
0100
,
1000
0000
0000
0000
0000
0000
0000
0000
0000
0000
0000
0000
0000
0000
0000
0000
0000
0000
0100
0000
0000
0010
0000
0000
0200
0000
0000
0000
0000
0000
0000
0000
03M0
0000
0000
0000
0000
0000
0000
0000
0000
0000
0010
0000
0000
0001
0000
0000
,
2000
3010
0040
0000
0000
0000
0030
0000
,
0100
0001
1000
0010
1000
0001
0010
0001
1000
0010
1000
0010
0100
0001
0100
0001
,
0010
0100
1000
0010
0100
0001
1000
0100
0010
0001
0010
0001
0100
0010
0100
0010
,
1000
0000
0000
0000
0000
0000
0000
0000
0000
0000
0000
0000
1100
0000
0000
0000
0000
0000
0000
0000
0000
0000
0000
0000
0000
0000
0000
0000
0000
0000
0100
0000
0000
0010
0000
0000
0001
0000
0000
0000
1000
0000
0010
0000
0000
0000
0000
0000
,
2020
0000
3030
0000
0000
1000
0001
0002
,
0000
0000
0003
0000
0000
0000
0000
0000
0100
0010
0100
0001
0100
0010
0100
0001
,
0010
0100
1000
0010
0100
0001
0010
0001
0100
0010
0100
0010
1000
0100
1000
0100
,
0010
0001
0010
0100
1000
0010
0100
0001
0010
0100
0010
0100
1000
0001
1000
0001
,
0204
0000
0000
0000
0303
0000
0000
0000
1000
0001
0010
0100
1000
0100
1000
0001
,
0010
0100
1000
0010
1000
0010
0100
0010
1000
0100
1000
0010
0100
0001
0010
0001
,
2000
0000
3010
0100
0004
0000
0000
0000
,
1003
0100
1000
0010
0100
0001
0010
0001
0100
0010
0100
0010
1000
0100
1000
0100
,
0010
0001
0010
0100
1000
0010
0100
0001
0010
0001
0010
0001
1000
0010
1000
0010
,
M100
0001
0100
0010
1000
0100
1000
0010
0100
0001
0010
0001
0100
0010
0100
0001
,
1M00
0010
0100
0001
1000
0100
1000
0001
0010
0001
0100
0010
1000
0100
1000
0001
,
M100
0010
1000
0010
0100
0001
0010
0100
1000
0001
0010
0001
0100
0010
0100
0001
,
1M00
0010
0100
0001
1000
0100
0010
0100
1000
0010
0100
0010
1000
0001
0010
0100
,
0010
0001
0100
0010
1000
0010
0100
0001
1000
0100
1000
0010
0100
0001
1000
0100
,
1000
0010
0100
0001
1000
0100
1000
0001
0010
0001
0100
0010
0100
0001
1000
0100
,
0010
0100
1000
0010
0100
0001
1000
0100
1000
0001
0010
0100
1000
0001
1000
0001
,
1001
0000
0000
0000
0101
0000
0000
0000
11MM
0000
1M10
0000
0001
0000
1000
0001
,
1000
0010
1000
0001
1000
0100
1000
0010
0100
0001
0100
0010
0100
0001
0100
0010
,
0100
0001
1000
0001
0010
0001
1000
0001
0100
0010
0100
0001
0100
0010
0100
0001
,
1000
0010
1000
0001
1000
0010
1000
0001
1000
0100
0010
0100
1000
0100
0010
0100
,
1000
0001
1000
0010
0100
0010
1000
0010
0100
0001
0010
0100
1000
0100
0010
0001
,
0010
0100
0010
0001
0010
0100
0010
0001
1000
0001
1000
0010
1000
0001
1000
0010
,
1000
0001
0100
0001
0010
0001
0100
0001
1000
0010
1000
0001
1000
0010
1000
0001
,
0100
0010
0100
0001
0100
0010
0100
0001
0100
0001
1000
0001
0010
0001
0100
0010
,
1000
0010
1000
0001
0100
0010
1000
0010
0100
0001
0010
0100
1000
0100
0010
0001
,
0100
0000
0000
0010
0000
0000
2000
0000
0000
0000
0000
0000
0000
0000
0000
3000
0000
0000
0200
0000
0000
0000
0300
0000
,
0010
0100
1000
0010
0100
0001
0010
0001
1000
0100
1000
0001
0100
0001
1000
0010
,
1000
0001
0010
0001
1000
0100
1000
0001
0010
0001
1000
0010
1000
0001
0010
0001
,
0010
0100
1000
0010
0100
0001
1000
0100
0010
0100
0010
0100
0010
0001
0010
0001
,
0100
0010
1000
0100
1000
0010
0100
0001
0010
0100
0010
0100
1000
0100
1000
0100
,
1000
0M00
M0M1
0100
0001
1000
0001
0010
0001
1000
0001
0010
0100
1000
0100
0010
,
0100
1000
0010
0100
0010
1000
0010
0100
0001
0100
0010
0100
0001
1000
0100
0010
,
0100
1000
0010
0100
0001
0010
0100
1000
0010
0100
0001
0010
0100
1000
0010
0100
,
0001
0010
0001
0100
0010
0100
0001
0010
0001
0100
0001
0100
0010
1000
0010
1000
,
0100
0010
0001
0100
0010
1000
0100
0010
0001
0100
0001
0100
0010
1000
0010
1000
,
0002
0000
0000
0000
0000
0000
0000
0000
0000
0000
0000
0000
0000
0000
0000
0000
0000
0000
0000
0000
0000
0000
0000
0000
0000
0000
0000
0003
0000
0000
0010
0000
0100
0000
1000
0000
0100
0000
0000
0010
0000
0000
0002
0000
0000
0000
0000
0000
,
0000
0000
0000
0000
0000
0000
0000
0000
0000
0000
0000
0000
0000
0000
0000
0000
0000
0000
0000
0000
0000
0000
0000
0000
0103
0000
0000
0000
0000
0000
0010
0000
0000
0000
0000
0000
1000
0000
0000
0000
0000
0000
0000
0000
0000
0000
0000
0000
0010
0000
0000
0000
0000
0000
0000
0000
0100
0000
0000
0000
0000
0000
0000
0000
0001
0000
0000
0000
0000
0000
0000
0000
0200
0000
0000
0000
0000
0000
0000
0000
0000
0000
0000
0000
0000
0000
0000
0000
0000
0000
0000
0000
0000
0000
0000
0000
0000
0000
0000
0000
0000
0000
0000
0000
0000
0000
0000
0000
0000
0000
0000
0000
0000
0000
0000
0000
0000
0000
0000
0000
0000
0000
0000
0000
0000
0000
0000
0000
0000
0000
0000
0000
0000
0000
0000
0000
0000
0000
0000
0000
0000
0000
0000
0000
0000
0000
0000
0000
0000
0000
0000
0000
0000
0000
0000
0000
0300
0000
0000
0000
0000
0000
0000
0000
0000
0000
0000
0000
0000
0000
0000
0000
0000
0000
0000
0000
0000
0000
0000
0000
0000
0000
0000
0000
0000
0000
0000
0000
0000
0000
0000
0000
,
0020
0100
2M30
0100
3200
0000
0300
0000
,
0010
0001
0100
0010
1000
0100
1000
0010
0100
0001
0100
0001
0010
0100
0010
0100
,
1000
0010
0100
0001
0010
0001
1000
0100
0010
0001
0010
0001
1000
0100
1000
0100
,
M010
0000
0001
0000
0010
0000
0100
0000
0000
1000
0000
0000
0100
0000
0000
1000
0000
0000
0001
0000
0010
0000
0100
0000
1000
0000
0000
0001
0000
0000
0010
0000
0000
0100
0000
0000
1000
0000
0000
0010
0000
0000
0100
0000
0000
0001
0000
0000
,
1000
0010
0100
0010
1000
0100
1000
0001
0100
0010
0100
0001
0010
0100
0010
0001
,
0100
0010
1000
0100
0010
0100
1000
0001
0010
0001
0100
0010
0200
0000
M0MM
0300
,
0100
0010
1000
0100
1000
0010
0100
0001
0010
0100
1000
0010
0100
0001
0100
0001
,
1000
0010
1000
0010
0100
0001
0010
0001
1000
0100
1000
0100
0010
0001
0010
0001
,
2000
3000
0000
0020
0000
0230
0000
0302
,
0000
0000
0000
0000
0000
0000
0000
0000
0000
0000
0000
0000
0000
0000
0000
0000
0000
0000
0000
0000
0000
0000
0000
0000
0023
0000
0000
0000
0000
0000
0000
0000
0000
0000
0000
0000
0000
0000
0000
0000
0000
0000
0000
0000
0000
0000
0000
0000
0000
0000
0000
0000
0000
0000
0000
0000
0000
0000
0000
0000
0000
0000
0000
0000
0000
0000
0000
0000
0000
0000
0000
0100
1030
0000
0000
0000
0000
0000
0000
0000
0000
0000
0000
0000
0000
0000
0000
0000
0000
0000
0000
0000
0000
0000
0000
0000
0000
0000
0000
0000
0000
0000
0000
0000
0000
0000
0000
0000
0000
0000
0000
0000
0000
0000
0000
0000
0000
0000
0000
0000
0000
0000
0000
0000
0000
0000
0000
0000
0000
0000
0000
0000
0000
0000
0000
0000
0000
0000
0000
0000
0000
0000
0000
0000
0001
0000
0000
0000
0000
0000
0000
0000
0000
0000
0000
0000
0000
0000
0000
0000
0000
0000
0000
0000
0000
0000
0000
0000
0100
0000
0000
0000
0000
0000
0000
0000
0000
0000
0000
0000
0000
0000
0000
0000
0000
0000
0000
0000
0000
0000
0000
0000
,
0020
0000
0000
0000
0000
0000
0000
0000
0000
0000
0000
0000
0000
0000
0000
0000
0000
0000
0000
0000
0000
0000
0000
0000
0030
0000
0000
0000
0000
0000
0000
0000
0000
0000
0000
0000
0000
0000
0000
0000
0000
0000
0000
0000
0000
0000
0000
0000
1000
0000
0000
0000
0000
0000
0000
0000
0000
0000
0000
0000
0000
0000
0000
0000
0000
0000
0000
0000
0000
0000
0000
0000
2000
0000
0000
0000
0000
0000
0000
0000
0000
0000
0000
0000
0000
0000
0000
0000
0000
0000
0000
0000
0000
0000
0000
0000
3000
0000
0000
0000
0000
0000
0000
0000
0000
0000
0000
0000
0000
0000
0000
0000
0000
0000
0000
0000
0000
0000
0000
0000
0001
0000
0000
0000
0000
0000
0000
0000
0000
0000
0000
0000
0000
0000
0000
0000
0000
0000
0000
0000
0000
0000
0000
0000
000M
0000
0000
0000
0000
0000
0000
0000
0000
0000
0000
0000
0000
0000
0000
0000
0000
0000
0000
0000
0000
0000
0000
0010
0002
0000
0000
0000
0000
0000
0000
0000
0000
0000
0000
0000
0000
0000
0000
0000
0000
0000
0000
0000
0000
0000
0000
0000
,
0000
0000
0000
0000
0000
0000
0000
0000
0000
0000
0000
0000
0003
0000
0000
0000
0000
0000
0000
0000
0000
0000
0000
0000
0000
0000
0000
0000
0000
0000
0000
0000
0000
0000
0000
0000
0000
0000
0000
0000
0000
0000
0000
0000
0000
0000
0000
0000
0010
0000
0000
0000
0000
0000
0000
0000
0000
0000
0000
0000
0000
0000
0000
0000
0000
0000
0000
0000
0000
0000
0000
0001
0200
0000
0000
0000
0000
0000
0000
0000
0000
0000
0000
0000
0000
0000
0000
0000
0000
0000
0000
0000
0000
0000
0000
0000
0000
0000
0000
0000
0000
0000
0000
0000
0000
0000
0000
0000
0300
0000
0000
0000
0000
0000
0000
0000
0000
0000
0000
0000
0100
0000
0000
0000
0000
0000
0000
0000
0000
0000
0000
0000
0000
0000
0000
0000
0000
0000
0000
0000
0000
0000
0000
0000
0020
0000
0000
0000
0000
0000
0000
0000
0000
0000
0000
0000
0000
0000
0000
0000
0000
0000
0000
0000
0000
0000
0000
0000
1030
0000
0000
0000
0000
0000
0000
0000
0000
0000
0000
0000
0000
0000
0000
0000
0000
0000
0000
0000
0000
0000
0000
0000
,
0200
0000
0040
1330
0000
0010
00M0
0040
,
0000
0000
0000
0000
0030
0000
0000
0100
,
0000
0000
0000
0000
0014
0000
0000
00M0
0000
0000
0000
00M0
0000
0000
0000
0003
,
1010
0010
0100
0001
0010
0100
0010
0100
,
2000
0000
0000
0000
0000
0000
3000
0000
0010
0000
0200
0000
0301
0000
0010
0001
,
0020
0000
1131
0000
,
0000
0000
1000
0010
1000
0001
0010
0001
0010
0100
1000
0001
1000
0100
1000
0010
,
1000
0001
1000
0010
0100
0001
0100
0010
1000
0001
1000
0100
0010
0001
0100
0010
,
2000
0000
0000
0000
0000
0000
0020
3000
0000
0000
0230
0000
0000
0000
0002
0000
,
0300
0000
0103
0000
0110
0000
0100
0010
,
2000
0000
3000
0020
0000
0200
0030
0001
,
0301
0010
0001
0010
0100
0000
1000
0010
1000
0010
0100
0000
0001
0010
0001
0010
,
0001
0000
0000
0100
1010
0000
0000
1000
,
0000
0100
0110
0000
0011
0000
0001
0100
,
1040
0000
0030
1000
1100
0000
1001
0000
,
0000
0010
1001
0000
0011
0000
0000
0000
,
2000
0000
0000
0000
0200
3000
0000
0000
M01M
0300
0000
0000
0200
0000
0000
0000
M02M
0300
0000
0000
0M01
0030
0000
0000
020M
0000
0000
0000
0010
0000
0000
0000
,
M320
0000
0000
0000
0200
0030
0000
0000
M0M2
0300
0000
0000
2000
0003
0000
0000
30M1
0000
0000
0000
002M
0000
0000
0000
M001
0030
0000
0000
0002
0000
0000
0000
,
0003
0000
0010
0100
1000
0001
0010
0001
1000
0010
1000
0001
0100
0001
0010
0001
1000
0100
1000
0001
0100
0001
0000
0000
,
100M
0100
0010
0001
1000
0100
0010
0001
0010
0001
0100
0010
1000
0001
0100
0010
1000
0100
1000
0001
1000
0010
0100
0001
,
0200
0000
0000
0301
0001
0000
0001
0100
,
0010
0000
0000
0000
0000
0000
0000
0000
00M0
0000
0000
0000
0000
0000
0000
0010
0200
0000
0000
0000
0000
0000
0000
0000
00M0
0000
0000
0000
0000
0000
0000
0010
0302
0000
0000
0000
0000
0000
0000
0000
00M0
0000
0000
0000
0000
0000
0000
0000
0003
0000
0000
0000
0000
0000
0000
0000
0100
0000
0000
0000
0000
0000
0000
0000
,
0200
M00M
00M0
0000
0000
0000
0001
0300
0011
0000
0000
0000
0010
0000
0020
0000
,
0000
0000
0130
0000
0011
0000
0000
0000
1001
0000
0000
0000
0001
0000
0100
0010
,
0100
0000
0000
0000
0010
0000
0000
0000
1000
0000
0000
0000
0002
0000
0000
0000
0000
0000
0000
0000
0000
0000
0000
0000
0000
0000
0000
0000
1003
0010
1000
0020
,
0000
0000
0000
0000
0000
0000
0000
0000
0000
0000
0000
0000
0000
0000
0000
0000
0100
0000
0000
0000
0100
0030
0000
0000
0000
0000
0000
0000
0001
0000
0000
0000
,
0010
0100
0010
0100
1000
0000
0010
0100
0010
0100
0001
0000
0010
0100
1000
0100
,
0010
0000
0001
0010
0100
1000
0010
0000
0100
0001
0100
0001
0100
0001
0100
0001
,
0010
0000
0000
0000
0000
0000
0110
0000
0000
0000
0000
0000
0100
0000
0000
1000
0000
0000
0001
0000
0100
0010
1000
0010
,
0100
0000
0000
0000
0000
0000
0000
0000
0000
0000
0000
0000
0000
0000
0010
1000
0001
0010
0001
0010
0100
1000
0001
1000
,
0100
0000
0000
0010
0000
0000
0100
0000
0000
1000
0000
0000
0001
0000
0100
0000
0001
0000
1000
0000
0010
0000
1000
0000
0100
0000
1000
0000
0001
0000
0200
0000
0000
0000
0000
0000
0310
0000
0000
0000
0000
0000
0010
0000
0000
0000
0000
0000
,
1000
0000
0001
0000
0010
0001
0010
0010
,
0200
0000
0300
0000
00MM
0000
1000
0100
0010
0001
0010
0100
1000
0001
0010
0001
1000
0001
1000
0100
1000
0010
0100
0001
,
1000
0010
0100
0001
1000
0100
1000
0010
0100
0001
1000
0001
0100
0001
1000
0010
1000
0100
1000
0001
0010
0100
0010
0001
,
1000
0000
0000
0000
0000
0000
0000
0000
0000
0000
0000
0000
0000
0000
0000
0000
0010
0000
0100
0010
0400
0000
0301
0000
1000
0000
0001
1000
0001
0000
0040
0000
,
0130
0000
0000
0000
0000
0000
0000
0000
0000
0000
0000
0000
0010
0000
0000
0000
0000
0000
0001
0000
0000
0000
0000
0000
0010
0000
0000
0000
0000
0000
0100
0000
0000
0000
0000
0000
0000
0000
0000
0000
0000
0000
0000
0000
0000
0000
0000
0000
1000
0000
0000
0000
0000
0000
0000
0000
0000
0000
0000
0000
0001
0000
0000
0000
0000
0000
0000
0000
0000
0000
0000
0000
0004
0000
0000
0000
0000
0000
0000
0000
0000
0000
0000
0000
0000
0000
0000
0000
0000
0000
0003
0000
0000
0000
0000
0000
0100
0000
0000
0000
0000
0000
0010
0000
0000
0000
0000
0000
0100
0000
0000
0000
0000
0000
0000
0000
0000
0000
0000
0000
0001
0000
0000
0000
0000
0000
0000
0000
0000
0000
0000
0000
0000
0000
0000
0000
0100
0000
0000
0000
0000
0000
0000
0000
0010
0000
0000
0000
0000
0000
0000
0000
1000
0000
0000
0000
0000
0000
0000
0000
0010
0000
0000
0000
0000
0000
0000
0000
0100
0000
0000
0000
0000
0000
0000
0000
0010
0000
0000
0000
0000
0000
0000
0000
1000
0000
0000
0000
0000
0000
0000
0000
,
0100
0010
0001
0010
0100
1000
0001
0010
0100
0010
0001
1000
0010
1000
0001
0100
0001
1000
0100
1000
0001
0100
0001
1000
,
0020
0000
0000
0000
0000
0000
0000
0000
0000
0000
0000
0000
0000
0000
0000
0000
0000
0000
0000
0000
0000
0000
0000
0000
0000
0000
0000
0000
0000
0000
0000
0000
0000
0000
0000
0000
0000
0000
0000
0000
0000
0000
0000
0000
0000
0000
0000
0000
0000
0000
0000
0000
0000
0000
0000
0000
0000
0000
0000
0000
0000
0000
0000
0000
0000
0000
0000
0000
0000
0000
0000
0000
0000
0000
0000
0000
0000
0000
0000
0000
0000
0000
0000
0000
0000
0000
0000
0000
0000
0000
0000
0000
0000
0000
0000
0000
0030
0000
0000
0000
0000
0000
0000
0000
0000
0000
0000
0000
0000
0000
0000
0000
0000
0000
0000
0000
0000
0000
0000
0010
M40M
0000
0000
0000
0000
0000
0000
0000
0000
0000
0000
0000
0000
0000
0000
0000
0000
0000
0000
0000
0000
0000
0000
0000
0000
0000
0000
0000
0000
0000
0000
0000
0000
0000
0000
0000
0000
0000
0000
0000
0000
0000
0000
0000
0000
0000
0000
0000
0000
0000
0000
0000
0000
0000
0000
0000
0000
0000
0000
0000
0000
0000
0000
0000
0000
0000
0000
0000
0000
0000
0000
0000
,
0000
0000
0000
0000
0000
0000
0000
0000
0000
0000
0000
0000
0000
0000
0000
0000
0000
0000
0000
0000
0000
0000
0000
0000
0300
0000
0000
0000
0000
0000
0000
0000
0000
0000
0000
0000
0000
0000
0000
0000
0000
0000
0000
0000
0000
0000
0000
0000
0010
0000
0000
0000
0000
0000
0000
0000
0000
0000
0000
0000
1000
0000
0000
0000
0000
0000
0010
0000
0000
0000
0000
0000
1000
0000
0000
0000
0000
0000
0000
0000
0000
0000
0000
0000
0001
0000
0000
0000
0000
0000
0000
0000
0000
0000
0000
0000
0100
0000
0000
0000
0000
0000
0001
0000
0000
0000
0000
0000
0100
0000
0000
0000
0000
0000
0000
0000
0000
0000
0000
0000
0001
0000
0000
0000
0000
0000
0000
0000
0010
0000
0000
0000
0000
0000
0000
0000
0100
0000
0000
0000
0000
0000
0000
0000
1000
0000
0000
0000
0000
0000
0000
0000
0100
0000
0000
0000
0000
0000
0000
0000
0010
0000
0000
0000
0000
0000
0000
0000
0001
0000
0000
0000
0000
0000
0000
0000
1000
0000
0000
0000
0000
0000
0000
0000
0001
0000
0000
0000
0000
0000
0000
0000
,
0010
0100
1000
0001
0010
0001
1000
0010
1000
0001
0000
0000
0000
0000
0000
0020
0000
0000
0130
1000
0100
1000
0001
0010
,
0001
0000
1000
0000
0100
0000
1000
0000
0001
0000
0100
0000
0001
0000
0010
0000
0100
0000
1000
0000
0001
0000
1000
0000
0010
0000
0000
0100
0000
0000
0001
0000
0000
0100
0000
0000
0010
0000
0000
0100
0000
0000
0001
0000
0000
1000
0000
0000
,
0020
0000
0000
0000
0000
0000
0030
00M0
0000
0001
0000
0000
0010
0000
0000
0100
0000
0000
1000
0000
0000
0001
0000
0000
,
2000
0000
0000
0000
0000
0000
0000
0000
0000
3100
0010
0001
1000
0100
0010
0001
0010
0100
1000
0001
0010
0100
1000
0001
,
1000
0001
0100
0010
1000
0010
0100
0001
1000
0010
0100
0001
0100
0010
1000
0001
0100
0001
1000
0010
1000
0001
0010
0001
,
1000
0000
0000
0001
0100
0000
0000
0000
0010
0000
1000
0000
0010
0000
0100
0000
,
0001
0000
0101
0000
0002
0010
2003
0100
,
3020
0000
0000
0000
0000
0000
0000
0000
0100
0000
0000
0000
0031
0000
0000
0100
0000
0000
0010
0000
0000
1000
0000
0000
0200
0000
0000
0000
0000
0000
0000
0000
0000
0000
0000
0000
0000
0000
0000
0300
0000
0000
0000
0000
0000
0M00
0000
0000
,
0001
1000
0010
0100
0001
0010
0001
0100
0010
1000
0010
1000
0100
0010
0100
0010
,
0001
0100
0010
1000
0100
1000
0001
0010
0100
1000
0100
1000
0001
0010
0001
0010
,
010M
0000
1000
0000
0100
0000
0010
0000
0000
0001
0000
0000
0010
0000
0000
0001
0000
0000
1000
0000
0100
0000
0010
0000
0001
0000
0000
1000
0000
0000
0100
0000
0000
0010
0000
0000
0001
0000
0000
0100
0000
0000
0010
0000
0000
1000
0000
0000
,
0001
0100
0010
0100
0001
0010
0001
1000
0010
0100
0010
1000
0100
0010
0100
1000
,
0010
0100
0001
0010
0100
0010
0001
1000
0100
1000
0010
0100
0020
0000
MM0M
0030
,
0010
0100
0001
0010
0001
0100
0010
1000
0100
0010
0001
0100
0010
1000
0010
1000
,
0001
0100
0001
0100
0010
1000
0100
1000
0001
0010
0001
0010
0100
1000
0100
1000
,
0400
0320
003M
1010
,
0002
0000
0000
0000
0000
0000
1003
0010
1000
0001
0010
0001
1000
0100
1000
0001
0100
0001
1000
0010
1000
0001
0010
0001
,
1000
0100
1000
0001
0100
0001
1000
0010
1000
0001
1000
0100
1000
0001
0100
0001
1000
0001
0010
0001
1000
0010
0000
0000
,
0100
0010
1000
0100
1000
0010
0100
0001
0010
0100
0010
0100
1000
0001
1000
0001
,
0100
0010
0100
0001
0010
0100
1000
0010
0100
0001
0100
0001
1000
0010
1000
0010
,
0100
0000
0000
0000
0101
0000
0000
0000
0100
0000
0040
0100
0030
0000
M1MM
0000
,
0400
0001
0300
0000
M01M
0000
0400
0001
0300
0000
MM1M
0000
0000
0100
1000
0001
,
M2M0
0000
0000
0300
0400
0310
0400
0000
0000
0000
0000
0000
M00M
0000
03M0
0000
,
0100
1000
0010
0100
0001
0010
0001
0100
0010
1000
0100
0010
0001
0100
0010
1000
,
0100
1000
0010
0100
0001
0010
0001
0100
0010
1000
0100
1000
0001
0100
0010
1000
,
MMM1
0010
0100
1000
0010
0100
0010
1000
0100
0010
0100
0010
0001
1000
0001
1000
,
0010
0100
0001
0010
0001
0100
0010
0100
0001
1000
0001
1000
0100
0010
M1MM
0010
,
MMM1
0100
0010
1000
0100
1000
0001
1000
0010
0100
0010
0100
0001
0010
0001
0010
,
0100
0010
0001
0100
0010
1000
0100
1000
0001
0100
0001
0100
0010
1000
0010
1000
,
M1MM
0010
0001
0100
MM1M
1000
0001
0010
0100
1000
0100
1000
0010
0100
0010
0100
,
0001
1000
0100
0010
0001
0100
0010
0100
0001
0010
0001
0010
0001
0100
0001
0000
,
11M1
111M
M111
1M11
,
0001
0100
0001
0100
0001
0100
0010
1000
0010
1000
0001
0010
0001
0100
0001
1000
,
0200
0000
0000
0000
0000
0000
0000
0000
0000
0000
0000
0000
M0MM
0000
0000
0000
0000
0000
0300
0000
0000
1000
0100
1000
,
0100
0M00
0000
0000
0000
0000
0000
0000
;
