#TITLE:@;
#SUBTITLE:(Cinnamon Roll);
#ARTIST:OSTER Project feat. Hatsune Miku, Kagamine Rin & Megurine Luka;
#TITLETRANSLIT:Cinnamon Roll;
#SUBTITLETRANSLIT:;
#ARTISTTRANSLIT:;
#CREDIT:;
#BANNER:@-bn.png;
#BACKGROUND:@-bg.png;
#LYRICSPATH:;
#CDTITLE:!cdtitle.png;
#MUSIC:@ (Cinnamon Roll).OGG;
#OFFSET:0.000;
#SAMPLESTART:76.540;
#SAMPLELENGTH:12.000;
#SELECTABLE:YES;
#BPMS:0.000=180.000,52.000=720.003,55.000=180.000,140.000=720.001,143.000=179.998,144.000=180.000,260.000=360.003,263.000=179.980;
#STOPS:52.000=0.240
,53.000=0.260
,54.000=0.240
,140.000=0.260
,141.000=0.240
,142.000=0.260
,260.000=0.160
,261.000=0.160
,262.000=0.160
;
#BGCHANGES:;
// cache tags:
#FIRSTBEAT:0.000;
#LASTBEAT:348.250;
#SONGFILENAME:Songs/SSSC Pack 2/At Cinnamon Roll - [Buizel]/@ (Cinnamon Roll).sm;
#HASMUSIC:1;
#HASBANNER:1;
#MUSICLENGTH:116.933;
// end cache tags

//---------------dance-single - Blank----------------
#NOTES:
     dance-single:
     Blank:
     Challenge:
     12:
     1.000,1.000,0.376,0.359,0.650,737.000,44.000,42.000,32.000,0.000:


M000
MM00
MMM0
0000
,
0001
1000
0001
0010
0001
1000
0001
0010
,
0001
1000
0001
0010
0001
1000
0001
0010
,
0001
1000
0001
0010
0001
1000
0001
0010
,
0001
0000
1000
0000
0001
0000
0010
0000
0000
0000
0001
0100
0001
0000
1000
0000
,
0100
0010
0100
1000
0001
0100
0001
0010
,
0001
1000
0100
1000
0100
0010
0001
0100
,
0001
1000
0001
0100
0001
0010
0100
1000
,
0010
1000
0010
1000
0001
0010
0001
0010
0100
1000
0010
0000
0100
0000
0001
0000
,
2000
0000
3100
1000
0100
0010
0001
0200
,
0010
0000
0000
0300
0001
0000
1000
0000
0001
0000
0010
0000
0100
0000
1000
0000
,
0020
0000
0100
0000
1030
0100
0001
0100
,
2000
3000
0001
0200
0300
0020
0030
1000
,
1001
0000
0101
0000
1010
0000
1100
1000
,
0001
0010
0001
0100
0010
1000
0100
1000
0100
0010
0001
0000
1000
0010
1000
0010
,
0100
0000
0001
0000
1000
0100
0010
0000
0001
0000
0010
0000
0100
0000
1000
0000
,
0100
0010
0100
0010
0001
0000
1000
0000
0100
0000
0010
0000
0100
0010
0100
0010
,
0001
0000
0010
0100
1000
0000
0001
0000
1000
0000
0100
0000
1000
0000
0001
0000
,
0100
0001
0100
0001
0010
0000
0001
0000
1000
0000
0010
0000
2M00
0000
3001
0010
,
0001
0000
1000
0000
0001
0010
0100
0000
1000
0000
0100
0000
0010
0000
0001
0000
,
0100
0010
0100
0010
1000
0000
0100
0000
0010
0000
0100
0000
1000
0000
2010
0000
,
0000
0000
3001
0100
0001
0000
1000
0100
1000
0000
0010
0100
0010
0000
1000
0000
,
000M
0000
0000
0000
00MM
0000
0000
0000
0MMM
0000
0001
0000
0010
0100
1000
0010
,
1000
0100
0010
0001
0100
0000
0010
1000
0001
0010
0100
1000
0010
1000
0100
1000
,
0100
0000
0000
0000
1000
0000
0000
0000
0001
0000
0010
0000
0100
0000
1000
0000
0001
0000
0000
0000
0100
0000
0000
0000
0001
0000
0010
0000
0000
0000
0000
0001
,
0000
0000
1000
0100
0010
0001
0100
0010
0100
0001
0010
0001
1000
0100
1000
0100
,
0010
0001
1000
0010
1000
0010
020M
0000
0300
0000
00M2
0000
0003
0000
0010
0100
,
1000
0000
M010
0100
0010
1000
0100
0010
0001
0010
0001
1000
0010
1000
0100
0000
,
1000
0000
0000
0000
0000
0000
0100
0000
0000
1000
0000
0000
0000
0000
0000
0001
0000
0000
0010
0000
0000
0000
0000
0000
0001
0000
0010
0000
0001
0000
0010
0000
0001
0000
1000
0000
0001
0000
1000
0000
0001
0000
1000
0000
0010
0000
1000
0000
,
0010
1000
0010
0100
0010
0100
0010
1000
0100
0010
0001
0000
1000
0000
0000
0100
0000
0000
0010
0000
0000
0001
0000
0000
,
0010
0000
0100
1000
0001
0010
0100
1000
0010
0100
0001
0010
0001
1000
0010
0000
,
0201
0301
0100
0001
0100
0001
0100
0001
,
1002
1003
0001
1000
0001
1000
0001
1000
,
1002
0013
0001
0010
0001
0010
0001
0010
,
0201
0310
0100
0010
0100
0020
0130
0001
,
1010
0000
0000
0000
0110
0000
0000
0000
0101
0000
0000
0000
0001
0010
0100
1000
,
0100
0010
0001
1000
0001
1000
0010
1000
0001
0010
0001
0100
0010
1000
0100
1000
,
0010
0000
0010
0010
1010
0100
0010
0100
,
0210
0000
0000
0300
1001
0001
0010
0100
,
1200
0000
0000
0300
0000
0000
1000
0000
1100
0000
0000
0000
0100
0000
0010
0000
,
0011
0000
0100
0100
0110
0000
0000
1000
,
1010
0000
1000
0100
1100
1000
0000
0000
,
0110
1000
0101
0001
,
0011
0000
1000
0010
1010
1000
0000
0001
,
0011
0000
0000
0000
0000
0000
0000
0000
0101
0000
0010
1000
0001
0010
0001
0010
,
0001
0001
0001
0001
0001
1000
0010
0200
,
0001
0000
0300
0001
1000
0100
0010
0011
,
0110
0000
1000
1000
0010
1000
0001
0010
,
0110
0000
0000
0000
0000
0000
0000
0000
0000
0000
0000
0000
0000
0000
0000
0000
0000
0000
0000
0000
0000
0000
0000
0000
0000
0000
0000
0000
1000
0000
0000
0000
0000
0000
0000
0000
0000
0000
0000
0000
0000
0000
0000
0000
0000
0000
0000
0000
1100
0000
0000
0000
0000
0000
0000
0000
0000
0000
0000
0000
0000
0000
0000
0000
0000
0000
0000
0000
0000
0000
0000
0000
0000
0000
0000
0000
0000
0000
0010
0000
0000
0000
0000
0000
0000
0000
0000
0000
0000
0000
0000
0000
0000
0000
0000
0000
0110
0000
0000
0000
0000
0000
0000
0000
0000
0000
0000
0000
0000
0000
0000
0000
0000
0000
0000
0000
0000
0000
0000
0000
1000
0000
0000
0000
0000
0000
0000
0000
0000
0000
0000
0000
0000
0000
0000
0000
0000
0000
0000
0000
0000
0000
0000
0000
1001
0000
0000
0000
0000
0000
0000
0000
0000
0000
0000
0000
0000
0000
0000
0000
0000
0000
0000
0000
0000
0000
0000
0000
0001
0000
0000
0000
0000
0000
0000
0000
0000
0000
0000
0000
1000
0000
0000
0000
0000
0000
0000
0000
0000
0000
0000
0000
,
0010
0000
0000
0000
0010
1000
0100
0020
,
0100
0000
0000
0000
0000
0000
0030
0000
0100
0000
0010
0001
1000
0000
0010
1000
,
0001
0010
0100
1000
0010
0100
0001
1000
0001
1000
0100
0010
0001
1000
0001
0100
,
00M1
1000
0010
0100
M0M1
0100
0020
0030
M2MM
0300
0002
0003
2000
3000
0200
0300
,
0010
0001
0100
0001
0010
0001
0100
0001
,
1000
0010
1000
0100
1000
0010
1000
0100
,
1000
0010
1000
0001
1000
0010
1000
0001
,
1000
0000
0010
0000
1000
0000
0001
0000
0000
0000
0100
0010
0100
0000
0001
0000
,
0010
0100
0010
0001
1000
0010
1000
0100
,
1000
0001
0010
0001
0010
0100
1000
0010
,
1000
0001
1000
0010
1000
0100
0010
0001
,
0100
0001
0100
0001
1000
0100
1000
0100
0010
0001
0100
0000
0010
0000
1000
0000
,
0002
0000
0013
0001
0010
0100
1000
0020
,
0100
0000
0000
0030
1000
0000
0001
0000
1000
0000
0100
0000
0010
0000
0001
0000
,
0200
0000
0010
0000
0301
0010
1000
0010
,
0002
0003
1000
0020
0030
0200
0300
0001
,
1001
0000
1010
0000
0101
0000
0011
0001
,
1000
0100
1000
0010
0100
0001
0010
0001
0010
0100
1000
0000
0001
0100
0001
0100
,
0010
0000
1000
0000
0001
0010
0100
0000
1000
0000
0100
0000
0010
0000
0001
0000
,
0010
0001
0010
0001
0100
0000
0001
0000
0010
0000
0100
0000
0010
0100
0010
0100
,
1000
0000
0100
0010
0001
0000
1000
0000
0001
0000
0010
0000
0001
0000
1000
0000
,
0010
1000
0010
1000
0100
0000
1000
0000
0001
0000
0100
0000
00M2
0000
1003
0100
,
1000
0000
0001
0000
1000
0100
0010
0000
0001
0000
0010
0000
0100
0000
1000
0000
,
0010
0100
0010
0100
0001
0000
0010
0000
0100
0000
0010
0000
0001
0000
0102
0000
,
0000
0000
1003
0010
1000
0000
0001
0010
0001
0000
0100
0010
0100
0000
0001
0000
,
0M00
0000
0M00
0000
0M0M
0000
1MMM
0100
,
0010
0001
0010
0000
0011
0000
1000
0000
0001
0000
0010
0000
0100
0000
1000
0000
,
0010
0100
0010
0100
0001
0000
1000
0000
0001
0000
0010
0000
0100
1000
0001
0010
,
0001
0000
0100
0010
1000
0000
0001
0000
0010
0000
0100
0000
1000
0000
0010
0000
,
0100
0001
0100
0001
1000
0000
0100
0000
0010
0000
0001
0000
20M0
0000
0000
3000
,
0010
0000
0100
0000
0010
1000
0100
0000
1000
0000
0100
0000
0010
0000
0001
0000
,
1000
0001
1000
0001
0100
0000
0010
0000
1000
0000
0001
0000
0100
0000
0102
0000
,
0000
0003
1000
0000
0010
0000
1000
0000
0001
0000
0100
0000
0010
0000
1000
0000
,
0001
0010
0100
1000
0001
0000
0100
0000
0001
0000
0010
0000
0100
0000
1000
0000
,
0020
0030
2000
3000
0002
0003
0020
0030
0000
0000
0012
0003
0120
0030
1200
0300
,
1002
0000
0000
0000
,
0000
0000
0000
0000
,
0000
0000
0000
0000
0000
0000
0000
0000
0000
0000
0000
0000
0000
0000
0000
0003
,
0000
000M
0000
0000
0000
0000
0000
0000
0000
0000
0000
0000
0000
0000
0000
0000
;
