#TITLE:the WORLD;
#SUBTITLE:- Death Note 1st Opening;
#ARTIST:Nightmare;
#TITLETRANSLIT:;
#SUBTITLETRANSLIT:;
#ARTISTTRANSLIT:;
#CREDIT:Asahina-san;
#BANNER:videobanner.avi;
#BACKGROUND:the WORLD.png;
#LYRICSPATH:The WORLD.lrc;
#CDTITLE:Asahina-San.png;
#MUSIC:The WORLD.mp3;
#OFFSET:1.150;
#SAMPLESTART:2.600;
#SAMPLELENGTH:20.000;
#SELECTABLE:YES;
#BPMS:0.000=94.960;
#STOPS:;
#BGCHANGES:1.500=nosound.avi=1.000=1=0=0,
127.000=the WORLD.png=1.000=1=0=0,
99999=-nosongbg-=1.000=0=0=0 // don't automatically add -songbackground-
;
// cache tags:
#FIRSTBEAT:4.500;
#LASTBEAT:126.750;
#SONGFILENAME:Songs/Fog's StupidStream Pack/[Fogfactor] The WORLD/The WORLD.sm;
#HASMUSIC:1;
#HASBANNER:1;
#MUSICLENGTH:81.162;
// end cache tags

//---------------dance-single - Copied from Copied f----------------
#NOTES:
     dance-single:
     Copied from Copied f:
     Challenge:
     10:
     1.000,1.000,0.419,0.049,1.000,712.000,34.000,4.000,3.000,32.000:
0000
0000
0000
0000
,
0000
0000
0000
0000
0000
0000
1111
0000
0000
0010
0000
0000
0100
0000
0000
0001
0000
0000
0100
0000
0000
0000
0000
0000
0000
0000
0000
0000
0000
0000
1000
0000
0010
0000
0001
0000
0010
0000
0100
0000
1000
0000
0100
0000
0010
0000
1000
0000
,
0100
0001
0010
1111
1000
0010
0100
0010
0001
0100
0010
0001
0010
1000
0001
1111
0100
0001
0100
0001
0100
1000
0010
0100
,
0001
0010
0001
1111
0001
1000
0010
0100
0010
1000
0100
0010
1000
0100
1000
1111
0010
0100
1000
0010
0001
0010
0001
1000
,
0010
0100
0001
0100
1111
0001
0010
0100
0010
1000
0010
0100
0001
0010
0001
0100
1111
1000
0001
0100
0010
0100
0001
0010
,
1000
0100
0010
0001
1111
0001
0010
1000
0010
1000
0001
0010
1000
0100
0001
0010
1111
0010
1000
0100
1000
0010
0001
0100
,
1000
0100
1000
0010
0100
0001
0100
0010
0001
0010
0001
1000
0010
0100
1000
0010
1111
0001
0010
0100
1000
0100
0010
1000
,
0100
0000
0001
0000
1000
0000
0001
0000
1000
0000
0010
0000
1000
0000
0000
0010
0000
0000
0001
0000
0000
0100
0000
0000
0010
0000
0000
1000
0000
0000
0100
0000
0000
1111
0000
0000
0100
0000
0000
1000
0000
0000
0100
0000
0000
0001
0000
0000
,
0010
1000
0001
0100
0001
0100
1000
0010
0100
0001
0010
1111
1000
0100
0010
0100
,
1000
0010
1000
0100
0010
0100
0010
0100
1000
0010
1000
0001
0100
0000
0010
0100
,
0000
0000
0000
2002
0000
0000
0000
0000
0000
0000
0000
0000
3003
0000
0000
0000
0000
0000
0000
0000
0000
1111
0000
0000
0001
0000
0000
0000
0000
0000
0100
0000
0000
1000
0000
0000
0010
0000
0001
0000
0010
0000
1000
0000
0010
0000
1000
0000
,
0100
0001
0010
0001
0100
1000
0100
1000
0010
0001
0100
0010
1000
0010
0100
0001
0100
1000
0100
0010
0100
0001
1000
0100
,
0001
0010
0100
0010
0100
1000
0010
0100
0010
0001
0010
1000
0100
0001
0010
0001
0100
0010
1000
0010
0100
0010
1000
0100
,
1000
0001
1000
0001
0100
0010
0001
0100
0010
0001
0010
0001
0100
0010
1000
0001
0010
1000
0001
0010
1000
0010
0100
0010
,
0100
0010
0100
0010
0100
1000
0100
0010
0001
0100
1000
0001
1000
0001
1000
0100
0001
1000
0001
0010
0100
0001
0010
0001
,
0100
0010
0001
0100
0001
0010
0001
0010
1000
0010
0100
0001
1000
0100
0001
0100
0001
1000
0100
1000
0100
0001
0100
1000
,
0100
0000
0000
0000
0000
0000
0000
0000
0010
0000
0000
0000
0000
0000
0000
0000
0100
0000
0000
0000
0000
0000
0000
0000
0010
0000
0000
0000
0000
0000
0000
0000
0001
0000
0000
0000
0000
0000
0000
0000
0010
0000
0000
0000
0000
0000
0000
0000
0001
0000
0000
0000
0000
0000
0000
0000
0100
0000
0000
0000
0000
0000
0000
0000
0010
0000
0000
0000
0000
0000
0000
0000
1000
0000
0000
0000
0000
0000
0000
0000
0010
0000
0000
0000
0000
0000
0000
0000
0000
0000
1111
0000
0000
0000
0000
0000
0000
0000
0000
0000
0000
0000
0000
0000
0000
0000
0000
0000
0000
0000
0000
0000
0000
0000
0000
0000
0000
0000
0000
0000
0000
0000
0000
0000
0000
0000
0000
0000
0000
0000
0000
0000
1111
0000
0000
0000
0010
0000
0000
0000
0000
0000
0000
0000
0001
0000
0000
0000
0000
0000
0000
0000
1000
0000
0000
0000
0000
0000
0000
0000
0100
0000
0000
0000
0000
0000
0000
0000
0010
0000
0000
0000
0000
0000
0000
0000
0100
0000
0000
0000
0000
0000
0000
0000
1000
0000
0000
0000
0000
0000
0000
0000
,
0100
1000
0100
0001
0100
0010
0001
0100
0010
0001
0010
0100
0001
0010
0100
0010
1111
0001
1000
0100
1000
0010
0100
1000
,
0100
0010
0001
0010
0100
0010
1000
0100
0001
1000
0001
0010
0100
1000
0010
1111
0010
0100
0001
0010
0100
0001
0010
0001
,
0100
1000
0010
0001
0010
0001
0100
0010
1000
0100
0001
0010
0100
0010
0100
1111
0001
0010
0100
0001
0010
0100
0010
0100
,
0001
0010
0100
1000
0001
1000
0001
0100
0010
1000
0100
0010
0000
0000
0000
0010
0000
0000
0100
0010
0100
1000
0010
0000
,
1MMM
0100
1000
0100
1000
0100
1111
0100
0001
1000
0010
1000
0001
0100
1000
0100
0001
0010
0001
0100
1111
1000
0010
0001
0100
0010
0100
0010
1000
0010
0100
1000
,
0100
0010
0100
0001
1111
0100
1000
0100
0010
1000
0100
0001
0010
0001
0100
1000
0100
0001
0010
0100
0010
1111
0100
0010
0100
0001
0010
0001
1000
0010
1000
0100
,
0010
0100
0001
0010
1111
0010
1000
0010
0100
0010
0001
0010
0100
0010
0100
0001
0100
1000
0100
1000
1111
1000
0100
0010
0100
0010
1000
0001
0100
0001
1000
0010
,
0100
1000
0001
0100
1111
0001
0010
0100
1000
0100
1000
0001
0100
1000
0001
0010
1000
0100
0010
0001
0100
1111
0100
0010
1000
0001
0010
0100
0001
0100
0010
1000
,
0100
1000
0001
1111
1000
0001
0100
0001
0010
0100
0001
0010
0001
0100
0010
1111
0010
1000
0100
1000
0001
0010
0001
1000
,
0100
1000
0001
1111
1000
0100
0010
0100
0010
0100
0001
0100
0010
0100
0010
1111
0001
0010
0001
1000
0001
0010
1000
0001
,
0100
0001
0100
1111
0010
0100
0010
1000
0001
0100
1000
0100
0010
0100
0010
1111
0010
0001
0010
0001
0100
0010
0001
0100
,
0010
0000
0000
0000
0000
0000
0000
0000
0001
0000
0000
0000
0000
0000
0000
0000
0010
0000
0000
0000
0000
0000
0000
0000
0100
0000
0000
0000
0000
0000
0000
0000
0010
0000
0000
0000
0000
0000
0000
0000
1000
0000
0000
0000
0000
0000
0000
0000
0001
0000
0000
0000
0000
0000
0000
0000
0010
0000
0000
0000
0000
0000
0000
0000
1000
0000
0000
0000
0000
0000
0000
0000
0010
0000
0000
0000
0000
0000
0100
0000
0000
0000
0000
0000
1000
0000
0000
0000
0000
0000
0100
0000
0000
0000
0000
0000
0010
0000
0000
0000
0000
0000
1000
0000
0000
0000
0000
0000
0010
0000
0000
0000
0000
0000
0100
0000
0000
0000
0000
0000
0010
0000
0000
0000
0000
0000
0100
0000
0000
0000
0000
0000
1000
0000
0000
0000
0000
0000
0100
0000
0000
0000
0000
0000
1000
0000
0000
0000
0000
0000
0100
0000
0000
0000
0000
0000
0010
0000
0000
0000
0000
0000
0100
0000
0000
0000
0000
0000
0001
0000
0000
0000
0000
0000
0010
0000
0000
0000
0000
0000
0100
0000
0000
0000
0000
0000
0001
0000
0000
0000
0000
0000
,
0100
0010
0001
0010
1000
0100
0010
0001
0010
1000
0100
0010
0100
0010
1000
0010
0100
1000
0001
0100
0010
0100
0010
0001
0010
0001
0010
1000
0100
1000
0001
0010
,
1000
0010
0100
0001
0100
0001
1000
0100
0010
1000
0100
1000
0010
1000
0010
1000
0100
1000
0001
0100
0010
0001
0000
0000
0100
0000
1000
0000
0000
0100
0000
0010
,
0000
0000
0000
0202
0000
0000
0000
0000
0000
0000
0000
0000
0000
0000
0000
0000
0000
0000
0000
0000
0000
0000
0303
0000
0000
0000
0000
0000
0000
0000
0000
0000
;
