#TITLE:I'm Alive 2012;
#SUBTITLE:;
#ARTIST:Furries in a Blender;
#TITLETRANSLIT:;
#SUBTITLETRANSLIT:;
#ARTISTTRANSLIT:;
#CREDIT:Owem;
#BANNER:../banner.png;
#BACKGROUND:../bg.png;
#LYRICSPATH:;
#CDTITLE:../cdtitleowem.png;
#MUSIC:Furries in a Blender - I'm Alive 2012.ogg;
#OFFSET:-0.053;
#SAMPLESTART:124.313;
#SAMPLELENGTH:29.999;
#SELECTABLE:YES;
#BPMS:0.000=185.411;
#STOPS:;
#BGCHANGES:;
// cache tags:
#FIRSTBEAT:0.000;
#LASTBEAT:705.000;
#SONGFILENAME:Songs/Owem's Simfiles 08 1.1/I'm Alive 2012 - [Owem] 1.0.0/I'm Alive 2012.sm;
#HASMUSIC:1;
#HASBANNER:1;
#MUSICLENGTH:237.296;
// end cache tags

//---------------dance-single - 24/16-16-16/16-8----------------
#NOTES:
     dance-single:
     24/16-16-16/16-8:
     Challenge:
     16:
     1.000,1.000,0.236,0.653,1.000,2005.000,56.000,155.000,221.000,0.000:
1000
0100
0010
0000
0011
0001
0000
0100
,
0000
0010
1000
0000
1001
0001
0000
0010
,
0000
0100
1000
0000
1010
0010
0000
0100
,
0000
0001
1000
0000
1100
0100
0000
0010
,
0000
0001
1000
0000
1010
0010
0000
0100
,
0000
0001
1000
0000
1001
0001
0000
0100
,
0000
0010
1000
0000
1100
0100
0000
0010
,
0001
1000
0010
0000
0100
0001
1000
0000
0100
0010
0001
0000
1000
0000
0010
0000
,
M22M
M330
00M0
0202
03M3
20M2
3003
0M00
,
2020
0000
303M
0000
M000
0000
0220
0000
M330
0000
02M2
0000
0303
0202
00M0
0303
,
0202
M303
000M
2020
3M30
000M
0220
M330
,
0202
0000
03M3
0000
0M00
0000
2002
0000
30M3
0000
22M0
0000
3300
2200
000M
3300
,
2200
33M0
0M00
2020
303M
M220
0330
M000
,
0202
0000
03M3
0000
M000
0000
0220
0000
033M
0000
202M
0000
3030
2020
0M00
3030
,
2020
303M
0M00
2002
3M03
00M0
0202
M303
,
0100
0010
1000
0000
0001
1000
0010
0000
0100
0001
1000
0000
0100
0000
0010
0000
,
MM12
0000
0000
0003
0000
0000
0000
0000
2000
0000
0000
0000
3020
0000
0230
0000
,
0000
0300
0000
0000
0002
0000
2003
3200
,
0000
0000
0300
0000
0M00
0000
0000
0000
00M0
00M0
00M0
0000
000M
0000
0M00
0M00
,
0M00
0M00
0M00
0000
0000
0000
0000
0M00
0020
0000
0000
0000
2030
0000
0000
0000
,
3002
0000
2003
0000
3200
0000
0320
0032
,
0000
0003
000M
0000
0200
0000
0320
2030
,
0000
0000
3000
0000
M000
0000
0000
0000
0M00
0M00
0M00
0000
00M0
0000
000M
000M
,
000M
000M
000M
0000
0000
0000
0000
000M
0200
0000
0000
0000
0320
0000
0000
0000
,
1M3M
0000
0010
0000
0200
0300
0001
1000
0001
0000
0010
0000
0100
0000
1000
0000
,
0010
0000
1000
0000
0002
0003
0100
0010
1000
0000
0001
0000
0100
0000
0010
0000
,
0100
0000
0001
0000
2000
3000
0100
0010
0001
0000
1000
0000
0010
0000
1000
0000
,
0001
0000
0010
0000
0200
0300
1000
0010
1000
0000
0001
0000
0100
0000
0001
0000
,
0010
0000
0100
0000
2000
3000
0010
0100
0010
0000
1000
0000
0001
0000
1000
0000
,
0100
0000
0010
0000
0004
0003
0100
0010
1000
0000
0010
0000
0100
0000
0010
0000
,
1000
0000
0001
0000
0040
0030
0100
1000
0001
0000
1000
0000
0010
0000
1000
0000
,
1MM1
0000
0000
M1M1
0000
0000
M11M
0000
0000
1M1M
0000
0000
1MM1
0000
MMMM
0000
,
100M
0010
0100
0001
0100
0010
1000
0100
1000
0001
0010
0100
1000
0001
0100
0001
,
0100
0010
1000
0001
1000
0100
0010
0100
1000
0001
0010
0001
1000
0010
1000
0001
,
0100
0010
1000
0001
0100
0010
0100
0001
1000
0100
0010
0100
1000
0001
1000
0100
,
0010
0001
1000
0010
1000
0001
0100
0010
1000
0001
0100
0010
0100
0001
1000
0100
,
1000
0001
0100
0001
0010
0100
1000
0100
0010
0001
1000
0100
1000
0010
0100
0001
,
1000
0001
0100
0010
1000
0010
0100
0001
0100
0010
1000
0001
1000
0100
0010
0001
,
1000
0100
1000
0010
0100
0001
1000
0100
1000
0001
0010
0001
0100
0010
1000
0001
,
0100
0010
1000
0001
0100
0001
1000
0100
1000
0010
0100
0001
1000
0100
1000
0001
,
0010
0100
1000
0001
0010
0001
1000
0100
1000
0010
1000
0001
0100
0010
1000
0001
,
0100
0010
0100
0001
1000
0100
1000
0001
0010
0001
0100
0010
1000
0100
1000
0001
,
0010
0001
1000
0100
0010
0100
1000
0001
0010
0001
1000
0100
1000
0010
0100
0001
,
1000
0100
1000
0001
0100
0010
0100
0001
1000
0010
1000
0100
0010
0001
1000
0100
,
1000
0001
0100
0010
1000
0001
0010
0001
1000
0010
1000
0100
0010
0001
0100
0001
,
1000
0100
1000
0010
0100
0001
0100
0010
1000
0001
1000
0100
0010
0100
1000
0001
,
0100
0001
1000
0100
1000
0010
0100
0001
1000
0100
1000
0010
0100
0001
0100
0010
,
1000
0001
1000
0100
0010
0001
1000
0100
1000
0001
0010
0001
0100
0010
1000
0001
,
0100
0010
0100
0001
1000
0010
1000
0100
0010
0001
1000
0100
1000
0001
0010
0001
,
0100
0010
1000
0001
0100
0001
0010
0100
1000
0001
0010
0001
0100
0010
0100
0001
,
1000
0010
1000
0001
1000
0100
0010
0001
0100
0010
1000
0001
1000
0100
0010
0001
,
1000
0100
1000
0001
0010
0001
0100
0010
1000
0001
0100
0001
1000
0100
1000
0010
,
0100
0001
0010
0001
1000
0100
1000
0001
0010
0001
0100
0010
1000
0001
0100
0001
,
1000
0100
0010
0001
1000
0100
1000
0010
0100
0001
1000
0100
1000
0010
0100
0001
,
0100
0010
1000
0001
0100
0001
0010
0100
1000
0001
0010
0001
0100
0010
1000
0001
,
0100
0001
1000
0100
1000
0010
0100
0001
1000
0100
1000
0001
0100
0010
1000
0001
,
20M0
3100
0010
0000
0002
0103
0020
0230
,
0000
0301
1000
0000
0200
0310
0002
2003
,
0000
0000
3010
0000
0100
0000
0000
0000
M001
M000
M100
0000
0M00
0000
001M
000M
,
000M
000M
100M
0000
0001
0000
0000
M000
0020
0000
0130
0000
2000
0000
3001
0000
,
0200
0310
0200
0300
0002
0013
0200
2300
,
0000
3010
0100
0000
0002
0103
0020
2030
,
0000
0000
3001
0000
0101
0000
0000
0000
M110
M000
M100
0000
000M
0000
0M10
0M00
,
1M1M
0000
0000
M1M1
0000
0000
1MM1
0000
0000
1M1M
0000
0000
M11M
0000
MMMM
0000
,
001M
1000
0010
0100
0001
1000
0100
1000
0010
0100
0001
1000
0100
1000
0001
1000
,
0010
0100
0001
0100
0010
1000
0001
1000
0100
0010
0100
1000
0001
0100
0001
1000
,
0010
1000
0001
0100
0010
1000
0001
0100
0001
1000
0100
1000
0010
0100
0001
1000
,
0100
1000
0010
0100
0001
1000
0100
0010
0100
1000
0001
0100
0001
0010
0100
1000
,
0001
0100
0001
1000
0100
1000
0010
0100
0001
1000
0100
1000
0010
1000
0001
0100
,
0010
1000
0001
0100
0010
0100
0001
1000
0010
1000
0100
0010
0001
1000
0100
1000
,
0001
0100
0001
1000
0100
0010
0100
1000
0001
0010
0001
1000
0001
0100
0010
1000
,
0001
0100
0010
0100
0001
1000
0010
1000
0100
0010
0001
1000
0010
1000
0001
0100
,
0001
1000
0001
0010
0100
1000
0001
0010
0001
1000
0100
1000
0010
1000
0001
0100
,
0010
1000
0001
0010
0100
1000
0100
0010
0001
1000
0100
1000
0001
1000
0010
0100
,
0010
1000
0001
0100
0001
1000
0010
0100
0001
1000
0100
1000
0010
0100
0001
1000
,
0100
1000
0001
0010
0001
1000
0100
0010
0001
1000
0100
1000
0010
1000
0001
0100
,
0010
1000
0001
0100
0001
0010
0100
1000
0001
0100
0001
1000
0100
1000
0010
0100
,
0001
1000
0001
1000
0010
0100
0001
0100
0010
1000
0100
1000
0001
0100
0001
1000
,
0100
0010
0001
0100
0010
1000
0001
0100
0001
0010
0100
1000
0001
0100
0001
0010
,
0100
1000
0001
1000
0010
1000
0001
0100
0010
0100
0001
1000
0010
0000
MMMM
0000
,
1000
0100
1000
0001
0100
0010
1000
0001
0100
0001
1000
0100
1000
0010
0100
0001
,
1000
0100
1000
0001
0010
0001
1000
0100
0010
0100
1000
0001
1000
0010
0100
0001
,
0100
0010
1000
0100
1000
0001
0100
0001
1000
0100
0010
0100
1000
0001
0010
0001
,
1000
0001
0100
0010
1000
0001
0100
0010
0100
0001
1000
0100
1000
0010
1000
0001
,
0100
0010
0100
0001
1000
0100
0010
0001
1000
0001
0010
0100
1000
0001
0100
0001
,
0010
0100
1000
0010
0100
0001
1000
0010
1000
0100
0010
0001
1000
0100
1000
0001
,
0100
0001
0010
0100
1000
0001
0010
0001
0100
0010
1000
0001
0100
0010
0100
0001
,
1000
0010
1000
0100
0010
0001
1000
0100
1000
0001
0010
0001
0100
0010
1000
0001
,
0100
0010
0100
0001
1000
0100
0010
0001
1000
0100
1000
0001
0100
0010
1000
0001
,
0100
0010
0100
0001
1000
0100
1000
0001
1000
0100
0010
0100
1000
0001
0010
0001
,
1000
0010
0100
0001
1000
0001
0010
0100
1000
0001
0010
0001
1000
0001
0100
0010
,
0100
0001
1000
0100
1000
0100
0010
0001
1000
0100
1000
0001
1000
0010
0100
0001
,
1000
0001
0100
0010
1000
0001
1000
0001
0010
0100
1000
0001
0010
0001
0100
0010
,
1000
0001
0100
0010
1000
0100
1000
0001
0100
0001
1000
0100
0010
0001
1000
0100
,
1000
0001
0100
0010
1000
0001
0010
0001
0100
0010
1000
0001
0100
0010
0100
0001
,
1000
0100
1000
0001
1000
0010
0100
0001
1000
0010
0100
0010
1000
0000
0MM0
0000
,
0001
1000
0100
1000
0010
0100
0001
1000
0100
1000
0010
0100
0001
1000
0010
1000
,
0100
0010
0001
1000
0001
0100
0010
1000
0001
0100
0001
1000
0100
1000
0010
0100
,
0001
1000
0100
1000
0001
0010
0001
1000
0100
0010
0100
1000
0001
0010
0001
0100
,
0010
1000
0001
0100
0001
1000
0100
1000
0010
0100
0001
1000
0100
1000
0001
0010
,
0001
0100
0010
1000
0001
0100
0001
1000
0010
1000
0100
0010
0001
1000
0100
1000
,
0010
0100
0001
0100
0010
1000
0100
1000
0001
0010
0001
1000
0010
1000
0100
0010
,
0001
1000
0100
1000
0001
1000
0010
0100
0001
1000
0100
1000
0010
1000
0001
0100
,
0010
0100
0001
1000
0100
1000
0010
0100
0001
1000
0100
1000
0001
0010
0001
1000
,
0100
0010
0100
1000
0001
0010
0001
1000
0010
0100
0001
1000
0010
1000
0100
0010
,
0001
1000
0100
1000
0001
1000
0010
0100
0001
1000
0001
0010
0100
1000
0001
0010
,
0001
0100
0010
1000
0001
0100
0001
1000
0010
0100
0001
1000
0100
1000
0001
0010
,
0100
1000
0001
0010
0001
1000
0100
0010
0100
1000
0001
1000
0010
0100
0001
1000
,
0100
1000
0001
0100
0010
1000
0001
0100
0010
0100
0001
1000
0100
1000
0001
1000
,
0100
0010
0100
1000
0001
0010
0001
1000
0001
0100
0010
1000
0001
0100
0001
1000
,
0001
0010
0100
1000
0001
0010
0001
1000
0100
0010
0001
1000
0010
0100
0001
1000
,
0100
1000
0010
0100
0001
1000
0100
0010
0100
1000
0001
1000
0010
0000
MMMM
0000
,
M2MM
0000
M300
0000
0020
0000
2030
3200
,
0000
0300
0M00
0000
0020
0000
0032
2003
,
0000
0000
3010
0100
0010
0000
0000
0100
00M1
00M0
10M0
0000
0M00
0000
001M
000M
,
000M
000M
100M
0000
0100
0000
0010
0001
0020
0000
0000
0000
0032
0000
0000
0000
,
2003
0000
3020
0000
0230
0000
0320
2030
,
0000
3000
000M
0000
0020
0000
0230
0302
,
0000
0000
1003
0010
0100
0000
0000
0001
M100
M000
M010
0000
000M
0000
01M0
00M0
,
00M0
00M0
00M1
0000
1000
0000
0010
0100
0002
0000
1003
0000
0002
0000
1003
0000
,
1M2M
0000
0M30
0000
0200
0000
0302
2003
,
0000
0000
3000
0M00
0000
0000
0000
0000
0020
0000
0000
0000
2030
0000
3002
0000
,
0000
0000
1003
0010
1000
0000
0000
0000
001M
000M
010M
0000
M000
0000
01M0
00M0
,
00M0
00M0
00M1
0000
1000
0000
0000
0000
0200
0000
0000
0000
0320
0000
0000
0000
,
0031
0000
1000
0000
0020
0000
0130
0001
0200
0000
0310
0000
2000
0000
3002
0000
,
1003
0000
0100
0000
0010
0000
0001
0100
0002
0000
1003
0000
0020
0000
0230
0000
,
0310
0000
1000
0000
0001
0000
0010
0100
1000
0000
0001
0000
1000
0000
0010
0000
,
1M1M
0000
0000
M1M1
0000
0000
1MM1
0000
0000
11MM
0000
0000
M11M
0000
MMMM
0000
,
0010
0001
1000
0001
0100
0010
1000
0001
0100
0001
1000
0100
0010
0100
1000
0001
,
0010
0001
1000
0100
1000
0010
0100
0001
1000
0100
1000
0001
0100
0010
0100
0001
,
1000
0010
1000
0100
0010
0001
1000
0100
1000
0001
0100
0001
1000
0100
0010
0001
,
1000
0010
1000
0001
0010
0001
0100
0010
1000
0100
1000
0001
1000
0010
0100
0001
,
1000
0100
1000
0001
0010
0100
1000
0100
0010
0001
1000
0100
1000
0001
1000
0010
,
0100
0001
1000
0100
0010
0100
1000
0001
0010
0001
1000
0001
0100
0010
1000
0001
,
0100
0010
0100
0001
1000
0010
1000
0100
0010
0001
1000
0100
1000
0001
0100
0010
,
1000
0001
0100
0001
0010
0100
1000
0001
0010
0001
1000
0100
1000
0001
0100
0010
,
1000
0001
0100
0010
0100
0001
1000
0100
1000
0001
0010
0001
0100
0010
1000
0001
,
0100
0001
0010
0100
1000
0100
0010
0001
1000
0100
1000
0001
0100
0010
0100
0001
,
1000
0010
1000
0100
0010
0001
1000
0100
1000
0001
0010
0001
0100
0010
1000
0001
,
0100
0001
0010
0100
1000
0100
0010
0001
1000
0001
0100
0010
1000
0001
0100
0010
,
0100
0001
1000
0100
0010
0001
1000
0100
1000
0001
0100
0010
0100
0001
1000
0100
,
0010
0001
1000
0100
1000
0010
0100
0001
1000
0010
1000
0100
0010
0001
1000
0100
,
1000
0001
0010
0001
0100
0010
1000
0001
0100
0010
0100
0001
1000
0100
0010
0001
,
1000
0000
0100
0000
1000
0000
0001
0000
0100
0000
0010
0000
1000
0000
0001
0000
0100
0000
0001
0000
0010
0000
0100
0000
2000
0000
0000
00M0
0M0M
0000
0000
0000
,
3010
0100
0001
1000
0010
1000
0100
0010
0001
1000
0100
1000
0001
0100
0010
1000
,
0001
0100
0001
1000
0001
0010
0100
1000
0001
0010
0001
1000
0100
1000
0010
0100
,
0001
1000
0001
0100
0010
1000
0001
1000
0100
0010
0100
1000
0001
0010
0001
1000
,
0010
1000
0001
0100
0010
1000
0001
0100
0010
0100
0001
1000
0010
1000
0001
1000
,
0100
0010
0001
1000
0100
1000
0001
1000
0010
0100
0001
1000
0001
0100
0010
0100
,
0001
1000
0010
1000
0001
0100
0010
0100
0001
1000
0100
0010
0001
1000
0100
1000
,
0001
0100
0010
1000
0001
0100
0010
0100
0001
1000
0100
0010
0001
1000
0100
1000
,
0001
0100
0010
1000
0001
0010
0001
0100
0010
1000
0001
0100
0010
0100
0001
1000
,
02MM
0000
0300
0000
0020
0000
0032
0203
,
0000
0300
00M0
0000
0020
0000
2030
3002
,
0000
0000
0003
0000
0000
0000
0000
0000
M000
M000
M000
0000
00M0
0000
0M00
0M00
,
0M00
0M00
0M00
0000
0000
00M0
0000
0000
0020
0000
0000
0000
2030
0000
0000
0000
,
3002
0000
2003
0000
3200
0000
0320
0032
,
0000
0003
00M0
0000
0200
0000
0320
2030
,
0000
0000
3000
0000
00M0
0000
0000
0000
M000
M000
M000
0000
0M00
0000
000M
000M
,
1M1M
0000
0000
M1M1
0000
0000
1MM1
0000
0000
M1M1
0000
0000
M11M
0000
MM0M
0000
,
0010
0000
1000
0000
0002
0003
0010
0100
1000
0001
1000
0000
0010
0000
0100
0000
,
0001
0000
0100
0000
0020
0030
1000
0001
1000
0100
0010
0000
0001
0100
0010
1000
,
0010
0000
0100
0000
0002
0003
1000
0100
1000
0000
0010
0000
0100
0000
0001
0000
,
1000
0000
0100
0000
0020
0030
0001
0100
0001
1000
0010
0000
0100
0001
1000
0010
,
0100
0000
0010
0000
2000
3000
0001
0010
0001
0100
0010
0000
1000
0000
0010
0000
,
0100
0000
0001
0000
2000
3000
0100
0010
0001
1000
0001
0000
0100
0010
1000
0010
,
0100
0000
0001
0000
2000
3000
0010
1000
0001
0000
0100
0000
0010
0000
0100
0000
,
0001
1000
0001
0000
0010
0100
1000
0000
0010
1000
0001
0000
1000
0100
0010
0000
,
0001
0000
1000
0000
0002
0003
0100
0010
0100
0000
0010
0000
0000
0000
1000
0000
,
0001
0000
0010
0000
0200
0300
1000
0001
1000
0000
0010
0000
0000
0000
0100
0000
,
0010
0000
1000
0000
0004
0003
0100
0001
0100
0000
0010
0000
0000
0000
1000
0000
,
0010
0000
0100
0000
0004
0003
1000
0001
1000
0000
0010
0000
0000
0000
0100
0000
,
0001
0000
1000
0000
0200
0300
0010
0001
0010
0000
0100
0000
0000
0000
1000
0000
,
0001
0000
1000
0000
0020
0030
0100
0001
0100
0000
0010
0000
0000
0000
1000
0000
,
0010
0000
0100
0000
0004
0003
1000
0010
0100
0000
0001
0000
1000
0000
0010
0000
,
0100
0001
1000
0000
0100
0010
0001
1000
0001
0100
0010
0000
1000
0000
0001
0000
,
2MM2
0MM0
3MM3
0MM0
MMMM
0000
0000
0000
0000
0000
0000
0000
0000
0000
0000
0000
;
