#TITLE:Great Expectations;
#SUBTITLE:(FIAB RMX);
#ARTIST:Renard;
#TITLETRANSLIT:;
#SUBTITLETRANSLIT:;
#ARTISTTRANSLIT:;
#CREDIT:Owem;
#BANNER:../banner.png;
#BACKGROUND:../bg.png;
#LYRICSPATH:;
#CDTITLE:../cdtitleowem.png;
#MUSIC:Renard - Great Expectations (FIAB RMX).ogg;
#OFFSET:-0.048;
#SAMPLESTART:264.048;
#SAMPLELENGTH:29.999;
#SELECTABLE:YES;
#BPMS:0.000=180.000;
#STOPS:;
#BGCHANGES:;
// cache tags:
#FIRSTBEAT:0.000;
#LASTBEAT:1051.000;
#SONGFILENAME:Songs/Owem's Simfiles 08 - 1.2/Great Expectations (FIAB RMX) - [Owem & Braeden] v1.0.3/Great Expectations (FIAB RMX).sm;
#HASMUSIC:1;
#HASBANNER:1;
#MUSICLENGTH:359.366;
// end cache tags

//---------------dance-single - 14- (Braeden)----------------
#NOTES:
     dance-single:
     14- (Braeden):
     Hard:
     14:
     1.000,1.000,0.184,1.000,1.000,2190.000,66.000,394.000,157.000,1.000:
2000
0000
0000
3200
0000
0300
0020
0030
,
0002
0000
0000
0000
0000
0000
2003
0000
0000
0000
3000
0020
0000
0030
0000
0000
,
0200
0000
0000
0000
0000
0000
0302
0000
0000
0000
0000
0003
2000
0000
3000
0000
,
0200
0000
0300
0020
0000
0030
0002
0003
,
2000
0000
0000
0000
0000
0000
3020
0000
0000
0030
0000
0000
0200
0000
0000
0300
,
0002
0000
0000
0000
0000
0000
2003
0000
0000
3000
0200
0000
0000
0000
0300
0000
,
0020
0000
0000
0000
0000
0000
0032
0000
0000
0003
0000
0000
2000
0000
0000
3000
,
0000
0020
0000
0000
0000
0030
0000
0200
0000
0000
0000
0300
0002
0000
0000
0003
,
0000
2000
0000
0000
0000
0000
0000
3200
0000
0000
0300
0000
0020
0000
0030
0000
,
0002
0000
0000
0203
0000
0000
0320
0030
,
2000
0000
0000
3002
0000
0000
0023
0030
,
0000
0200
0000
0000
0000
0300
2000
0000
0000
0000
0000
0000
3002
0000
0000
0003
,
0000
0000
0200
0000
0000
0000
0300
0020
0000
0000
0030
0000
0000
0000
2000
0000
,
0000
0000
3000
0000
0000
0000
0000
0000
0000
0200
0000
0000
0320
0000
0000
0030
,
0000
0002
0000
0000
2003
0000
0000
0020
,
0000
0000
0000
0000
0000
3030
0000
0000
,
2MMM
0000
0000
3020
0030
0000
0200
0300
,
0102
0000
0003
2000
0000
3000
0200
0300
,
0120
0000
0030
0002
0000
0000
2003
3000
,
1020
0000
0000
0000
0030
0000
0200
0000
0000
0000
0000
0300
0002
0000
0003
0000
,
2001
0000
0000
3020
0030
0000
0200
0300
,
0102
0000
0003
2000
0000
0000
3200
0300
,
0120
0000
0000
0000
0000
0000
0032
0000
0000
0003
0000
0000
2000
0000
3000
0000
,
0020
0000
0000
0000
0030
0000
0000
0200
0000
0000
0000
0000
0302
0000
0003
0000
,
2000
0000
0000
0000
0000
0000
3020
0000
0000
0030
0000
0000
2000
0000
3000
0000
,
1200
0000
0000
0000
0000
0300
0020
0000
0000
0000
0030
0000
0002
0000
0003
0000
,
2001
0000
0000
3020
0000
0000
0230
0300
,
0002
0000
0000
0000
0000
0000
2003
0000
0000
0000
0000
3200
0000
0000
0300
0000
,
0220
0000
0330
0022
0000
0033
2002
0000
,
3000
0000
0000
0000
0003
0000
0000
0000
0000
2000
0000
0000
3020
0000
0030
0000
,
0200
0000
0000
0002
0000
0000
2000
0000
,
0000
0000
3000
0000
0300
0003
0000
0000
,
2000
0000
3001
0000
0100
0000
0020
0000
0130
0000
0002
0000
1003
0010
0100
0010
,
2000
3001
0100
0020
1030
0010
0200
0301
,
2000
0000
3100
0000
0010
0000
0002
0000
1003
0000
0010
0000
0200
0301
1000
0001
,
0020
0000
0130
0000
1000
0000
0002
1003
0001
0100
0010
0000
2000
3001
1000
0010
,
0200
0000
0301
0000
1000
0000
0200
0000
0310
0000
0001
0000
2000
3010
0100
0001
,
0200
0310
1000
0002
1003
0100
0020
0031
,
2000
0000
3001
0000
0100
0000
0020
0000
0130
0000
0001
0000
2000
3100
0010
0001
,
0200
0000
0301
0000
1000
0000
0020
0130
0010
0000
1000
0000
0002
0103
0001
1000
,
0020
0000
0130
0000
0010
0000
2000
0000
3001
0000
1000
0000
0020
0130
0001
1000
,
0002
0103
0010
2000
3001
1000
0200
0310
,
0002
0000
1003
0000
0001
0000
0200
0000
0310
0000
0100
0000
0002
1003
0001
0100
,
0020
0000
1030
0000
0001
0000
2000
3100
1000
0010
1000
0000
0002
0000
0103
0010
,
0200
0000
0301
0000
1000
0000
0200
0000
0310
0000
0001
0000
2000
3001
1000
0010
,
0100
0010
1000
0001
0020
0031
0200
0310
,
2000
0000
3001
0000
1000
0000
0200
0000
0310
0000
0001
0000
2000
3001
0100
0001
,
0010
0000
0100
0000
1000
0000
0001
0100
0001
1000
0010
0000
0100
0000
0001
0000
,
2MM2
0000
3003
0000
2020
0000
3030
0000
0220
0000
0330
0220
0000
0330
0202
0303
,
2002
0000
0000
0000
3003
0000
0000
0000
0000
0000
0000
0000
0000
0000
2000
3000
,
2020
0000
0000
3030
0220
0000
0000
0330
0202
0000
0303
0202
0000
0303
2002
3003
,
2020
3030
0000
0000
,
2002
0000
0000
3003
0202
0000
0000
0303
0022
0000
0033
0022
0000
0033
2002
3003
,
2020
0000
0000
0000
3030
0000
0000
0000
0000
0000
0000
0000
0000
0000
2000
3000
,
2200
0000
0000
3300
0220
0000
0000
0330
0022
0000
0033
0022
0000
0033
0202
0303
,
0220
0330
0000
0000
,
2020
0000
0000
3030
2002
0000
0000
3003
0202
0000
0303
0202
0000
0303
0220
0330
,
2020
0000
0000
0000
3030
0000
0000
0000
0000
0000
0000
0000
0000
0000
2000
3000
,
2002
0000
0000
3003
2020
0000
0000
3030
0220
0000
0330
0220
0000
0330
0202
0303
,
2002
3003
0000
0000
,
2020
0000
0000
3030
2020
0000
0000
3030
2002
0000
3003
2002
0000
3003
0202
0303
,
0022
0000
0000
0000
0033
0000
0000
0000
0000
0000
0000
0000
0000
0000
0002
0003
,
0202
0000
0000
0303
0220
0000
0000
0330
2020
0000
3030
2002
0000
3003
0202
0303
,
0220
0300
0000
0000
,
2030
0000
3001
0000
2000
0000
3010
0000
0200
0000
0301
2000
3001
0100
0020
1030
,
0020
0000
0130
0001
1000
0001
1000
0020
,
0230
0000
0301
0000
2000
0000
3001
0000
0020
0000
0130
2000
3010
1000
0002
0103
,
0020
0000
0100
0000
0130
0000
0001
0100
0010
1000
0010
0000
0100
0001
1000
0001
,
0200
0000
0310
0000
0200
0000
0301
0000
2000
0000
3100
0020
0031
1000
0002
0103
,
0020
1000
1030
0001
0100
0001
0100
0020
,
2030
0000
3001
0000
2000
0000
3100
0000
0020
0000
0031
2000
3010
1000
0002
0103
,
0020
0000
1030
0000
0002
0000
0000
0000
1003
0010
1000
0100
2000
0000
0000
3000
,
2000
0000
3010
0000
0200
0000
0301
0000
2000
0000
3010
0200
0301
0100
0020
1030
,
0002
1003
0100
0010
0001
0010
0001
2000
,
3020
0000
0130
0000
0002
0000
1003
0000
0002
0000
0013
0200
1300
0001
2000
3010
,
0200
0000
0301
0000
1000
0000
0010
0100
0001
1000
0001
0000
0100
0000
0010
1000
,
0020
0000
0130
0000
0002
0000
1003
0000
0020
0000
0130
0002
1003
0001
0020
0130
,
2000
3010
0100
0001
1000
0001
1000
0200
,
0320
0000
0031
0000
2000
0000
3001
0000
0200
0000
0310
2000
3001
1000
0200
0310
,
0002
0000
1003
0000
0010
0000
0100
0001
1000
0001
0100
0010
0100
0000
0001
1000
,
0001
0010
0100
1000
0001
1000
0010
0100
0001
0010
0001
1000
0010
0100
0002
0000
,
1003
0000
0000
0000
0000
0000
0100
0000
0000
0010
0000
0000
0001
0000
0000
1000
0000
0000
0001
0000
0000
0000
0000
0000
1000
0000
0000
0010
0000
0000
0100
0000
0001
0000
0100
0000
0001
0000
0000
1000
0000
0000
0010
0000
0000
0000
0000
0000
,
1000
0000
0100
1000
0000
0001
0100
0000
0010
0000
1000
0001
0100
0010
1000
0000
,
0020
0000
0000
0230
0000
0000
0310
0000
1000
0001
0100
0000
0010
0000
1000
0000
,
0100
0000
0010
0001
0100
0000
0010
1000
0000
0001
0100
0010
1000
0000
0001
0000
,
1000
0001
1000
0000
0001
1000
0001
0000
0100
0010
0000
0010
1000
0000
0000
0000
,
0001
1000
0001
0000
1000
0000
0100
0010
0001
0000
0010
0100
0000
1000
0100
0000
,
2000
0000
0000
0000
3010
0000
0100
0000
0001
0100
0010
1000
0000
0000
0001
0000
,
1000
0000
0001
1000
0001
0000
1000
0100
0000
0010
0001
1000
0010
0000
0100
0000
,
0002
0000
0000
0003
0200
0000
0000
0000
0310
0000
1000
0000
0001
0000
0000
0000
,
1000
0000
0001
1000
0000
1000
0001
0000
0100
0000
0010
1000
0001
0100
0010
0000
,
2000
0000
0000
3001
0000
0000
1000
0000
0001
0100
0010
0000
1000
0000
0001
0000
,
0200
0000
0301
1000
0001
0000
0100
0010
0000
1000
0100
1000
0001
0000
0100
0000
,
0010
1000
0001
0000
0100
0010
1000
0000
0001
1000
0000
1000
0200
0000
0300
0000
,
0100
1000
0001
0000
0100
0000
0010
1000
0001
0000
0100
0010
0000
1000
0100
0000
,
2000
0000
0000
0000
3001
0000
0100
0000
0010
1000
0001
0100
0000
0000
0001
0000
,
1000
0000
0001
0100
0001
0000
1000
0010
0000
1000
0001
1000
0010
0000
0100
0000
,
0002
0000
0000
0003
2000
0000
0000
3000
0010
0000
0100
0000
0010
0000
0000
0000
,
1000
0000
0001
0100
0000
0010
1000
0000
0100
0000
0010
0100
1000
0001
0100
0000
,
0020
0000
0030
1000
0000
0000
1000
0000
0001
0100
0010
0000
1000
0000
1000
0000
,
0002
0000
1003
0100
1000
0000
0010
0100
0000
0100
0001
1000
0010
0000
0100
0000
,
0001
1000
0001
0000
1000
0001
1000
0000
0010
0100
0000
0100
0001
0000
0000
0000
,
1000
0001
1000
0000
0010
0000
0100
0001
1000
0000
0010
1000
0000
0001
0100
0010
,
0200
0000
0000
0000
0310
0000
0100
0000
0001
1000
0001
1000
0000
0000
0001
0000
,
2000
0000
3010
0100
0010
0000
1000
0100
0000
1000
0001
0100
0010
0000
1000
0000
,
2002
3003
0000
0000
0202
0303
0000
0000
0010
0000
1000
0000
0010
0000
0000
0000
,
1000
0000
0001
1000
0000
0001
1000
0000
0100
0000
1000
0001
1000
0010
0100
0000
,
0010
0000
0000
1000
0000
0000
0010
0000
0100
0001
0100
0000
0010
0000
1000
0000
,
0002
0000
1003
0100
1000
0000
0001
0100
0000
0010
0100
0010
0100
0000
0010
0000
,
1000
0001
1000
0000
0001
0100
0010
0000
1000
0100
0000
0100
1000
0000
0000
0000
,
0010
0100
0010
0000
0100
0000
0001
1000
0010
0000
0100
0001
0000
1000
0001
0100
,
0002
0000
0000
0000
0103
0000
0010
0000
1000
0001
0100
0010
0000
0000
1000
0000
,
0001
0000
1000
0010
0100
0000
0001
0100
0000
0010
0100
0001
0100
0000
0010
0000
,
2020
3030
2002
3003
1000
0001
1000
0000
,
2000
0000
0000
0000
0000
0M00
0000
0000
0000
0000
0M00
0000
3000
0000
0000
0M00
,
0000
0000
0000
0000
0M00
0000
0000
0000
0000
0M00
0000
0000
0000
0000
0M00
0000
,
0000
0000
0000
0000
0M00
0000
00M0
0000
000M
0M00
00M0
0M00
000M
M000
00M0
0M00
,
0M00
000M
M000
000M
00M0
0M00
M000
000M
M000
00M0
0M00
000M
M000
0M00
00M0
000M
,
0M00
000M
M000
0M00
00M0
000M
M000
00M0
0M00
000M
M000
0M00
00M0
000M
M000
00M0
,
M000
000M
0M00
00M0
M000
000M
00M0
0M00
M000
000M
M000
00M0
0M00
000M
M000
0M00
,
00M0
000M
M000
000M
0M00
000M
M000
0M00
M000
000M
0M00
000M
M000
0M00
000M
M000
,
0M00
M000
000M
0M00
000M
M000
0M00
000M
M000
000M
M000
0M00
M00M
0000
0000
0M00
,
1M00
0001
1000
0000
0100
0010
0000
0001
0100
0000
0010
0100
0000
0001
0100
0010
,
1000
0100
0010
0001
0010
0100
0000
1000
0001
0000
0100
0010
0000
0010
1000
0001
,
0100
0000
0010
1000
0000
0001
0000
1000
0100
0010
0001
1000
0010
0100
0001
1000
,
0000
0010
0100
0010
1000
0001
0100
0010
1000
0001
0000
0010
0100
0000
1000
0000
,
0010
0100
0010
0000
0100
0001
0000
1000
0001
0000
0100
0001
0000
0010
0001
1000
,
0100
0010
0100
0000
1000
0010
0000
0100
0001
0000
0100
0010
0000
1000
0100
0000
,
0010
0000
0001
1000
0000
0010
0000
0100
0001
1000
0100
1000
0001
0100
0010
1000
,
0001
0010
0100
1000
0001
0010
0001
1000
0100
0010
0001
1000
0010
0100
0001
0000
,
1000
0000
0100
0000
0010
0001
0000
0100
0010
0000
1000
0100
0000
0010
0001
1000
,
0010
0100
0010
0000
1000
0100
0000
0010
0001
0000
0010
0100
0000
1000
0001
0100
,
0010
0000
1000
0010
0000
0100
0000
0001
0100
0001
1000
0100
1000
0010
0100
0001
,
1000
0000
0010
0100
0000
1000
0001
0000
1000
0100
0000
0010
0100
0000
0010
0000
,
0001
1000
0001
0000
0100
0010
0000
1000
0100
0000
0010
0100
0000
1000
0001
0100
,
0010
0100
0010
0000
1000
0100
0000
0010
0001
0000
0100
0010
0000
1000
0001
0100
,
0010
0000
1000
0001
0000
0100
0000
0010
1000
0000
0001
0000
0100
0000
0010
1000
,
0001
0000
0100
0010
0000
1000
0100
0000
0010
0001
0100
0010
1000
0000
0010
0000
,
1000
0000
2000
0000
,
3010
0000
0000
0000
0000
0000
0100
0000
0000
0001
0000
0000
1000
0000
0000
0010
0000
0000
0100
0000
0000
0000
0000
0000
0010
0000
0000
0100
0000
0000
0001
0000
1000
0000
0001
0000
2000
0000
0000
0000
0000
0000
3000
0000
0000
0000
0000
0000
,
0002
0000
0000
0000
0203
0000
0300
0010
1000
0000
0001
0000
0100
0000
0020
0000
,
0000
2030
0000
3100
0020
0000
0032
0000
,
2003
0000
0000
0000
3020
0000
0030
0100
0001
0000
0100
0000
0010
0000
2000
0000
,
0000
3200
0000
0310
0002
0000
2003
0000
,
3020
0000
0000
0000
0230
0000
0300
0001
1000
0000
0010
0000
0100
0000
0020
0000
,
0000
2030
0000
3100
2000
0000
3020
0000
,
0230
0000
0000
0000
0301
0000
0000
0010
0100
0000
1000
0000
0001
0000
0200
0000
,
0000
0320
0000
1030
0002
0000
0203
0000
,
0310
1000
0010
1000
0001
1000
0100
1000
0001
0010
0100
1000
0001
0100
0010
1000
,
0001
0100
0010
1000
0001
0100
0001
1000
0010
1000
0100
0010
0001
1000
0100
1000
,
0001
0010
0001
0100
0010
1000
0001
0100
0010
0100
0001
1000
0100
0010
0100
1000
,
0001
0010
0001
1000
0100
0010
0100
1000
0001
0010
0001
1000
0001
0100
0010
1000
,
0100
1000
0001
0010
0100
1000
0001
0100
0001
0010
0100
1000
0001
1000
0010
0100
,
0001
1000
0100
0010
0100
1000
0001
0100
0010
0100
0001
1000
0100
1000
0001
1000
,
0010
0100
0001
0100
0010
1000
0001
1000
0100
0010
0001
1000
0100
1000
0010
0100
,
0001
0000
0000
1000
0000
0000
0001
0000
0000
1000
0000
0000
0001
0000
0000
0000
0100
0000
0000
0000
0010
0000
0000
0000
0100
0000
0000
0001
0000
0000
2000
0000
0000
0000
0000
0000
3002
0000
0000
0000
0000
0000
0000
0000
0000
0003
0000
0000
,
1000
0100
0010
0100
1000
0001
1000
0010
0100
0001
1000
0100
1000
0001
1000
0010
,
0100
0001
1000
0001
0010
0100
1000
0001
0010
0001
1000
0100
1000
0001
1000
0010
,
0100
0001
1000
0100
1000
0001
0100
0010
1000
0001
0100
0001
0010
0100
1000
0001
,
0010
0001
1000
0100
1000
0001
1000
0010
0100
0001
1000
0100
1000
0001
0010
0001
,
0100
0010
1000
0001
1000
0100
0010
0001
1000
0100
1000
0001
0010
0001
0100
0010
,
1000
0001
0100
0001
0010
0100
1000
0001
0010
0001
1000
0100
1000
0001
1000
0010
,
0100
0001
1000
0100
1000
0001
0100
0010
1000
0001
0100
0001
0010
0100
1000
0001
,
1000
0010
0100
0001
1000
0100
1000
0001
1000
0010
0100
0001
0100
0001
1000
0010
,
1000
0100
0010
0001
1000
0100
1000
0001
0100
0010
1000
0001
1000
0100
0010
0001
,
1000
0100
1000
0001
0010
0001
1000
0010
1000
0001
1000
0100
0010
0001
1000
0100
,
1000
0001
1000
0010
0100
0001
0100
0010
1000
0001
0010
0100
1000
0100
0010
0001
,
1000
0100
1000
0001
0100
0010
1000
0001
0100
0001
1000
0100
1000
0001
0100
0010
,
1000
0001
0100
0001
0010
0100
1000
0001
0100
0001
1000
0100
1000
0010
0100
0001
,
1000
0001
0010
0100
1000
0001
0010
0001
1000
0010
1000
0100
0010
0001
1000
0100
,
1000
0001
0100
0010
1000
0001
0100
0001
1000
0001
0100
0010
0100
0001
1000
0100
,
0020
0000
0000
0032
0000
0000
2003
0000
0000
0000
0000
3000
0000
0000
0000
0000
,
2002
3003
0000
0000
,
0000
0000
0000
0000
,
0000
0000
0000
0000
0000
000M
0000
0000
0M00
0000
00M0
0000
0M00
0000
000M
0000
,
M000
0000
0000
M000
0000
0000
0M00
0000
0000
00M0
0000
0000
000M
0000
0M00
0000
,
0000
0000
0000
0000
00M0
0000
0000
0M00
0000
0000
000M
0000
0000
0000
M000
0000
,
000M
M000
000M
0000
M000
0M00
0000
M000
000M
0000
0M00
00M0
0000
M000
0M00
00M0
,
000M
M000
00M0
0M00
000M
00M0
0M00
M000
000M
0M00
00M0
M000
0M00
00M0
000M
M000
,
00M0
0000
0000
M000
0000
0000
000M
0000
0000
0M00
0000
0000
00M0
0000
0M00
0000
,
1MM2
0000
0000
0000
0000
0000
0203
0000
0300
0000
0000
0020
0000
0030
0000
0000
,
2000
0000
0000
0000
3000
0002
0000
0000
0000
0000
0003
0000
2000
0000
3000
0000
,
0200
0000
0000
0000
0000
0300
0020
0000
0000
0000
0032
0000
0003
0000
0000
0000
,
2000
0000
0000
3020
0000
0000
0230
0300
,
0002
0000
0000
2003
3000
0000
0200
0300
,
0020
0000
0000
0000
0000
0030
0002
0000
0000
0000
0000
0000
2003
0000
3000
0000
,
0020
0000
0000
0230
0000
0300
0002
0000
,
2003
0000
0000
0000
0000
0000
0000
0000
0000
0000
0000
0000
3000
0000
0000
0000
0000
0000
0000
0000
0000
0020
0000
0000
0000
0000
0000
0000
0000
0000
0000
0000
0000
0000
0000
0000
0130
0000
0000
0000
0000
0000
0001
0000
1000
0000
0001
0000
,
2000
0000
0000
3020
0000
0000
0100
0000
,
0230
0000
0000
0302
0000
0000
0100
0000
,
0203
0000
0000
0302
0000
0000
0010
0000
,
0023
0000
0000
0230
0000
0000
2300
0000
,
0001
0000
0000
0100
0000
0000
3020
0000
,
0000
0000
1000
1000
,
2030
0000
0000
0010
0000
0000
3020
0000
,
0000
0000
0030
0000
,
001M
0000
M000
0M00
M000
000M
0200
0000
0000
0000
0000
0000
0000
0000
0000
0000
,
0301
0000
0000
0000
0000
0000
1000
0000
0000
0001
0000
0000
0010
0000
0000
0100
0000
0000
1000
0000
0000
0000
0000
0000
0001
0000
0000
1000
0000
0000
0001
0000
0100
0000
0010
0000
1000
0000
0000
0000
0000
0000
0000
0000
0000
0000
0000
0000
,
0001
1000
0001
0000
0010
0001
0000
0000
0010
0000
0001
1000
0000
0000
0010
1000
,
0001
0100
0010
0000
1000
0100
0000
1000
0001
0000
1000
0100
0000
1000
0001
0100
,
0010
0000
1000
0010
0000
0100
0000
0001
1000
0000
0010
0100
0010
0000
1000
0001
,
1000
0100
0010
0001
0010
0100
1000
0001
0100
0010
0100
0001
1000
0100
0010
0001
,
1000
0001
1000
0000
0010
0100
0000
0000
0001
0000
1000
0100
0000
0000
0010
0001
,
1000
0010
0100
0001
1000
0100
0000
0010
0001
0000
0100
0010
0000
1000
0100
0000
,
0010
0000
0100
0001
0000
1000
0000
0100
0010
0001
0100
0010
1000
0000
0001
1000
,
0001
0100
0010
1000
0100
0010
0001
0010
0100
1000
0001
0100
0010
0000
1000
0000
,
0001
1000
0001
0000
1000
0100
0000
0010
0001
0000
0010
0100
0000
1000
0001
0100
,
0010
1000
0001
0010
0100
1000
0001
0100
0010
0000
1000
0001
0000
0001
0100
0010
,
0100
0000
0010
1000
0000
0001
0000
0100
0010
0000
1000
0001
0100
0000
0010
1000
,
0001
1000
0100
1000
0001
0010
0001
1000
0001
1000
0010
0100
0001
0000
1000
0000
,
0001
0100
0001
0000
1000
0010
0000
0100
0010
0000
0100
0010
0000
1000
0010
0000
,
1000
0001
1000
0000
0010
0100
0000
0100
0001
0000
0001
0100
0000
0010
1000
0001
,
1000
0000
0010
0100
0000
0001
0000
0100
0010
0000
1000
0001
0010
0000
0100
0010
,
0001
0000
1000
0010
0100
0000
0001
0100
0010
0000
1000
0100
0010
0000
0001
0000
,
1000
0100
0010
0001
1000
0100
0010
0100
1000
0001
0010
0100
1000
0010
1000
0010
,
0100
0001
0100
0010
0100
0001
1000
0100
0010
0001
1000
0100
0010
0001
0010
0001
,
1000
0010
0100
0001
1000
0001
0010
0001
1000
0100
0010
0001
1000
0100
1000
0100
,
0010
0001
0100
0010
1000
0001
0100
0010
1000
0001
0010
0100
1000
0010
1000
0010
,
0100
0001
0010
0001
0100
0001
1000
0100
0010
0001
1000
0100
0010
0001
0010
0001
,
1000
0010
1000
0010
0100
0010
1000
0001
1000
0100
0010
0001
1000
0100
1000
0100
,
0010
0001
0100
0010
1000
0001
1000
0100
0010
0001
1000
0001
0010
0100
0010
0100
,
0010
0001
1000
0001
0010
0100
1000
0010
0100
0001
0100
0010
1000
0100
0010
0001
,
1000
0100
1000
0001
1000
0100
0010
0001
1000
0001
0100
0001
1000
0100
1000
0100
,
0010
0100
1000
0001
0100
0010
1000
0100
0010
0001
1000
0100
0010
0001
0010
0001
,
1000
0010
0100
0001
0100
0010
1000
0100
0010
0001
0010
0001
1000
0100
1000
0100
,
0010
0001
0100
0010
1000
0001
1000
0100
0010
0001
0010
0100
1000
0100
0010
0001
,
1000
0010
0100
0001
0100
0010
1000
0100
0010
0001
0010
0100
1000
0010
0100
0001
,
0100
0010
0100
0010
1000
0001
0100
0010
1000
0100
1000
0100
0010
0001
0010
0001
,
1000
0010
1000
0010
0100
0001
0100
0010
1000
0010
0100
0001
1000
0000
0000
0000
,
1000
0001
1000
0001
0100
0001
0010
0000
,
0001
0000
0100
0000
0010
0000
1000
0000
0001
0000
1000
0000
0100
0010
0001
1000
,
0001
0100
0010
1000
0010
0100
0001
1000
,
0100
0000
0010
0000
0001
0000
1000
0000
0010
0000
0100
0000
0001
1000
0001
0010
,
0100
0000
1000
0000
0010
0000
1000
0001
1000
0100
0010
0000
0001
0100
0001
1000
,
0010
0000
0100
0000
0001
0000
0100
0000
0010
0000
1000
0000
0010
0100
0001
1000
,
0100
0010
0001
1000
0010
1000
0100
0010
,
0001
0000
1000
0000
0001
0000
0100
0000
0010
0000
1000
0000
0001
1000
0001
0100
,
0010
0000
1000
0000
0010
0000
0100
0001
0100
0010
1000
0001
1000
0000
0100
0010
,
0001
0000
1000
0000
0010
0000
0100
0000
0001
0000
1000
0000
0001
0100
0001
1000
,
0010
0100
0010
1000
0100
0010
0001
1000
,
0001
0000
0100
0000
0010
0000
0100
0000
0001
0000
1000
0000
0100
0010
0001
1000
,
0001
0000
0100
0000
0010
0000
1000
0010
0100
0000
0001
0000
1000
0001
1000
0100
,
0010
0000
0001
0000
0100
0000
0001
0000
0010
0000
0100
0000
1000
0010
1000
0001
,
0100
0010
0100
0001
1000
0100
0010
0001
,
1000
0000
0010
0000
0100
0000
0001
0000
1000
0000
0001
0000
0010
0100
1000
0001
,
1000
0000
0010
0000
0100
0000
0001
1000
0001
0100
0010
0000
1000
0000
0010
0100
,
0001
0000
1000
0000
0100
0000
0010
0000
0001
0000
1000
0000
0010
0100
0001
1000
,
0010
0100
0001
1000
0100
1000
0010
0100
,
0001
0000
1000
0000
0001
0000
0010
0000
0100
0000
1000
0000
0001
0100
0001
1000
,
0100
0000
0010
0000
0001
0000
1000
0010
1000
0000
0001
0000
0100
0010
1000
0001
,
1000
0000
0100
0000
0010
0000
0001
0000
1000
0000
0001
0000
0100
0010
0100
0001
,
1000
0100
0010
0001
1000
0010
1000
0001
,
0010
0000
0100
0000
1000
0000
0001
0000
1000
0000
0010
0000
0100
0001
0100
0010
,
1000
0000
0001
0000
1000
0000
0100
0010
0001
1000
0001
0000
0100
0000
0010
1000
,
0001
0000
1000
0000
0100
0000
0010
0000
0001
0000
1000
0000
0001
0100
0001
1000
,
0010
0100
0001
1000
0100
0010
0001
1000
,
0100
0000
1000
0000
0010
0000
0100
0000
0001
0000
1000
0000
0001
0100
0010
1000
,
0010
0000
0100
0000
0001
0000
1000
0100
0010
0000
0001
0000
1000
0001
0100
0010
,
0100
0002
0000
0000
0000
0003
0000
2000
0000
0000
3000
0000
0000
0000
0200
0000
,
0000
0000
0300
0000
0000
0000
0000
0000
0000
0020
0000
0000
0032
0000
0000
0003
,
0000
2000
0000
0000
3020
0000
0000
0230
,
0000
0000
0000
0000
0000
0300
0000
0000
,
2002
0000
3003
0000
;

//---------------dance-single - 16- (Owem)----------------
#NOTES:
     dance-single:
     16- (Owem):
     Challenge:
     16:
     1.000,1.000,0.173,0.929,1.000,2726.000,62.000,334.000,214.000,1.000:
2000
0000
0000
3200
0000
0300
0020
0030
,
0002
0000
0000
2003
0000
3000
0020
0030
,
0200
0000
0000
0000
0000
0000
0302
0000
0000
0000
0000
0003
2000
0000
3000
0000
,
0200
0000
0300
0020
0000
0030
0002
0003
,
2000
0000
0000
0000
0000
0000
3020
0000
0000
0030
0000
0000
0200
0000
0000
0300
,
0002
0000
0000
0000
0000
0000
2003
0000
0000
3000
0200
0000
0000
0000
0300
0000
,
0020
0000
0000
0000
0000
0000
0032
0000
0000
0003
0000
0000
2000
0000
0000
3000
,
0000
0020
0000
0000
0000
0030
0000
0200
0000
0000
0300
0000
0002
0000
0000
0003
,
0000
2000
0000
0000
0000
0000
0000
3200
0000
0000
0300
0000
0020
0000
0030
0000
,
0002
0000
0000
0203
0000
0000
0320
0030
,
2000
0000
0000
3002
0000
0000
0023
0030
,
0200
0000
0000
0000
0000
0000
2300
0000
0000
0000
0000
0000
3002
0000
0000
0003
,
0000
0200
0000
0000
0000
0000
0300
0020
0000
0000
0030
0000
0000
0000
2000
0000
,
0000
0000
3000
0000
0000
0000
0000
0000
0000
0200
0000
0000
0320
0000
0000
0030
,
0000
0002
0000
0000
2003
0000
0000
0020
,
0000
0000
0000
0000
0000
3030
0000
0000
,
2MMM
0000
0000
3020
0030
0000
0200
0300
,
0102
0000
0003
2000
0000
3000
0200
0300
,
0120
0000
0030
0002
0000
0000
2003
3000
,
1020
0000
0000
0000
0030
0000
0200
0000
0000
0000
0000
0300
0002
0000
0003
0000
,
2001
0000
0000
3020
0030
0000
0200
0300
,
0102
0000
0003
2000
0000
0000
3200
0300
,
0120
0000
0000
0000
0000
0000
0032
0000
0000
0003
0000
0000
2000
0000
3000
0000
,
0020
0000
0000
0000
0030
0000
0000
0200
0000
0000
0000
0000
0302
0000
0003
0000
,
2000
0000
0000
0000
0000
0000
3020
0000
0000
0030
0000
0000
2000
0000
3000
0000
,
1200
0000
0000
0000
0000
0300
0020
0000
0000
0000
0030
0000
0002
0000
0003
0000
,
2001
0000
0000
3020
0000
0000
0230
0300
,
0002
0000
0000
0000
0000
0000
2003
0000
0000
0000
0000
3200
0000
0000
0300
0000
,
0220
0000
0330
0022
0000
0033
2002
0000
,
3000
0000
0000
0000
0003
0000
0000
0000
0000
2000
0000
0000
3020
0000
0030
0000
,
0200
0000
0000
0002
0000
0000
2000
0000
,
0000
0000
3000
0000
0300
0003
0000
0000
,
2000
0000
3001
0000
0100
0000
0020
0000
0130
0000
0002
0000
1003
0010
0100
0010
,
2000
3001
0100
0020
1030
0010
0200
0301
,
2000
0000
3100
0000
0010
0000
0002
0000
1003
0000
0010
0000
0200
0301
1000
0001
,
0020
0000
0130
0000
1000
0000
0002
1003
0001
0100
0010
0000
2000
3001
1000
0010
,
0200
0000
0301
0000
1000
0000
0200
0000
0310
0000
0001
0000
2000
3010
0100
0001
,
0200
0310
1000
0002
1003
0100
0020
0031
,
2000
0000
3001
0000
0100
0000
0020
0000
0130
0000
0001
0000
2000
3100
0010
0001
,
0200
0000
0301
0000
1000
0000
0020
0130
0010
0000
1000
0000
0002
0103
0001
1000
,
0020
0000
0130
0000
0010
0000
2000
0000
3001
0000
1000
0000
0020
0130
0001
1000
,
0002
0103
0010
2000
3001
1000
0200
0310
,
0002
0000
1003
0000
0001
0000
0200
0000
0310
0000
0100
0000
0002
1003
0001
0100
,
0020
0000
1030
0000
0001
0000
2000
3100
1000
0010
1000
0000
0002
0000
0103
0010
,
0200
0000
0301
0000
1000
0000
0200
0000
0310
0000
0001
0000
2000
3001
1000
0010
,
0100
0010
1000
0001
0020
0031
0200
0310
,
2000
0000
3001
0000
1000
0000
0200
0000
0310
0000
0001
0000
2000
3001
0100
0001
,
0010
0000
0100
0000
1000
0000
0001
0100
0001
1000
0010
0000
0100
0000
0001
0000
,
2MM2
0000
3003
0000
2020
0000
3030
0000
0220
0000
0330
0220
0000
0330
0202
0303
,
2002
0000
0000
0000
3003
0000
0000
0000
0000
0000
0000
0000
0000
0000
2000
3000
,
2020
0000
0000
3030
0220
0000
0000
0330
0202
0000
0303
0202
0000
0303
2002
3003
,
2020
3030
0000
0000
,
2002
0000
0000
3003
0202
0000
0000
0303
0022
0000
0033
0022
0000
0033
2002
3003
,
2020
0000
0000
0000
3030
0000
0000
0000
0000
0000
0000
0000
0000
0000
2000
3000
,
2200
0000
0000
3300
0220
0000
0000
0330
0022
0000
0033
0022
0000
0033
0202
0303
,
0220
0330
0000
0000
,
2020
0000
0000
3030
2002
0000
0000
3003
0202
0000
0303
0202
0000
0303
0220
0330
,
2020
0000
0000
0000
3030
0000
0000
0000
0000
0000
0000
0000
0000
0000
2000
3000
,
2002
0000
0000
3003
2020
0000
0000
3030
0220
0000
0330
0220
0000
0330
0202
0303
,
2002
3003
0000
0000
,
2020
0000
0000
3030
2020
0000
0000
3030
2002
0000
3003
2002
0000
3003
0202
0303
,
0022
0000
0000
0000
0033
0000
0000
0000
0000
0000
0000
0000
0000
0000
0002
0003
,
0202
0000
0000
0303
0220
0000
0000
0330
2020
0000
3030
2002
0000
3003
0202
0303
,
0220
0300
0000
0000
,
2030
0000
3001
0000
2000
0000
3010
0000
0200
0000
0301
2000
3001
0100
0020
1030
,
0020
0000
0130
0001
1000
0001
1000
0020
,
0230
0000
0301
0000
2000
0000
3001
0000
0020
0000
0130
2000
3010
1000
0002
0103
,
0020
0000
0100
0000
0130
0000
0001
0100
0010
1000
0010
0000
0100
0001
1000
0001
,
0200
0000
0310
0000
0200
0000
0301
0000
2000
0000
3100
0020
0031
1000
0002
0103
,
0020
1000
1030
0001
0100
0001
0100
0020
,
2030
0000
3001
0000
2000
0000
3100
0000
0020
0000
0031
2000
3010
1000
0002
0103
,
0020
0000
0000
0000
0000
0000
0000
0000
0000
0000
0000
0000
0000
0000
0000
0000
0000
0000
0000
0000
0000
0000
0000
0000
1030
0000
0000
0000
0000
0000
0000
0000
0000
0000
0000
0000
0000
0000
0000
0000
0000
0000
0000
0000
0000
0000
0000
0000
0001
0000
0000
0000
0000
0000
0000
0000
0000
0000
0100
0000
0000
0000
0000
0000
0000
0000
0000
0001
0000
0000
0000
0000
0000
0000
0000
0000
0000
0100
0000
0000
0000
0000
0000
0000
0000
0000
0001
0000
0000
0000
0000
0000
0000
0000
0000
0000
0100
0000
0000
0000
0000
0000
0000
0000
0000
0000
0000
0000
0010
0000
0000
0000
0000
0000
0000
0000
0000
0000
0000
0000
1000
0000
0000
0000
0000
0000
0000
0000
0000
0000
0000
0000
0000
0000
0000
0000
0000
0000
0000
0000
0000
0000
0000
0000
0002
0000
0000
0000
0000
0000
0000
0000
0000
0000
0000
0000
0000
0000
0000
0000
0000
0000
0000
0000
0000
0000
0000
0000
0000
0000
0000
0000
0000
0000
0000
0000
0000
0000
0000
0000
0000
0000
0000
0000
0000
0000
0000
0000
0000
0000
0000
0000
,
2003
0000
3010
0000
0200
0000
0301
0000
2000
0000
3010
0200
0301
0100
0020
1030
,
0002
1003
0100
0010
0001
0010
0001
2000
,
3020
0000
0130
0000
0002
0000
1003
0000
0002
0000
0013
0200
1300
0001
2000
3010
,
0200
0000
0301
0000
1000
0000
0010
0100
0001
1000
0001
0000
0100
0000
0010
1000
,
0020
0000
0130
0000
0002
0000
1003
0000
0020
0000
0130
0002
1003
0001
0020
0130
,
2000
3010
0100
0001
1000
0001
1000
0200
,
0320
0000
0031
0000
2000
0000
3001
0000
0200
0000
0310
2000
3001
1000
0200
0310
,
0002
0000
1003
0000
0010
0000
0100
0001
1000
0001
0100
0010
0100
0000
0001
1000
,
0001
0010
0100
1000
0001
1000
0010
0100
0001
0010
0001
1000
0010
0100
0002
0000
,
1003
0000
0000
0000
0000
0000
0100
0000
0000
0010
0000
0000
0001
0000
0000
1000
0000
0000
0001
0000
0000
0000
0000
0000
1000
0000
0000
0010
0000
0000
0100
0000
0001
0000
0100
0000
0001
0000
0000
1000
0000
0000
0010
0000
0000
0000
0000
0000
,
1000
0001
1000
0100
0010
0001
1000
0100
1000
0010
0100
0001
1000
0001
0100
0010
,
1000
0001
0100
0001
0010
0100
1000
0001
0010
0001
1000
0100
1000
0010
0100
0001
,
1000
0001
0010
0100
1000
0001
0010
0001
1000
0100
1000
0001
1000
0010
0100
0001
,
1000
0100
1000
0001
0100
0010
0100
0001
1000
0100
1000
0001
0010
0001
1000
0010
,
0100
0001
1000
0010
1000
0001
0100
0001
1000
0100
0010
0100
1000
0001
0100
0001
,
0010
0100
1000
0001
0010
0001
1000
0010
1000
0001
0100
0010
1000
0001
0010
0001
,
0100
0010
1000
0001
1000
0100
0010
0100
1000
0001
0100
0001
0010
0100
1000
0001
,
0010
0001
1000
0001
0100
0010
0100
0001
1000
0001
0100
0010
1000
0001
0010
0001
,
1000
0100
1000
0001
1000
0010
0100
0001
1000
0100
1000
0001
0010
0100
1000
0001
,
0010
0001
1000
0100
1000
0001
1000
0010
0100
0001
1000
0001
0010
0100
1000
0001
,
0010
0001
0100
0010
0100
0001
1000
0010
1000
0001
1000
0100
0010
0001
1000
0100
,
1000
0001
0100
0010
1000
0001
0100
0001
1000
0100
1000
0001
0010
0100
1000
0001
,
0010
0001
1000
0001
0100
0010
0100
0001
1000
0100
1000
0001
1000
0010
0100
0001
,
1000
0100
1000
0100
0010
0001
1000
0100
1000
0001
0100
0001
1000
0010
0100
0001
,
1000
0010
1000
0001
0100
0010
1000
0001
0100
0001
0010
0100
1000
0100
0010
0001
,
1000
0100
1000
0001
1000
0010
0100
0001
1000
0100
1000
0001
1000
0100
0010
0001
,
1000
0001
0010
0100
1000
0001
0100
0001
0010
0100
1000
0100
1000
0001
1000
0010
,
0100
0001
1000
0001
0100
0010
0100
0001
1000
0100
1000
0010
1000
0001
0100
0001
,
0010
0100
1000
0100
0010
0001
1000
0100
1000
0001
1000
0010
0100
0001
1000
0100
,
0010
0001
1000
0100
1000
0001
0100
0001
1000
0010
0100
0001
1000
0010
1000
0001
,
0100
0001
0010
0100
1000
0001
0010
0001
1000
0100
0010
0100
1000
0001
0100
0001
,
0010
0100
1000
0001
1000
0010
0100
0001
1000
0001
0100
0010
1000
0001
0010
0100
,
1000
0001
0010
0001
0100
0001
1000
0010
1000
0001
0100
0010
0100
0001
1000
0010
,
1000
0100
0010
0001
1000
0100
1000
0001
1000
0010
0100
0001
1000
0100
1000
0001
,
0100
0001
0010
0100
1000
0001
0100
0001
1000
0100
1000
0001
0010
0001
1000
0100
,
1000
0001
0100
0010
1000
0001
0100
0010
0100
0001
1000
0100
1000
0001
0010
0001
,
0100
0010
1000
0001
0100
0001
1000
0010
0100
0001
1000
0100
1000
0001
0010
0100
,
1000
0001
1000
0100
0010
0100
1000
0001
1000
0010
0100
0001
1000
0100
1000
0001
,
0010
0001
1000
0010
1000
0001
0100
0010
1000
0100
1000
0001
0010
0001
1000
0100
,
1000
0010
0100
0001
1000
0001
0010
0100
1000
0001
0010
0001
1000
0100
1000
0001
,
1000
0010
0100
0001
1000
0001
0010
0100
1000
0001
0010
0001
1000
0100
1000
0001
,
0100
0010
1000
0001
0100
0001
1000
0100
0010
0100
1000
0001
0100
0010
0100
0001
,
2MM0
0000
0000
0000
0000
0M00
0000
0000
0000
0000
0M00
0000
3000
0000
0000
0M00
,
0000
0000
0000
0000
0M00
0000
0000
0000
0000
0M00
0000
0000
0000
0000
0M00
0000
,
0000
0000
0000
0000
0M00
0000
00M0
0000
000M
0M00
00M0
0M00
000M
M000
00M0
0M00
,
0M00
000M
M000
000M
00M0
0M00
M000
000M
M000
00M0
0M00
000M
M000
0M00
00M0
000M
,
0M00
000M
M000
0M00
00M0
000M
M000
00M0
0M00
000M
M000
0M00
00M0
000M
M000
00M0
,
M000
000M
0M00
00M0
M000
000M
00M0
0M00
M000
000M
M000
00M0
0M00
000M
M000
0M00
,
00M0
000M
M000
000M
0M00
00M0
M000
0M00
00M0
000M
0M00
00M0
M000
00M0
000M
M000
,
0M00
M000
00M0
0M00
000M
M000
0M00
00M0
M000
000M
00M0
0M00
M00M
00M0
M000
0M00
,
0MM1
1000
0001
0000
0100
0010
0000
0100
0010
0000
0010
1000
0000
0001
0100
0010
,
1000
0001
1000
0100
0010
0001
1000
0100
1000
0001
1000
0010
0100
0001
1000
0001
,
0100
0010
1000
0001
0100
0001
1000
0001
0010
0100
1000
0100
0010
0001
1000
0100
,
1000
0001
1000
0010
0100
0001
1000
0010
1000
0001
0100
0010
1000
0001
1000
0100
,
0010
0001
0100
0000
0010
1000
0000
0001
1000
0000
0100
1000
0000
0010
1000
0001
,
0100
0010
0100
0001
1000
0100
1000
0001
1000
0100
0010
0100
1000
0001
0100
0001
,
0010
0100
1000
0001
0100
0001
1000
0100
1000
0001
0100
0010
1000
0001
0100
0001
,
0010
0100
1000
0001
1000
0010
0100
0010
1000
0001
0100
0010
0100
0001
2000
0000
,
3100
0010
0001
1000
0001
0100
0010
1000
0001
0100
0001
1000
0100
0010
0100
1000
,
0001
0010
0001
1000
0100
1000
0001
0100
0010
1000
0001
0100
0001
0010
0100
1000
,
0001
0010
0001
1000
0100
1000
0001
0100
0010
1000
0001
0100
0001
0010
0100
1000
,
0001
0100
0010
1000
0001
1000
0100
0010
0100
1000
0001
0010
0001
1000
0100
1000
,
0001
0100
0010
1000
0001
0100
0001
0010
0100
1000
0001
0010
0001
1000
0100
1000
,
0001
1000
0010
0100
0001
1000
0100
1000
0001
0010
0100
1000
0001
0010
0001
0100
,
0010
1000
0001
1000
0100
0010
0001
1000
0010
1000
0001
0010
0001
1000
0100
1000
,
0001
1000
0010
0100
0001
1000
0010
1000
0001
0010
0100
1000
0100
0010
0001
1000
,
0010
0000
0M00
000M
0M00
000M
0000
0000
2000
0000
0000
0000
0000
0000
0000
0000
,
3010
0000
0000
0000
0000
0000
0100
0000
0000
0001
0000
0000
1000
0000
0000
0010
0000
0000
0100
0000
0000
0000
0000
0000
0010
0000
0000
0100
0000
0000
0001
0000
1000
0000
0001
0000
2000
0000
0000
0000
0000
0000
3000
0000
0000
0000
0000
0000
,
0100
0010
0001
1000
0010
0100
0001
1000
0100
0010
0001
1000
0100
1000
0010
0100
,
0001
1000
0100
1000
0010
0100
0001
1000
0001
0010
0100
1000
0001
1000
0010
0100
,
0001
1000
0010
1000
0001
0100
0010
1000
0100
1000
0001
0010
0001
1000
0100
0010
,
0001
1000
0100
1000
0001
0100
0010
1000
0001
0100
0001
1000
0100
1000
0010
0100
,
0001
1000
0001
0010
0100
1000
0001
0010
0001
1000
0100
1000
0001
0100
0001
1000
,
0010
0100
0001
1000
0100
1000
0001
0100
0010
1000
0001
0010
0001
0100
0010
1000
,
0001
0100
0001
1000
0100
0010
0001
1000
0100
1000
0001
0100
0010
1000
0001
0100
,
0001
0010
0100
1000
0001
0010
0001
0100
0010
1000
0001
1000
0100
0010
0001
1000
,
0100
1000
0001
0100
0010
1000
0001
0010
0100
1000
0001
0010
0001
1000
0100
1000
,
0001
0100
0010
1000
0001
0100
0001
1000
0010
1000
0100
0010
0001
1000
0100
1000
,
0001
0010
0001
0100
0010
1000
0001
0100
0010
0100
0001
1000
0100
0010
0100
1000
,
0001
0010
0001
1000
0100
0010
0100
1000
0001
0010
0001
1000
0001
0100
0010
1000
,
0100
1000
0001
0010
0100
1000
0001
0100
0001
0010
0100
1000
0001
1000
0010
0100
,
0001
1000
0100
0010
0100
1000
0001
0100
0010
0100
0001
1000
0100
1000
0001
1000
,
0010
0100
0001
0100
0010
1000
0001
1000
0100
0010
0001
1000
0100
1000
0010
0100
,
0001
0000
0000
0000
0000
0000
0000
0000
0000
0000
1000
0000
0000
0000
0000
0000
0000
0000
0000
0001
0000
0000
0000
0000
0000
0000
0000
0000
0000
1000
0000
0000
0000
0000
0000
0000
0000
0000
0001
0000
0000
0000
0000
0000
0000
0000
0000
0000
1000
0000
0000
0000
0000
0000
0000
0000
0000
0000
0000
0000
0000
0000
0000
0000
0100
0000
0000
0000
0000
0000
0000
0000
0000
0000
0000
0000
0000
0000
0000
0000
0010
0000
0000
0000
0000
0000
0000
0000
0000
0000
0000
0000
0000
0000
0000
0000
0001
0000
0000
0000
0000
0000
0000
0000
0000
0000
0000
0000
1000
0000
0000
0000
0000
0000
0000
0000
0000
0000
0000
0000
0020
0000
0000
0000
0000
0000
0000
0000
0000
0000
0000
0000
0000
0000
0000
0000
0000
0000
0000
0000
0000
0000
0000
0000
0230
0000
0000
0000
0000
0000
0000
0000
0000
0000
0000
0000
0000
0000
0000
0000
0000
0000
0000
0000
0000
0000
0000
0000
0000
0000
0000
0000
0000
0000
0000
0000
0000
0000
0000
0000
0000
0000
0000
0000
0000
0000
0000
0000
0000
0000
0000
0000
,
0301
1000
0010
0100
0001
1000
0001
0010
0100
1000
0001
0100
0001
1000
0001
0010
,
0100
1000
0001
1000
0010
0100
0001
1000
0010
1000
0001
0100
0001
1000
0001
0010
,
0100
1000
0001
0100
0001
1000
0100
0010
0001
1000
0100
1000
0010
0100
0001
1000
,
0010
1000
0001
0100
0001
1000
0001
0010
0100
1000
0001
0100
0001
1000
0010
1000
,
0100
0010
0001
1000
0001
0100
0010
1000
0001
0100
0001
1000
0010
1000
0100
0010
,
0001
1000
0100
1000
0010
0100
0001
1000
0010
1000
0001
0100
0001
1000
0001
0010
,
0100
1000
0001
0100
0001
1000
0100
0010
0001
1000
0100
1000
0010
0100
0001
1000
,
0001
0010
0100
1000
0001
0100
0001
1000
0001
0010
0100
1000
0100
1000
0001
0010
,
0001
0100
0010
1000
0001
0100
0001
1000
0100
0010
0001
1000
0001
0100
0010
1000
,
0001
0100
0001
1000
0010
1000
0001
0010
0001
1000
0001
0100
0010
1000
0001
0100
,
0001
1000
0001
0010
0100
1000
0100
0010
0001
1000
0010
0100
0001
0100
0010
1000
,
0001
0100
0001
1000
0100
0010
0001
1000
0100
1000
0001
0100
0001
1000
0100
0010
,
0001
1000
0100
1000
0010
0100
0001
1000
0100
1000
0001
0100
0001
0010
0100
1000
,
0001
1000
0010
0100
0001
1000
0010
1000
0001
0010
0001
0100
0010
1000
0001
0100
,
0001
1000
0100
0010
0001
1000
0100
1000
0001
1000
0100
0010
0100
1000
0001
0100
,
0020
0000
0000
2030
0000
0000
3002
0000
0000
0000
0000
0003
0000
0000
0000
0000
,
2MM2
0MM0
0MM0
0MM0
3MM3
0MM0
MMMM
0000
0000
0000
0000
0000
0000
0000
0000
0000
,
0000
0000
0000
0000
,
0000
0000
0000
0000
0000
M000
0000
0000
0M00
0000
00M0
0000
0M00
0000
M000
0000
,
000M
0000
0000
000M
0000
0000
0M00
0000
0000
00M0
0000
0000
M000
0000
0M00
0000
,
0000
0000
0000
0000
00M0
0000
0000
0M00
0000
0000
M000
0000
0000
000M
0M00
00M0
,
M000
000M
M000
0M00
00M0
000M
M000
000M
0M00
00M0
M000
000M
00M0
0M00
M000
000M
,
00M0
000M
0M00
00M0
M000
000M
0M00
000M
M000
000M
00M0
0M00
M000
000M
00M0
0M00
,
00M0
0000
0000
000M
0000
0000
M000
0000
0000
0M00
0000
0000
00M0
0000
0M00
0000
,
2MM1
0000
0000
0000
0000
0000
3200
0000
0300
0000
0000
0020
0000
0030
0000
0000
,
0002
0000
0000
0000
0003
2000
0000
0000
0000
0000
3000
0000
0002
0000
0003
0000
,
0200
0000
0000
0000
0000
0300
0020
0000
0000
0000
2030
0000
3000
0000
0000
0000
,
0002
0000
0000
0023
0000
0000
0230
0300
,
2000
0000
0000
3002
0003
0000
0200
0300
,
0020
0000
0000
0000
0000
0030
2000
0000
0000
0000
0000
0000
3002
0000
0003
0000
,
0020
0000
0000
0230
0000
0300
2000
0000
,
3002
0000
0000
0000
0000
0000
0000
0000
0000
0000
0000
0000
0003
0000
0000
0000
0000
0000
0000
0000
0000
0020
0000
0000
0000
0000
0000
0000
0000
0000
0000
0000
0000
0000
0000
0000
0130
0000
0000
0000
0000
0000
1000
0000
0001
0000
1000
0000
,
0001
0100
0010
1000
0001
0100
0001
1000
0100
0010
0001
1000
0100
1000
0010
0100
,
0001
1000
0010
1000
0001
0100
0001
1000
0001
0010
0100
1000
0001
0010
0001
1000
,
0100
1000
0001
0100
0010
1000
0001
0100
0001
1000
0010
1000
0001
0100
0010
1000
,
0001
0100
0001
1000
0010
1000
0001
0100
0001
1000
0100
0010
0001
1000
0100
1000
,
0010
0100
0001
1000
0010
1000
0001
0100
0001
1000
0100
0010
0001
1000
0100
1000
,
0010
0100
0001
1000
0010
1000
0001
0100
0001
1000
0100
0010
0001
1000
0100
1000
,
0001
0100
0010
0100
0001
1000
0010
1000
0100
0010
0001
1000
0001
0100
0010
1000
,
0001
0100
0001
1000
0001
0010
0100
1000
0001
0100
0001
1000
0010
1000
0001
0100
,
M010
0000
000M
0M00
000M
0M00
2000
0000
0000
0000
0000
0000
0000
0000
0000
0000
,
3001
0000
0000
0000
0000
0000
0010
0000
0000
0001
0000
0000
0010
0000
0000
0100
0000
0000
1000
0000
0000
0000
0000
0000
0001
0000
0000
1000
0000
0000
0001
0000
0100
0000
0010
0000
1000
0000
0000
0000
0000
0000
0000
0000
0000
0000
0000
0000
,
1000
0010
1000
0001
0010
0100
1000
0001
0010
0001
0100
0010
1000
0001
0010
0001
,
1000
0010
1000
0001
0010
0100
1000
0010
1000
0001
0010
0001
0100
0010
1000
0001
,
0010
0100
1000
0001
0010
0001
1000
0010
0100
0001
1000
0100
0010
0001
1000
0100
,
0010
0100
1000
0001
0100
0001
1000
0001
0100
0010
0100
0001
1000
0010
1000
0001
,
1000
0100
0010
0001
1000
0100
0010
0100
1000
0001
0100
0001
0010
0100
1000
0001
,
0100
0010
1000
0001
1000
0010
0100
0001
1000
0100
1000
0001
0010
0001
1000
0010
,
1000
0100
0010
0100
1000
0001
0100
0001
1000
0001
0100
0010
0100
0001
1000
0010
,
1000
0001
0100
0001
0010
0100
1000
0001
1000
0010
0100
0001
1000
0010
1000
0001
,
0100
0001
1000
0100
0010
0001
1000
0100
1000
0001
0100
0010
1000
0001
0100
0001
,
1000
0100
0010
0001
1000
0100
0010
0100
1000
0100
0010
0001
1000
0001
0100
0010
,
0100
0001
1000
0010
1000
0001
0100
0001
1000
0001
0010
0100
1000
0001
0100
0001
,
1000
0100
1000
0010
0100
0001
1000
0010
1000
0001
0100
0001
1000
0001
0010
0100
,
1000
0100
0010
0001
0100
0001
1000
0001
0100
0010
1000
0001
1000
0100
0010
0001
,
1000
0010
0100
0001
0100
0010
1000
0001
0100
0001
1000
0001
0010
0100
1000
0001
,
1000
0010
0100
0001
1000
0010
1000
0001
0100
0001
1000
0001
0010
0100
1000
0001
,
0100
0001
1000
0001
0100
0010
0100
0001
1000
0010
1000
0001
1000
0100
0010
0001
,
1000
0100
1000
0010
0100
0001
1000
0001
0100
0010
1000
0001
0100
0001
1000
0001
,
0010
0100
1000
0001
0100
0001
1000
0010
1000
0001
0100
0010
0100
0001
1000
0010
,
1000
0001
0100
0001
1000
0100
0010
0001
1000
0100
1000
0001
0100
0010
1000
0001
,
0100
0001
1000
0100
0010
0100
1000
0001
0100
0001
1000
0100
1000
0001
0010
0100
,
1000
0001
1000
0010
0100
0001
1000
0010
1000
0001
0100
0001
1000
0100
0010
0001
,
0100
0001
1000
0010
1000
0001
0100
0010
1000
0001
1000
0100
0010
0001
1000
0010
,
0100
0001
1000
0010
1000
0001
0100
0001
1000
0001
0010
0100
1000
0001
1000
0100
,
0010
0001
1000
0001
0100
0001
0010
0100
1000
0010
1000
0001
0100
0001
1000
0010
,
0100
0001
1000
0010
1000
0100
0010
0001
1000
0100
1000
0001
0100
0010
0100
0001
,
1000
0010
1000
0001
0100
0001
0010
0100
1000
0001
1000
0100
0010
0001
1000
0100
,
1000
0010
0100
0001
1000
0010
1000
0001
0100
0001
1000
0001
0010
0100
1000
0001
,
0100
0001
1000
0010
1000
0100
0010
0001
1000
0100
0010
0100
1000
0001
0100
0001
,
1000
0100
0010
0001
1000
0100
1000
0010
0100
0001
0100
0010
1000
0001
0100
0001
,
1000
0001
0010
0100
1000
0100
0010
0001
0100
0001
1000
0010
1000
0001
0100
0010
,
1000
0001
0100
0001
1000
0100
0010
0001
1000
0100
0010
0100
1000
0001
0010
0001
,
0100
0010
1000
0001
0100
0001
1000
0010
1000
0100
0010
0001
1000
0001
0100
0010
,
1000
0000
0100
0000
0010
0000
0001
0000
1000
0000
0001
0000
0100
0010
1000
0001
,
1000
0100
0010
0001
0010
0100
1000
0001
,
0100
0000
0010
0000
1000
0000
0001
0000
0010
0000
0100
0000
1000
0001
1000
0010
,
0100
0000
0001
0000
0010
0000
0001
1000
0001
0100
0010
0000
1000
0100
1000
0001
,
0010
0000
0100
0000
1000
0000
0100
0000
0010
0000
0001
0000
0010
0100
1000
0001
,
0100
0010
1000
0001
0010
0001
0100
0010
,
1000
0000
0001
0000
1000
0000
0100
0000
0010
0000
0001
0000
1000
0001
1000
0100
,
0010
0000
0001
0000
0010
0000
0100
1000
0100
0010
0001
1000
0001
0000
0100
0010
,
1000
0000
0001
0000
0010
0000
0100
0000
1000
0000
0001
0000
1000
0100
1000
0001
,
0010
0100
0010
0001
0100
0010
1000
0001
,
1000
0000
0100
0000
0010
0000
0100
0000
1000
0000
0001
0000
0100
0010
1000
0001
,
1000
0000
0100
0000
0010
0000
0001
0010
0100
0000
1000
0000
0001
1000
0001
0100
,
0010
0000
1000
0000
0100
0000
1000
0000
0010
0000
0100
0000
0001
0010
0001
1000
,
0100
0010
0100
1000
0001
0100
0010
1000
,
0001
0000
0010
0000
0100
0000
1000
0000
0001
0000
1000
0000
0010
0100
0001
1000
,
0001
0000
0010
0000
0100
0000
1000
0001
1000
0100
0010
0000
0001
0000
0010
0100
,
1000
0000
0001
0000
0100
0000
0010
0000
1000
0000
0001
0000
0010
0100
1000
0001
,
0010
0100
1000
0001
0100
0001
0010
0100
,
1000
0000
0001
0000
1000
0000
0010
0000
0100
0000
0001
0000
1000
0100
1000
0001
,
0100
0000
0010
0000
1000
0000
0001
0010
0001
0000
1000
0000
0100
0010
0001
1000
,
0001
0000
0100
0000
0010
0000
1000
0000
0001
0000
1000
0000
0100
0010
0100
1000
,
0001
0100
0010
1000
0001
0010
0001
1000
,
0010
0000
0100
0000
0001
0000
1000
0000
0001
0000
0010
0000
0100
1000
0100
0010
,
0001
0000
1000
0000
0001
0000
0100
0010
1000
0001
1000
0000
0100
0000
0010
0001
,
1000
0000
0001
0000
0100
0000
0010
0000
1000
0000
0001
0000
1000
0100
1000
0001
,
0010
0100
1000
0001
0100
0010
1000
0001
,
0100
0000
0001
0000
0010
0000
0100
0000
1000
0000
0001
0000
1000
0100
0010
0001
,
0010
0000
0100
0000
1000
0000
0001
0100
0010
0000
1000
0000
0001
1000
0100
0010
,
0100
2000
0000
0000
0000
3000
0000
0002
0000
0000
0003
0000
0000
0000
0200
0000
,
0000
0000
0300
0000
0000
0000
0000
0000
0000
0020
0000
0000
2030
0000
0000
3000
,
0000
0002
0000
0000
0023
0000
0000
0230
,
0000
0000
0000
0000
0000
0300
0000
0000
,
2MM2
0MM0
0MM0
0MM0
0MM0
0MM0
0MM0
0MM0
3MM3
0MM0
0MM0
0MM0
0MM0
0000
0000
0000
;
