#TITLE:Battle #3;
#SUBTITLE:Legacy;
#ARTIST:Hellion Sounds;
#TITLETRANSLIT:;
#SUBTITLETRANSLIT:;
#ARTISTTRANSLIT:;
#CREDIT:;
#BANNER:bn.png;
#BACKGROUND:bg.png;
#LYRICSPATH:;
#CDTITLE:!DoppCdtitle.png;
#MUSIC:05 - Hellion Sounds - battle 3.mp3;
#OFFSET:0.133;
#SAMPLESTART:43.200;
#SAMPLELENGTH:11.980;
#SELECTABLE:YES;
#BPMS:0.000=134.000;
#STOPS:;
#BGCHANGES:;
// cache tags:
#FIRSTBEAT:0.500;
#LASTBEAT:411.000;
#SONGFILENAME:Songs/Astronomic Metal Collection 2/(Doppelganger) Battle 3/05 - Hellion Sounds - battle 3.sm;
#HASMUSIC:1;
#HASBANNER:1;
#MUSICLENGTH:253.052;
// end cache tags

//---------------dance-single - ----------------
#NOTES:
     dance-single:
     :
     Hard:
     12:
     1.000,1.000,1.000,0.328,1.000,1284.000,400.000,83.000,0.000,34.000:
0000
0000
0020
0000
1031
0100
0010
0001
0000
0010
0100
0001
0000
0010
0100
0001
,
0000
0010
1000
0000
1001
0100
0010
1001
0000
0010
0100
0001
0000
0010
0100
0001
,
0000
0010
1000
0000
1001
0100
1010
0101
0000
0011
0100
0001
0000
1010
0100
0001
,
0000
0011
1100
0000
1001
0100
1010
0101
0000
0010
1001
0100
0000
0100
1010
0101
,
0000
0011
1100
0000
0202
0000
0000
0000
0000
0000
0000
0000
0000
0000
0000
0000
,
0000
0000
0000
0000
0000
0000
0000
0000
0000
0000
0000
0000
0000
0000
0000
0303
0102
0000
0000
0000
0000
0000
0000
0000
0000
0000
0000
0000
0000
0000
0000
0000
0000
0000
0000
0000
0000
0000
0000
0000
0000
0000
0000
0000
0000
0000
0000
0000
0000
0000
0000
0000
0000
0000
0000
0000
0000
0000
0000
0000
0000
0000
0000
0000
,
0000
0000
0000
1003
0000
0000
0010
0000
0100
0000
0010
0000
0001
0000
0010
0000
0100
0000
1000
0000
0010
0000
1000
0000
0100
0000
1000
0000
0100
0000
0010
0000
0001
0000
0100
0000
1000
0000
0100
0000
0001
0000
0100
0000
1000
0000
0010
0000
,
0100
1000
0100
0010
0001
0100
1000
0100
0010
0001
0100
0001
1000
0100
1000
0100
0010
0001
0100
0010
1000
0001
0010
0100
,
1000
0100
1000
0010
0100
1000
0001
0100
1000
0100
0001
0100
0001
0010
1000
0010
0001
0100
0010
1000
0001
1000
0010
0100
,
1000
0100
0010
0100
1000
0100
0001
0010
1000
0010
1000
0100
0010
0100
0010
0001
0100
0001
0010
1000
0001
0100
0001
0010
,
0100
0000
1000
0000
0010
0000
0100
0000
1000
0000
0001
0000
0100
0000
0000
1000
0000
0000
0101
0000
0000
1000
0000
0000
1000
0000
0000
0011
0000
0000
0100
0000
0000
0101
0000
0000
1010
0000
0000
0001
0000
0000
1100
0000
0000
1001
0000
0000
,
0010
0010
1100
0000
0010
0001
1010
0001
0001
1100
0010
1010
0101
1000
0011
1001
,
0100
0100
0011
0000
0100
1000
0101
1000
1000
0011
0100
0101
1010
0001
1100
1001
,
0010
0010
1100
0000
0010
0001
1010
0001
0001
1100
0010
1010
0101
1000
0011
1001
,
0100
0100
0011
0000
1001
0100
0010
0001
0000
0010
0100
0001
0000
0010
0100
0001
,
0000
0010
1000
0000
1001
0100
0010
0001
0000
0010
0100
0001
0000
0010
0100
0001
,
0000
0010
1000
0000
1001
0100
0010
0001
0000
0010
0100
0001
0000
0010
0100
0001
,
0000
0010
1000
0000
1001
0100
0010
0001
0000
0010
0100
0001
0000
0010
0100
0001
,
0000
0010
1000
0000
1001
0100
1010
0101
0000
0011
0100
0001
0000
1010
0100
0001
,
0000
0011
1100
0000
1001
0100
1010
0101
0000
0011
0100
0001
0000
1010
0100
0001
,
0000
0011
1100
0000
1001
0100
1010
0101
0000
0011
0100
0001
0000
1010
0100
0001
,
0000
0011
1100
0000
1001
0100
1010
0101
0000
0010
1001
0100
0000
0100
1010
0101
,
0000
0011
1100
0000
0111
0000
1000
0000
1000
0000
1000
0000
1000
0000
1000
0000
,
1000
0000
0000
0000
0000
0000
1000
0000
0000
0000
0000
0000
1010
0000
0000
0100
0000
0000
0100
0000
0000
0011
0000
0000
1100
0000
0000
0010
0000
0000
1000
0000
0000
0101
0000
0000
1010
0000
0000
0001
0000
0000
0100
0000
0010
0000
0100
0000
,
1001
0000
0110
0000
1000
0100
0011
0000
1020
0000
0000
0000
0001
0000
0000
0000
0100
0000
0100
0000
0001
0000
0030
0000
1010
0000
0001
0000
0100
0000
0011
0000
,
0000
0011
1000
0000
1002
0000
0010
0000
0100
0103
0011
0100
2010
0000
0001
0100
,
3000
0100
0011
0000
1200
0000
0001
0000
0010
0010
1301
0010
1001
0000
0101
1000
,
0000
1010
0001
0000
1020
0000
0001
0000
0100
0100
0001
0030
1010
0100
0011
1100
,
0010
1001
0100
0011
1020
0000
0001
0000
0100
0100
0001
0030
1010
0001
1100
0010
,
0101
0010
1100
0000
1002
0000
0010
0000
0100
0103
0011
0100
2010
0000
0001
0100
,
3000
0100
0011
0000
1200
0000
0001
0000
0010
0010
1301
0010
1001
0000
0101
1000
,
0000
1010
0001
0000
1010
0000
1001
0010
0010
0100
0011
0000
0100
0010
0100
1000
,
0101
1010
1101
0000
1020
0000
0001
0000
0100
0100
0001
0030
1010
0001
0100
0011
,
0000
0011
1000
0000
1002
0000
0010
0000
0100
0103
0011
0100
2010
0000
0001
0100
,
3000
0100
0011
0000
1200
0000
0001
0000
0010
0010
1301
0010
1001
0000
0101
1000
,
0000
1010
0001
0000
1010
0000
1001
0000
0100
0100
0011
0000
1000
0100
0011
1100
,
0010
0100
1001
0010
0100
0000
0011
0000
1020
0000
0000
0000
1001
0000
0000
0000
0100
0000
0100
0000
0001
0000
0030
0000
1010
0000
0001
0000
0100
0000
0011
0000
,
0000
0011
1000
0000
1002
0000
0010
0000
0100
0103
0011
0100
2010
0000
0001
0100
,
3000
0100
0011
0000
1200
0000
0001
0000
0010
0010
1301
0010
1001
0000
0101
1000
,
0000
1010
0001
0000
1010
0000
1001
0010
0010
1100
0011
0000
1000
0100
0011
1100
,
0010
0101
1000
0000
1010
0100
1000
0010
0000
0001
1000
0010
0000
0001
1000
0010
,
0000
0001
1000
0000
1010
0100
1000
0010
0000
0001
1000
0010
0000
0001
1000
0010
,
0000
0001
1000
0000
1010
0100
1000
0010
0000
0001
1000
0010
0000
0001
1000
0010
,
0000
0001
1000
0100
2001
0000
0100
3012
0000
0000
0100
0010
1003
0100
0011
1100
,
0010
0000
0000
0000
1001
0000
0000
0000
0110
0000
0000
0000
0101
0000
0000
0000
2020
0000
0000
0000
0000
0000
0000
0000
0000
0000
0000
0000
0000
0000
0000
0000
0000
0000
0000
0000
0000
0000
0000
0000
0000
0000
0000
0000
0000
0000
0000
0000
0000
0000
0000
0000
0000
0000
0000
0000
3030
0000
0000
0000
0000
0000
0100
2000
,
0002
0000
3003
0000
0020
0000
0000
0230
0000
0000
2300
0000
3200
0000
0000
0000
,
0300
0000
0010
0001
0200
0000
0000
2300
0000
0000
3020
0000
0230
0000
0000
0320
,
0000
0000
0000
0000
0000
0000
0000
0000
0032
0000
0000
0000
0000
0000
0000
0000
0023
0000
0000
0000
0000
0000
0000
0000
0000
0000
0000
0000
0000
0000
0000
0000
0000
0000
0000
0000
0000
0000
0000
0000
0000
0000
0000
0000
0030
0000
0002
1000
0200
0000
0000
0000
0000
0000
0000
0000
0000
0000
0000
0000
0000
0000
0000
0000
,
0303
0000
0000
0000
1010
0000
1001
0000
1000
1000
0110
0000
0101
1000
0100
1010
,
0000
0010
0101
0000
1001
0000
1010
0000
0100
0100
1010
0000
1001
0110
0001
0100
,
0000
0100
0011
0000
1100
0000
1001
0000
1000
1000
0101
0010
1001
0000
1010
0100
,
0000
0100
1001
0000
0101
0000
1001
0000
0100
0100
0011
0000
1000
0100
0011
1100
,
0010
1001
0100
0011
1010
0000
1011
0000
1000
1000
0110
0000
0101
1000
0110
0001
,
1100
0010
0101
0000
1001
0000
1010
0000
0100
0100
1010
0000
1001
0100
1010
0001
,
0000
0001
0110
0100
1100
0000
1001
0000
1000
1000
0101
0010
1001
0000
1010
0100
,
0000
0100
1001
0000
0101
0000
1001
0010
0010
1100
0011
0000
0110
1010
0101
0010
,
0100
1010
1001
0000
0200
0000
0000
0320
0000
0000
0032
0000
0203
0000
0000
0000
,
0000
0300
1000
0010
0002
0000
0000
0000
0000
0003
0002
0000
0203
0000
0000
0000
,
2300
0000
0000
0000
3101
0010
1000
0011
0100
0001
1100
0001
0110
1000
0100
0011
,
1100
0011
1000
0001
0101
0010
0101
1010
0100
0011
1100
0001
0110
1000
0011
0100
,
1010
0101
1010
0001
0200
0000
0000
0320
0000
0000
0032
0000
0203
0000
0000
0000
,
0000
0300
1000
0010
0102
0000
0000
0000
0000
0000
0000
0000
0213
0000
0000
0000
,
2300
0000
0000
3000
1011
0100
0010
1101
0010
1000
0111
1000
0110
1001
1100
0010
,
0101
0000
1010
0000
0101
0000
1000
0000
1011
0000
0100
0000
1010
0000
0101
0000
0010
0000
1100
0000
0011
0000
1000
0000
0110
0000
0001
0000
1100
0000
0010
1000
,
0001
0010
0100
1000
0110
0000
0101
0000
0001
0010
0100
1010
0000
0110
0000
1010
,
0100
0110
1000
0000
1001
0000
1100
0000
0100
0001
1000
0011
0000
1001
0020
0000
,
0030
0010
0001
0100
0110
0000
0101
0000
0001
0010
0100
1010
0000
0110
0000
1010
,
0100
0110
1000
0000
1001
0000
1100
0000
0100
0001
1000
0202
0000
0000
0000
0000
,
0303
0011
0001
1000
0110
0000
0101
0000
0011
0010
0100
1010
0000
0110
0010
1010
,
0100
0110
1000
0000
1001
0000
1100
0000
0100
0001
1001
0011
0000
1001
1020
0000
,
0030
0011
0001
0100
0110
0000
0101
0000
0011
0010
0100
1010
0000
0110
0000
1010
,
0100
0110
1000
0000
1001
0000
1100
0000
0100
0001
1000
1002
0000
0000
1000
0000
,
1000
0000
0000
0000
1000
0000
0000
0000
1000
0000
0000
0000
1000
0000
0000
0000
0000
0000
1000
0010
1103
0000
0000
0000
0101
0000
0010
0000
1000
0000
0010
0000
,
0000
0000
0100
0000
0000
0000
0010
0000
0000
0000
0001
0000
0000
0000
0010
0000
0000
0000
1000
0000
0000
0000
0010
0001
0010
0001
0000
0000
0000
0000
0000
0000
,
1000
0000
0010
0000
0000
0000
0002
0000
0000
0000
0000
0000
0000
0000
0003
0000
0110
0000
0001
0000
0000
0000
0010
1000
0010
1000
0000
0000
0100
0000
0010
0000
,
0001
0000
0000
0000
0000
0000
0000
0000
0000
0000
0000
0000
0100
0000
0000
0000
0000
0000
0000
0000
0000
0000
0000
0000
1000
0000
0000
0000
0000
0000
0000
0000
0000
0000
0000
0000
0100
0000
0000
0000
0000
0000
0000
0000
0000
0000
0000
0000
0001
0000
0000
0000
0000
0000
0000
0000
0000
0000
0000
0000
0100
0000
0000
0000
0000
0000
0000
0000
0000
0000
0000
0000
0010
0000
0000
0000
0000
0000
0000
0000
0000
0000
0000
0000
2000
0000
0000
0000
0000
0000
0000
0000
0000
0000
0000
0000
0000
0000
0000
0000
0000
0000
0000
0000
0000
0000
0000
0000
3010
0000
0000
0000
0000
0000
0001
0000
0000
0000
0000
0000
0100
0000
0000
0000
0000
0000
0000
0000
0010
0000
0000
0000
0000
0000
0000
0000
0001
0000
0000
0000
0000
0000
0000
0000
0010
0000
0000
0000
0000
0000
0000
0000
0000
0000
0000
0000
0100
0000
0000
0000
0000
0000
0000
0000
0000
0000
0000
0000
0010
0000
0000
0000
0000
0000
0000
0000
0100
0000
0000
0000
0000
0000
0000
0000
0010
0000
0000
0000
0000
0000
0000
0000
,
0100
1000
0100
0010
0202
0000
0000
1000
0323
0000
1000
0000
1031
0000
0100
1001
,
0010
1000
0001
0010
1000
0000
1001
0010
1101
0010
0001
1000
0110
0000
1001
0010
,
1100
0001
0010
1000
0101
0010
1000
0111
0000
0101
1000
0000
1011
0100
0011
1100
,
0000
0000
0100
0000
0011
0000
1000
0000
1011
0000
0000
0000
0000
0000
0100
0000
1000
0100
0010
0000
0100
0001
0010
0000
0010
0000
0001
0000
0010
0000
0001
0000
,
0100
1000
0010
0100
0001
1000
0010
0100
0001
0010
0100
1000
0100
0010
0101
0000
,
0100
0000
0000
0011
0000
0000
0000
0000
0000
0001
0000
0000
1100
0000
0000
0000
0000
0000
0100
0000
0000
0110
0000
0000
1000
0000
0000
0011
0000
0000
1100
0000
0000
0001
0000
0000
0001
0000
0100
0000
0010
0000
0001
0000
1000
0000
0100
0000
,
0010
0100
0001
1000
0010
0001
0010
0100
0001
0100
0001
0010
1000
0100
0010
0100
0010
0001
0010
0100
1000
0100
0010
1000
,
0100
0010
0100
0001
1000
0001
0100
0001
0100
0010
1000
0001
0010
0001
0010
1000
0100
0000
0100
0010
1000
0010
0100
0010
,
1000
0000
0100
0000
0001
0000
0010
0000
0100
0000
0001
0000
0100
0000
0010
0000
1000
0000
0100
0000
0010
0000
1000
0000
0100
0000
1000
0000
0001
0000
1000
0000
0100
0000
0010
0000
1000
0000
0000
0010
0000
0000
0101
0000
0000
0010
0000
0000
,
1100
0011
0100
0010
0100
0011
1000
0100
0011
1000
0010
0101
2022
0000
3033
0000
,
1000
0010
0100
0000
1000
0001
0100
0000
1000
0010
0100
0000
1000
0001
0100
0000
1000
0010
0100
0000
1000
0001
0100
0000
2220
0000
0000
0000
0000
0000
3332
0000
,
0000
0000
0023
0000
0230
0000
0000
2300
0000
0000
3020
0000
0230
0000
0000
0000
,
0000
0000
0000
0000
1001
0000
0000
1001
0000
0000
1301
0000
0010
0100
0010
0101
,
1000
0010
0101
0010
1001
0100
0010
0100
0011
0000
1110
0022
0033
0011
1100
0001
,
0010
0000
1000
0000
0010
0000
0100
0000
0002
0000
0000
0000
0000
0000
0023
0000
0000
0000
0000
0000
0230
0000
0000
0000
0310
0001
0010
0001
0100
0010
0100
0010
,
0100
0001
0100
0001
0010
1000
0010
1000
0100
0010
0100
0010
0001
0100
0001
0100
0010
0001
0010
0001
1000
0001
1000
0001
0020
0000
0000
0000
0000
0000
0000
0000
,
0000
0000
0001
0100
1000
0100
0000
0000
0001
1000
0001
1000
1031
0100
0010
0001
,
0000
0010
0100
0001
0000
0010
0100
0001
0000
0010
1000
0000
1001
0100
0010
0001
,
0000
0010
0100
0001
0000
0010
0100
0001
0000
0010
1000
0000
1001
0100
0010
0001
,
0000
0010
0100
0001
0000
0010
0100
0001
0000
0010
1000
0000
1001
0100
0010
0001
,
0000
0010
0100
0001
0000
0010
0100
0001
0000
0010
1000
0000
1001
0100
1010
0101
,
0000
0011
0100
0001
0000
1010
0100
0001
0000
0011
1100
0000
1001
0100
1010
0101
,
0000
0011
0100
0001
0000
1010
0100
0001
0000
0011
1100
0000
1001
0100
1010
0101
,
0000
0011
0100
0001
0000
1010
0100
0001
0000
0011
1100
0000
1001
0100
1010
0101
,
0000
0010
1001
0100
0000
0100
1010
0101
0000
0011
1100
0000
0111
0000
1000
0000
,
1000
0000
1000
0000
1000
0000
1000
0000
1000
0000
1000
0000
1010
0100
0100
0011
,
1100
0000
0000
0000
0000
0000
0000
0000
0000
0000
0000
0000
0010
0000
0000
0000
0000
0000
0000
0000
0000
0000
0000
0000
1000
0000
0000
0000
0000
0000
0000
0000
0000
0000
0000
0000
0101
0000
0000
0000
0000
0000
0000
0000
0000
0000
0000
0000
1010
0000
0000
0000
0000
0000
0000
0000
0000
0000
0000
0000
0001
0000
0000
0000
0000
0000
0000
0000
0000
0000
0000
0000
0100
0000
0000
0000
0000
0000
0000
0000
0010
0000
0000
0000
0000
0000
0000
0000
0100
0000
0000
0000
0000
0000
0000
0000
1001
0000
0000
0000
0000
0000
0000
0000
0000
0000
0000
0000
0110
0000
0000
0000
0000
0000
0000
0000
0000
0000
0000
0000
1000
0000
0000
0000
0000
0000
0100
0000
0000
0000
0000
0000
0011
0000
0000
0000
0000
0000
0000
0000
0000
0000
0000
0000
1101
0000
0000
0000
0000
0000
0000
0000
0000
0000
0000
0000
0000
0000
0000
0000
0000
0000
0000
0000
0000
0000
0000
0000
0000
0000
0000
0000
0000
0000
0000
0000
0000
0000
0000
0000
0000
0000
0000
0000
0000
0000
0000
0000
0000
0000
0000
0000
;
