#TITLE:XP Sounds;
#SUBTITLE:;
#ARTIST:Robbi-985;
#TITLETRANSLIT:;
#SUBTITLETRANSLIT:;
#ARTISTTRANSLIT:;
#CREDIT:Arch0wl;
#BANNER:xpsounds-bn.png;
#BACKGROUND:xpsounds-bg.png;
#LYRICSPATH:;
#CDTITLE:!Arch0wlTitle.png;
#MUSIC:xpsounds.ogg;
#OFFSET:0.024;
#SAMPLESTART:87.255;
#SAMPLELENGTH:17.525;
#SELECTABLE:YES;
#BPMS:0.000=110.000;
#STOPS:;
#BGCHANGES:0.000=xpsounds-bg.png=1.000=0=0=1,
99999=-nosongbg-=1.000=0=0=0 // don't automatically add -songbackground-
;
// cache tags:
#FIRSTBEAT:0.000;
#LASTBEAT:195.000;
#SONGFILENAME:Songs/Archmage and Dark0wl Hammer of Thor UltraHyperMegaPack/XP Sounds/xpsounds.sm;
#HASMUSIC:1;
#HASBANNER:1;
#MUSICLENGTH:105.000;
// end cache tags

//---------------dance-solo - Arch0wl----------------
#NOTES:
     dance-solo:
     Arch0wl:
     Challenge:
     14:
     1.000,1.000,1.000,0.048,1.000,647.000,331.000,5.000,0.000,131.000:
100000
000000
000000
000000
,
000000
100000
100000
000000
,
100000
001000
000000
000000
000000
000000
000000
000000
000000
000000
000000
000000
000000
000000
000000
000000
,
010000
010000
010000
010000
010000
010000
010000
010000
010000
010000
010000
010000
010000
010000
010000
010000
,
010000
000000
010000
000000
100000
000000
010000
000000
000000
000000
010000
000000
110000
000000
010000
010000
,
010000
000000
010000
000000
100000
000000
010000
000000
000000
000000
010000
000100
100100
000000
010100
000000
,
011001
010010
110001
011010
010001
011010
110001
011010
,
011001
010010
110001
011010
010001
011010
110001
011010
,
011100
010010
110100
011010
010100
011010
110100
011010
,
011100
010010
110100
011010
010100
011010
110100
011010
,
011001
010010
110001
011010
010001
011010
110001
011010
,
011001
010010
110001
011010
010001
011010
110001
011010
,
011102
010013
110100
011010
010100
011010
110100
011010
,
011102
010013
110100
011010
010100
011011
110100
011011
,
011100
000010
010001
000010
110100
000010
011001
000010
010100
000001
011010
000001
110100
000010
011001
000010
,
011100
000010
010001
000010
110100
000010
011001
000010
010100
000010
011100
000010
110100
000010
011100
000010
,
011100
000010
010001
000010
110100
000010
011001
000010
010100
000001
011010
000001
110100
000010
011001
000010
,
011100
000010
010001
000010
110100
000010
011001
000010
010100
000010
011100
000010
110001
000100
011010
000100
,
211100
000010
010001
000010
011100
000010
011001
000010
010100
000001
011010
000001
011100
000010
011001
000010
,
011100
000010
010001
000010
011100
000010
011001
000010
010100
000010
011100
000010
011100
000010
011100
300010
,
211100
000010
010001
000010
011100
000010
011001
000010
010100
000001
011010
000001
011100
000010
011001
000010
,
011100
000010
010001
000010
011100
000010
011001
000010
010100
000010
011100
000010
011001
000100
011010
000100
,
311001
000000
000000
000000
000000
000000
000000
000000
100000
000000
000000
000000
000010
000000
000000
000000
000000
000000
000000
000000
000000
000000
010000
000000
000000
000000
000000
000000
000000
000000
000000
000000
000000
000000
000000
000000
000000
000000
000000
000100
000000
000000
000000
000000
000000
000000
000000
002000
000000
000000
000000
000000
000000
000000
000000
000000
000000
000000
000000
000000
000000
000000
000000
000000
,
000000
000000
000000
000000
,
103100
000000
010000
000000
000000
000000
000100
000000
000000
000000
100000
000000
010100
000000
000000
000000
100000
000000
010000
000000
000100
000000
010000
001000
010000
000000
100000
000000
001100
000000
010000
000000
,
100100
000000
010000
000000
000000
000000
100100
000000
010000
000000
100000
010000
100100
000000
010000
000000
100000
000000
100000
000000
010100
000000
010100
000000
100000
000000
010100
000000
100100
000000
010100
000000
,
100100
000000
001000
000000
000000
000000
000100
000000
000000
000000
100000
000000
010100
000000
000000
000000
100000
000000
010000
000000
000100
000000
010000
001000
010000
000000
001000
000000
010100
000000
001000
000000
,
100100
000000
000000
000000
000000
000000
100100
000000
000000
000000
100000
010000
100100
000000
000000
000000
010000
000000
010000
000000
001100
000000
010100
000000
000000
000000
010100
000000
000100
000000
100100
000000
,
100100
000000
100000
000000
010000
000000
010100
000000
001000
000000
010000
000000
100100
000000
010000
000000
000000
000000
001000
010000
001100
000000
010000
000000
001000
000000
010000
000000
001100
000000
010000
000000
,
100100
000000
000000
000000
001000
000000
010100
000000
001000
010000
001000
010000
100100
000000
000000
000000
100000
000000
000000
000000
100100
000000
010100
000000
100000
000000
010100
000000
001100
010000
100100
010000
,
001100
000000
000000
000100
000000
001000
100100
000000
001000
100000
001100
010000
100000
010000
000100
100000
,
010100
000000
000000
000100
000000
001000
010100
100000
000000
100000
010100
001100
100000
001100
010100
001100
,
100100
000000
010000
000000
000001
000000
000100
000000
000010
000000
100000
000000
010101
000000
000000
000000
100000
000000
010000
000000
000101
000000
010000
001000
010010
000000
100000
000000
001101
000000
010000
000000
,
100100
000000
010000
000000
000001
000000
100100
000000
010010
000000
100000
010000
100101
000000
010000
000000
100000
000000
100000
000000
010101
000000
010100
000000
100010
000000
010100
000000
100101
000000
010100
000000
,
100100
000000
001000
000000
000001
000000
000100
000000
000010
000000
100000
000000
010101
000000
000000
000000
100000
000000
010000
000000
000101
000000
010000
001000
010010
000000
001000
000000
010101
000000
001000
000000
,
100100
000000
000000
000000
000001
000000
100100
000000
000010
000000
100000
010000
100101
000000
000000
000000
010000
000000
010000
000000
001101
000000
010100
000000
000010
000000
010100
000000
000101
000000
100100
000000
,
100100
000000
100000
000000
010001
000000
010100
000000
001010
000000
010000
000000
100101
000000
010000
000000
000000
000000
001000
010000
001101
000000
010000
000000
001010
000000
010000
000000
001101
000000
010000
000000
,
100100
000000
000000
000000
001001
000000
010100
000000
001010
010000
001000
010000
100101
000000
000000
000000
100000
000000
000000
000000
100101
000000
010100
000000
100010
000000
010100
000000
001101
010000
100100
010000
,
001100
000000
000001
000100
000010
001000
100101
000000
001000
100000
001101
010000
100010
010000
000101
100000
,
010100
000000
000001
000100
000010
001000
010101
100000
000000
100000
010101
001100
100010
001101
010110
001101
,
100110
000000
010001
000000
000100
000000
000001
000000
000010
000000
100100
000000
010010
000000
000001
000000
100100
000000
010010
000000
000100
000000
010001
001000
010100
000000
100010
000000
001001
000000
010010
000000
,
100100
000000
010001
000000
000100
000000
100010
000000
010100
000000
100010
010000
100001
000000
010010
000000
100100
000000
100001
000000
010010
000000
010001
000000
100100
000000
010010
000000
100100
000000
010001
000000
,
100010
000000
001100
000000
000001
000000
000010
000000
000001
000000
100100
000000
010010
000000
000100
000000
100001
000000
010010
000000
000100
000000
010000
001000
010001
000000
001010
000000
010100
000000
001010
000000
,
100001
000000
000100
000000
000001
000000
100100
000000
000010
000000
100100
010000
100001
000000
000010
000000
010100
000000
010001
000000
001010
000000
010001
000000
000100
000000
010001
000000
000010
000000
100001
000000
,
100001
000000
100001
000000
010010
000000
010010
000000
001100
000000
010010
000000
100001
000000
010010
000000
000100
000000
001010
010000
001100
000000
010010
000000
001100
000000
010001
000000
001010
000000
010001
000000
,
100100
000000
000010
000000
001001
000000
010010
000000
001100
010000
001001
010000
100010
000000
000001
000000
100100
000000
000010
000000
100100
000000
010001
000000
100100
000000
010010
000000
001001
010000
100010
010000
,
001100
000010
000100
000010
000001
001100
100010
000100
001001
100010
001001
010100
100010
010001
000010
100100
,
010001
000010
000100
000010
000001
000010
000100
000010
000001
000010
001100
000010
010001
000010
100100
000010
000001
000100
100010
000100
010001
000100
001010
000100
100001
000000
001100
000000
010010
000000
001100
000000
,
000001
000010
000100
001000
000010
000100
001000
010000
000100
001000
010000
100000
001000
010000
100000
000001
010000
100000
000001
000010
100000
000001
000010
000100
000001
000000
000000
000000
000000
000000
000000
000000
;

//---------------dance-single - Arch0wl----------------
#NOTES:
     dance-single:
     Arch0wl:
     Edit:
     25:
     1.000,1.000,1.000,0.029,1.000,647.000,302.000,3.000,0.000,44.000:
1000
0000
0000
0000
,
0000
1000
1000
0000
,
1000
0010
0000
0000
0000
0000
0000
0000
0000
0000
0000
0000
0000
0000
0000
0000
,
0100
0100
0100
0100
0100
0100
0100
0100
0100
0100
0100
0100
0100
0100
0100
0100
,
0100
0000
0100
0000
1000
0000
0100
0000
0000
0000
0100
0000
1100
0000
0100
0100
,
0100
0000
0100
0000
1000
0000
0100
0000
0000
0000
0100
0001
1001
0000
0101
0000
,
0101
0010
1100
0011
0100
0011
1100
0011
,
0101
0010
1100
0011
0100
0011
1100
0011
,
1001
0110
1001
0110
0001
0110
1001
0110
,
1101
0010
1001
1110
0001
1110
1001
1110
,
1101
0010
1100
1011
0100
1011
1100
1011
,
1101
0010
1100
1011
0100
1011
1100
1011
,
1102
0013
1100
1011
0100
1011
1100
1011
,
1102
0013
1100
1011
0100
1011
1100
0011
,
1101
0010
0001
0010
1100
0010
1001
0010
0100
0001
1010
0001
1100
0010
1001
0010
,
1100
0010
0001
0010
1100
0010
1001
0010
0100
0010
1100
0010
1100
0010
1100
0010
,
1100
0010
0001
0010
1100
0010
1001
0010
0100
0001
1010
0001
1100
0010
1001
0010
,
1100
0010
0001
0010
1100
0010
1001
0010
0100
0010
1100
0010
1001
0100
1010
0100
,
1100
0010
0001
0010
1100
0010
1001
0010
0100
0001
1010
0001
1100
0010
1001
0010
,
1100
0010
0001
0010
1100
0010
1001
0010
0100
0010
1100
0010
1100
0010
1100
0010
,
1100
0010
0001
0010
1100
0010
1001
0010
0100
0001
1010
0001
1100
0010
1001
0010
,
1100
0010
0001
0010
1100
0010
1001
0010
0100
0010
1100
0010
1001
0100
1010
0100
,
0010
0000
0000
0000
0000
0000
0000
0000
1000
0000
0000
0000
0100
0000
0000
0000
0000
0000
0000
0000
0000
0000
0010
0000
0000
0000
0000
0000
0000
0000
0000
0000
0000
0000
0000
0000
0000
0000
0000
0001
0000
0000
0000
0000
0000
0000
0000
0020
0000
0000
0000
0000
0000
0000
0000
0000
0000
0000
0000
0000
0000
0000
0000
0000
,
0000
0000
0000
0000
,
1031
0000
0100
0000
0000
0000
0001
0000
0000
0000
1000
0000
0101
0000
0000
0000
1000
0000
0100
0000
0001
0000
0100
0010
0100
0000
1000
0000
0011
0000
0100
0000
,
1001
0000
0100
0000
0000
0000
1001
0000
0100
0000
1000
0100
1001
0000
0100
0000
1000
0000
1000
0000
0101
0000
0101
0000
1000
0000
0101
0000
1001
0000
0101
0000
,
1001
0000
0010
0000
0000
0000
0001
0000
0000
0000
1000
0000
0101
0000
0000
0000
1000
0000
0100
0000
0001
0000
0100
0010
0100
0000
0010
0000
0101
0000
0010
0000
,
1001
0000
0000
0000
0000
0000
1001
0000
0000
0000
1000
0100
1001
0000
0000
0000
0100
0000
0100
0000
0011
0000
0101
0000
0000
0000
0101
0000
0001
0000
1001
0000
,
1001
0000
1000
0000
0100
0000
0101
0000
0010
0000
0100
0000
1001
0000
0100
0000
0000
0000
0010
0100
0011
0000
0100
0000
0010
0000
0100
0000
0011
0000
0100
0000
,
1001
0000
0000
0000
0010
0000
0101
0000
0010
0100
0010
0100
1001
0000
0000
0000
1000
0000
0000
0000
1001
0000
0101
0000
1000
0000
0101
0000
0011
0100
1001
0100
,
0011
0000
0000
0001
0000
0010
1001
0000
0010
1000
0011
0100
1000
0100
0001
1000
,
0101
0000
0000
0001
0000
0010
0101
1000
0000
1000
0101
0011
1000
0011
0101
0011
,
1001
0000
0100
0000
0010
0000
0001
0000
0010
0000
1000
0000
0111
0000
0000
0000
1000
0000
0100
0000
0011
0000
0100
0010
0101
0000
1000
0000
0111
0000
0100
0000
,
1001
0000
0100
0000
0010
0000
1001
0000
0110
0000
1000
0100
1011
0000
0100
0000
1000
0000
1000
0000
0111
0000
0101
0000
1010
0000
0101
0000
1011
0000
0101
0000
,
1001
0000
0010
0000
0100
0000
0001
0000
0010
0000
1000
0000
0111
0000
0000
0000
1000
0000
0100
0000
1001
0000
0100
0010
1100
0000
0010
0000
1101
0000
0010
0000
,
1001
0000
0000
0000
0010
0000
1001
0000
0010
0000
1000
0100
1011
0000
0000
0000
0100
0000
0100
0000
1011
0000
0101
0000
1000
0000
0101
0000
0011
0000
1001
0000
,
1001
0000
1000
0000
1100
0000
0101
0000
1010
0000
0100
0000
1011
0000
0100
0000
0000
0000
0010
0100
1011
0000
0100
0000
1010
0000
0100
0000
1011
0000
0100
0000
,
1001
0000
0000
0000
1010
0000
0101
0000
1010
0100
0010
0100
1011
0000
0000
0000
1000
0000
0000
0000
1011
0000
0101
0000
1010
0000
0101
0000
1011
0100
1001
0100
,
0011
0000
0100
0001
0100
0010
1101
0000
0010
1000
0111
0100
1010
0100
0011
1000
,
0101
0000
1000
0001
1000
0010
1101
1000
0000
1000
0111
0011
1110
0111
1101
1011
,
1010
0000
0110
0000
0001
0000
0001
0000
0010
0000
1010
0000
0110
0000
0010
0000
1001
0000
0101
0000
0010
0000
0110
1000
0101
0000
1001
0000
0101
0000
0101
0000
,
1010
0000
0110
0000
0001
0000
1001
0000
0110
0000
1010
0100
1010
0000
0110
0000
1001
0000
1001
0000
0101
0000
0101
0000
1010
0000
0110
0000
1010
0000
0110
0000
,
1001
0000
0101
0000
0010
0000
0010
0000
0001
0000
1001
0000
0101
0000
0001
0000
1010
0000
0110
0000
0010
0000
0110
1000
0101
0000
1001
0000
0101
0000
1001
0000
,
0110
0000
0010
0000
0001
0000
1001
0000
0010
0000
1010
0100
1010
0000
0010
0000
0101
0000
0101
0000
1001
0000
0101
0000
0010
0000
0110
0000
0010
0000
1010
0000
,
1001
0000
1001
0000
0110
0000
0110
0000
1001
0000
0101
0000
1001
0000
0101
0000
0010
0000
1010
0100
1001
0000
0101
0000
1010
0000
0110
0000
1010
0000
0110
0000
,
1001
0000
0001
0000
1010
0000
0110
0000
1001
0100
1001
0100
1001
0000
0001
0000
1010
0000
0010
0000
1001
0000
0101
0000
1010
0000
0110
0000
1001
0100
1001
0100
,
1010
0010
0010
0010
0001
0101
1001
0001
0110
1010
0110
1010
0101
1001
0101
1001
,
0110
0001
0010
0001
0010
0001
0010
0001
0010
0001
1010
0001
0110
0001
1010
0001
1100
0010
0101
0010
1100
0010
0101
0010
0101
0000
1001
0000
0110
0000
1010
0000
,
0001
0010
0100
1000
0001
0010
0100
1000
0001
0010
0100
1000
0001
0010
0100
1000
0001
0010
0100
1000
0001
0010
0100
1000
0001
0000
0000
0000
0000
0000
0000
0000
;

//---------------dance-single - Arch0wl----------------
#NOTES:
     dance-single:
     Arch0wl:
     Challenge:
     16:
     1.000,1.000,1.000,0.067,1.000,647.000,266.000,7.000,0.000,0.000:
1000
0000
0000
0000
,
0000
1000
1000
0000
,
1000
0010
0000
0000
0000
0000
0000
0000
0000
0000
0000
0000
0000
0000
0000
0000
,
0100
0100
0100
0100
0100
0100
0100
0100
0100
0100
0100
0100
0100
0100
0100
0100
,
0100
0000
0100
0000
1001
0000
0100
0000
0000
0000
0100
0000
1001
0000
0100
0100
,
0100
0000
0100
0000
1001
0000
0100
0000
0000
0000
0100
0001
1001
0000
0101
0000
,
0011
0010
1100
0011
0100
0011
1100
0011
,
0101
0010
1100
0011
0100
0011
1100
0011
,
0110
0010
1001
0110
0001
0110
1001
0110
,
0101
0010
1001
0110
0001
0110
1001
0110
,
0101
0010
1100
0011
0100
0011
1100
0011
,
0101
0010
1100
0011
0100
0011
1100
0011
,
0102
0013
1100
0011
0100
0011
1100
0011
,
0102
0000
0013
0000
1100
0000
0011
0000
0100
0000
0021
0030
1100
0000
0012
0003
,
0101
0010
0001
0010
1100
0010
1001
0010
0100
0001
1010
0001
1100
0100
1001
0001
,
1100
0010
0001
0010
1100
0010
1001
0010
0100
0010
1100
0010
1100
0010
1100
0010
,
1100
0010
0001
0010
1100
0010
1001
0010
0100
0001
1010
0001
1100
0100
1001
0001
,
1100
0010
0001
0010
1100
0010
1001
0010
0100
0010
1100
0010
1001
0100
1010
0100
,
2100
0010
0001
0010
0100
0010
0001
0010
0100
0001
0010
0001
0100
0100
0001
0001
,
0100
0010
0001
0010
0100
0010
0001
0010
0100
0010
0100
0010
0100
0010
0100
3010
,
2100
0010
0001
0010
0100
0010
0001
0010
0100
0001
0010
0001
0100
0100
0001
0001
,
0100
0010
0001
0010
0100
0010
0001
0010
0100
0010
0100
0010
0001
0100
0010
0100
,
3010
0000
0000
0000
0000
0000
0000
0000
1000
0000
0000
0000
0100
0000
0000
0000
0000
0000
0000
0000
0000
0000
0010
0000
0000
0000
0000
0000
0000
0000
0000
0000
0000
0000
0000
0000
0000
0000
0000
0001
0000
0000
0000
0000
0000
0000
0000
0020
0000
0000
0000
0000
0000
0000
0000
0000
0000
0000
0000
0000
0000
0000
0000
0000
,
0000
0000
0000
0000
,
0031
0000
0100
0000
0000
0000
0001
0000
0000
0000
1000
0000
0101
0000
0000
0000
1000
0000
0100
0000
0001
0000
0100
0010
0100
0000
1000
0000
0011
0000
0100
0000
,
1001
0000
0100
0000
0000
0000
1001
0000
0100
0000
1000
0100
1001
0000
0100
0000
1000
0000
1000
0000
0101
0000
0101
0000
1000
0000
0101
0000
1001
0000
0101
0000
,
1001
0000
0010
0000
0000
0000
0001
0000
0000
0000
1000
0000
0101
0000
0000
0000
1000
0000
0100
0000
0001
0000
0100
0010
0100
0000
0010
0000
0101
0000
0010
0000
,
1001
0000
0000
0000
0000
0000
1001
0000
0000
0000
1000
0100
1001
0000
0000
0000
0100
0000
0100
0000
0011
0000
0101
0000
0000
0000
0101
0000
0001
0000
1001
0000
,
1001
0000
1000
0000
0100
0000
0101
0000
0010
0000
0100
0000
1001
0000
0100
0000
0000
0000
0010
0100
0011
0000
0100
0000
0010
0000
0100
0000
0011
0000
0100
0000
,
1001
0000
0000
0000
0010
0000
0101
0000
0010
0100
0010
0100
1001
0000
0000
0000
1000
0000
0000
0000
1001
0000
0101
0000
1000
0000
0101
0000
0011
0100
1000
0100
,
0011
0000
0000
0001
0000
0010
1001
0000
0010
1000
0011
0100
1000
0100
0001
1000
,
0101
0000
0000
0001
0000
0010
0101
1000
0000
1000
0101
0011
1000
0011
0101
0011
,
1001
0000
0100
0000
0010
0000
0001
0000
0010
0000
1000
0000
0011
0000
0000
0000
1000
0000
0100
0000
0011
0000
1000
0010
0101
0000
1000
0000
0011
0000
0100
0000
,
1001
0000
0100
0000
0010
0000
1001
0000
0110
0000
1000
0100
0011
0000
0100
0000
1000
0000
1000
0000
0011
0000
0101
0000
1010
0000
0101
0000
0011
0000
0101
0000
,
1001
0000
0010
0000
0100
0000
0001
0000
0010
0000
1000
0000
0011
0000
0000
0000
1000
0000
0100
0000
1001
0000
0010
0001
1100
0000
0010
0000
0101
0000
0010
0000
,
1001
0000
0000
0000
0010
0000
1001
0000
0010
0000
1000
0100
0011
0000
0000
0000
0100
0000
0100
0000
0011
0000
0101
0000
1000
0000
0101
0000
0011
0000
1001
0000
,
1001
0000
1000
0000
1100
0000
0101
0000
1010
0000
0100
0000
0011
0000
0100
0000
0000
0000
1000
0100
0011
0000
0100
0000
1010
0000
0100
0000
0011
0000
0100
0000
,
1001
0000
0000
0000
1010
0000
0101
0000
1010
0100
0010
0100
0011
0000
0000
0000
1000
0000
0000
0000
0011
0000
0101
0000
1010
0000
0101
0000
0011
0100
1000
0100
,
0011
0000
0100
0001
0100
0010
0101
0000
0010
1000
0011
0100
1010
0100
0011
1000
,
0101
0000
1000
0001
1000
0010
0101
1000
0000
1000
0001
0100
1010
0110
1001
0101
,
1010
0000
0110
0000
0001
0000
0001
0000
0010
0000
1010
0000
0110
0000
0010
0000
1001
0000
0101
0000
0010
0000
0110
1000
0101
0000
1001
0000
0101
0000
0101
0000
,
1010
0000
0110
0000
0001
0000
1001
0000
0110
0000
1010
0100
1010
0000
0110
0000
1001
0000
1001
0000
0101
0000
0101
0000
1010
0000
0110
0000
1010
0000
0110
0000
,
1001
0000
0101
0000
0010
0000
0010
0000
0001
0000
1001
0000
0101
0000
0001
0000
1010
0000
0110
0000
0010
0000
0110
1000
0101
0000
1001
0000
0101
0000
1001
0000
,
0110
0000
0010
0000
0001
0000
1001
0000
0010
0000
1010
0100
1010
0000
0010
0000
0101
0000
0101
0000
1001
0000
0101
0000
0010
0000
0110
0000
0010
0000
1010
0000
,
1001
0000
1001
0000
0110
0000
0110
0000
1001
0000
0101
0000
1001
0000
0101
0000
0010
0000
1010
0100
1001
0000
0101
0000
1010
0000
0110
0000
1010
0000
0110
0000
,
1001
0000
0001
0000
1010
0000
0110
0000
1001
0100
0001
0100
1001
0000
0001
0000
1010
0000
0010
0000
1001
0000
0101
0000
1010
0000
0110
0000
1001
0100
0001
0100
,
1010
0010
0010
0010
0001
0101
1001
0001
0110
1010
0110
1010
0101
1001
0101
1001
,
0100
0001
0010
0001
0100
0001
0010
0001
0100
0001
0010
0001
0100
0001
0010
0001
0100
0010
1000
0010
0100
0010
1000
0010
0101
0000
1001
0000
0110
0000
1010
0000
,
0001
0010
0001
0010
0100
1000
0100
1000
0001
0100
0001
0100
0010
1000
0010
1000
0100
0010
0100
0010
0001
0100
0001
0100
0010
0000
0000
0000
0000
0000
0000
0000
;

//---------------dance-single - Arch0wl----------------
#NOTES:
     dance-single:
     Arch0wl:
     Hard:
     11:
     0.913,1.000,0.333,0.048,1.000,631.000,35.000,5.000,0.000,0.000:
1000
0000
0000
0000
,
0000
1000
1000
0000
,
1000
0010
0000
0000
0000
0000
0000
0000
0000
0000
0000
0000
0000
0000
0000
0000
,
0100
0001
0100
0001
0100
0001
0100
0001
0100
0001
0100
0001
0100
0001
0100
0001
,
0100
0000
0100
0000
1001
0000
0100
0000
0000
0000
0100
0000
1001
0000
0100
0010
,
0100
0000
0100
0000
1001
0000
0100
0000
0000
0000
0100
0001
1000
0000
0100
0000
,
0011
0010
0100
0011
0100
0011
0100
0011
,
0101
0010
1000
0101
0010
0101
0010
0101
,
1100
0010
0001
1100
0001
1100
0001
1100
,
0110
0001
1000
0110
1000
0110
1000
0110
,
1001
0010
0100
1001
0010
1001
0010
1001
,
0011
0100
1000
0011
0100
0011
0100
0011
,
0102
0010
1003
0101
0010
0101
0010
0101
,
2010
0000
0100
0000
3001
0000
1010
0000
0100
0000
1002
0000
0103
0000
0021
0030
,
0001
0010
0100
0010
0001
0010
0100
0010
0001
1000
0010
1000
0100
0010
0001
0100
,
0010
1000
0100
1000
0010
1000
0100
1000
0001
0010
0100
0010
1000
0010
0100
0010
,
0001
0100
0010
0100
0001
0100
0010
0100
0001
0010
0100
0010
0001
0100
0010
1000
,
0100
0010
0001
0010
0100
0010
0001
0010
1000
0010
0100
0010
0001
0100
0010
1000
,
0001
0010
1000
0010
0001
0010
1000
0010
0001
1000
0100
1000
0001
0100
0010
1000
,
0001
0100
1000
0100
0001
0100
1000
0100
0001
0010
0100
0010
1000
0010
0100
0010
,
0001
0100
1000
0100
0001
0100
1000
0100
0001
0010
0100
0010
0001
0100
0010
1000
,
0100
0010
1000
0010
0100
0010
1000
0010
0001
0010
0100
0010
0001
0100
0010
1000
,
0100
0000
0000
0000
0000
0000
0000
0000
1000
0000
0000
0000
0100
0000
0000
0000
0000
0000
0000
0000
0000
0000
0010
0000
0000
0000
0000
0000
0000
0000
0000
0000
0000
0000
0000
0000
0000
0000
0000
0001
0000
0000
0000
0000
0000
0000
0000
0020
0000
0000
0000
0000
0000
0000
0000
0000
0000
0000
0000
0000
0000
0000
0000
0000
,
0000
0000
0000
0000
,
0130
0000
1000
0000
0000
0000
0000
0000
0000
0000
0100
0000
1000
0000
0000
0000
0100
0000
1000
0000
0000
0000
0100
0010
0100
0000
1000
0000
0010
0000
0100
0000
,
1000
0000
0100
0000
0000
0000
1000
0000
0100
0000
0010
1000
0010
0000
1000
0000
0100
0000
1000
0000
0010
0000
0100
0000
1000
0000
0100
0000
1000
0000
0100
0000
,
0001
0000
0010
0000
0000
0000
0000
0000
0000
0000
0001
0000
0010
0000
0000
0000
0001
0000
0010
0000
0000
0000
0010
0100
0010
0000
0001
0000
0010
0000
0001
0000
,
0100
0000
0000
0000
0000
0000
0001
0000
0000
0000
0001
0010
0001
0000
0000
0000
0010
0000
0010
0000
0100
0000
0010
0000
0000
0000
0010
0000
0000
0000
0001
0000
,
0001
0000
0001
0000
0100
0000
0100
0000
0010
0000
0001
0000
0100
0000
0001
0000
0000
0000
0010
0100
0010
0000
0100
0000
0001
0000
0100
0000
0001
0000
0100
0000
,
0010
0000
0000
0000
0100
0000
0001
0000
0010
0100
0010
0100
0001
0000
0000
0000
0100
0000
0000
0000
0010
0000
0001
0000
0010
0000
0001
0000
0100
0010
0001
0010
,
0100
0000
0000
0000
0000
0100
0001
0000
0100
0001
0100
0010
0001
0010
0100
0001
,
0010
0000
0000
0000
0000
0100
0010
0001
0000
0001
0010
0100
1000
0010
0100
0001
,
1000
0000
0100
0000
0010
0000
0001
0000
0010
0000
1000
0000
0010
0000
0000
0000
0001
0000
0010
0000
0100
0000
1000
0010
0100
0000
1000
0000
0100
0000
0010
0000
,
1000
0000
0100
0000
0010
0000
0001
0000
0100
0000
0001
0100
0010
0000
0100
0000
0001
0000
0010
0000
0001
0000
0100
0000
1000
0000
0100
0000
0001
0000
0100
0000
,
0001
0000
0010
0000
0100
0000
1000
0000
0100
0000
0001
0000
0100
0000
0000
0000
1000
0000
0100
0000
1000
0000
0010
0001
1000
0000
0100
0000
0001
0000
0010
0000
,
0001
0000
0000
0000
0010
0000
0001
0000
1000
0000
0001
0100
0010
0000
0000
0000
0100
0000
0100
0000
0001
0000
0010
0000
0100
0000
1000
0000
0010
0000
0100
0000
,
0001
0000
0001
0000
0100
0000
0100
0000
0010
0000
1000
0000
0100
0000
0010
0000
0000
0000
0001
0010
0100
0000
1000
0000
0010
0000
0100
0000
0010
0000
0001
0000
,
0010
0000
0000
0000
1000
0000
0100
0000
0010
0100
0010
0100
0001
0000
0000
0000
0100
0000
0000
0000
1000
0000
0010
0000
1000
0000
0010
0000
0100
0001
0010
0001
,
0100
0000
0010
1000
0010
0100
0001
0000
0001
1000
0100
0010
0001
0100
0010
1000
,
0100
0000
1000
0001
1000
0010
0100
0001
0000
1000
0001
0100
0010
1000
0010
0100
,
0001
0010
0100
1000
0010
1000
0100
0010
0001
0010
0100
1000
0010
1000
0100
0010
,
0001
0010
0100
1000
0001
0100
0010
1000
0001
0100
0010
1000
0001
0100
0010
1000
,
0001
0010
0100
1000
0010
0100
0001
1000
0010
0100
0001
0010
0100
0010
0001
0100
,
0010
1000
0100
1000
0001
0010
0100
0010
0001
0100
0010
0100
0001
0010
0100
0010
,
0001
1000
0010
0100
0001
0010
0100
1000
0001
0100
0001
0010
0100
1000
0100
0010
,
0001
1000
0100
0010
0001
0010
0100
1000
0010
0100
0001
0010
0001
0010
0001
1000
,
0010
0100
0001
1000
0001
0010
0100
1000
0010
0100
0001
1000
0100
0010
0001
1000
,
0001
0100
0010
1000
0001
0100
0010
1000
0001
0100
0010
1000
0001
0100
0010
1000
0001
0010
0100
1000
0001
0010
0100
1000
0001
0000
0100
0000
0010
0000
1000
0000
,
0001
0010
0001
0010
0100
1000
0100
1000
0001
0100
0001
0100
0010
1000
0010
1000
0100
0010
0100
0010
0001
0100
0001
0100
0010
0000
0000
0000
0000
0000
0000
0000
;
