#TITLE:Second Heaven;
#SUBTITLE:;
#ARTIST:Ryu☆;
#TITLETRANSLIT:;
#SUBTITLETRANSLIT:;
#ARTISTTRANSLIT:;
#CREDIT:;
#BANNER:secondheaven-bn.png;
#BACKGROUND:secondheaven-bg.png;
#LYRICSPATH:;
#CDTITLE:!cdTitle.png;
#MUSIC:secondheaven.mp3;
#OFFSET:0.240;
#SAMPLESTART:45.300;
#SAMPLELENGTH:12.000;
#SELECTABLE:YES;
#BPMS:0.000=149.000;
#STOPS:211.500=0.040
;
#BGCHANGES:0.000=secondheaven-bg.png=1.000=0=0=1,
99999=-nosongbg-=1.000=0=0=0 // don't automatically add -songbackground-
;
// cache tags:
#FIRSTBEAT:5.000;
#LASTBEAT:286.000;
#SONGFILENAME:Songs/toune 2/Mandodo - Second Heaven/secondheaven.sm;
#HASMUSIC:1;
#HASBANNER:1;
#MUSICLENGTH:117.310;
// end cache tags

//---------------dance-single - ----------------
#NOTES:
     dance-single:
     :
     Hard:
     10:
     0.939,0.975,1.000,0.375,0.588,573.000,154.000,44.000,62.000,0.000:
0000
0000
0000
0000
,
0000
0000
0000
0000
2002
3003
1200
0000
0000
0000
0000
0000
0000
0000
0000
0000
,
0300
0000
0000
0000
0202
0303
0010
0000
0220
0330
1000
0000
0201
0300
0010
0000
,
1000
0100
0010
0001
0100
0010
1000
0000
0220
0330
0022
0033
0000
0000
0201
0001
,
0000
0000
0000
0300
2020
3030
0100
0000
0202
0303
0010
0000
2020
3030
0100
0000
,
1000
0100
0010
0010
0000
0000
0000
0000
0110
0000
0101
0000
0000
0000
0010
0010
,
1001
0000
0000
0000
0010
0000
1001
0000
0000
0000
0100
0000
1000
0010
0100
0001
,
0010
0100
1000
0100
1010
0000
0101
0000
0100
0000
0011
0000
0100
0000
0011
0000
,
0000
1010
0101
1000
0010
0101
0001
0110
,
0000
0000
0001
0000
0110
0000
0001
0000
1000
0100
0010
0001
0100
0010
1000
0100
,
0010
0001
0010
0100
2002
0M00
00M0
0M00
00M0
0M00
00M0
0M00
00M0
0M00
00M0
0M00
,
00M0
0M00
00M0
0M00
00M0
0M00
00M0
0M00
00M0
0M00
00M0
0M00
30M3
0000
0200
0000
,
0000
0300
0010
0100
1000
0100
0000
0010
,
0001
0010
0000
1000
0100
0010
0001
0010
,
0001
0100
1000
0100
0010
0001
1000
0010
,
0100
0000
0001
0000
0010
0000
0001
0000
0010
0001
0010
0100
1000
0000
0000
0000
,
1001
0000
0011
0100
1000
0100
1100
0010
,
0001
0010
0000
1000
0100
0010
0101
0010
,
0001
0100
1000
0100
0010
0001
1001
0010
,
0100
0000
0001
0000
0010
0000
0001
0000
0010
0001
0010
0100
1100
0000
0000
0000
,
1100
0000
0000
0100
0010
1001
0000
0100
,
0010
0101
0000
0100
0010
0001
0010
0100
,
0010
1100
0000
0100
0010
1001
0000
0100
,
0010
0001
0010
0100
1000
0100
1100
0000
,
2002
0000
0000
3003
0101
0000
0010
0000
1000
0000
0100
0000
0100
0000
0010
0000
,
1010
0010
0110
1000
0100
0001
0010
0100
,
0101
0100
1100
0001
0101
0100
0110
0001
,
0100
1000
0011
0010
1100
0100
0020
0000
,
0000
0030
2002
0000
0000
0000
0000
0000
,
3003
0000
0000
0000
1100
0000
0100
1000
0100
1000
0100
0010
0001
0000
1001
0000
,
0011
0000
1000
0100
0010
0000
0001
0010
0100
1000
0010
0100
0001
0000
0010
0000
,
0100
0000
0020
0030
1000
0000
0001
1000
0001
1000
0001
1000
0001
0000
1001
0000
,
0101
0000
1000
0100
0001
0000
0010
0100
0001
0000
0101
0000
0200
0000
0000
0000
,
0301
0000
0000
0000
0101
0000
0001
0100
0001
0100
0001
1000
0010
0000
1010
0000
,
0011
0000
0001
0010
0001
0000
1000
0010
0100
0001
0010
0100
1000
0000
0110
0000
,
0100
0000
1001
0000
0100
0000
0001
0100
0001
0100
0001
1000
0010
0000
1010
0000
,
0010
0000
0001
1000
0001
0000
0100
0000
0001
0000
1000
0000
0002
0000
0000
0000
,
0103
0000
1000
0110
0010
1001
0000
0101
,
0010
1001
0000
0101
1010
0101
0010
0101
,
1000
0101
1000
0110
0010
1001
0100
1001
,
0100
0110
0001
1010
0001
0011
0100
0000
,
0100
0101
1000
1100
0010
0101
0000
0101
,
0010
1001
0000
0101
0010
1001
0010
0101
,
1000
0110
1000
1100
0010
0101
0100
1001
,
0100
1010
0001
1010
0001
0010
0100
0000
,
1001
0000
0000
0000
0010
0000
0100
0010
0000
0000
1000
0100
0000
0000
1000
1000
,
0000
0000
0001
0001
0000
0000
0000
0000
1001
0000
0011
0000
0000
0000
1001
0110
,
0000
0000
0110
0000
0010
0000
0101
0000
0010
0000
0101
1100
0000
0000
0110
1001
,
0000
0000
0001
0001
0000
0000
0000
0000
0101
0000
0110
0000
0000
0000
0010
0010
,
0000
0000
0000
0000
1100
0000
1100
0000
0001
0100
0001
0100
0001
0000
MMMM
0000
,
0000
0000
0010
0000
0011
0000
0011
0000
1000
0100
1000
0100
1000
0000
MMMM
0000
,
0000
0000
0100
0000
1100
0000
1100
0000
1000
0100
1000
0000
MM11
0000
0011
0000
,
0010
0001
0010
0000
11MM
0000
0011
0000
0110
0000
2200
0000
0000
3300
M000
0M00
,
00M0
000M
00M0
0M00
1000
0000
0010
0100
0001
0010
0100
1000
0100
0000
0011
0000
,
1100
0000
1000
0010
0100
0001
0010
0100
1000
0100
0010
0001
0010
0000
0101
0000
,
0010
0000
0100
0010
0100
0000
1000
0100
1000
0100
1000
0100
0010
0000
0001
0000
,
0010
0000
0100
1000
0001
0000
0010
0000
0100
0000
1000
0000
0200
0000
0300
0000
,
1001
0000
0000
0000
1000
0000
0100
1000
0100
1000
0100
0010
0001
0000
1000
0100
,
1000
0000
0200
0300
1000
0000
0100
1000
0100
1000
0100
0010
0001
0000
0001
0010
,
0001
0000
1000
0100
0010
0000
0001
1000
0001
0000
1000
0001
1000
0000
0001
1000
,
0001
0000
1000
0001
1001
0000
1001
0000
1001
0000
1001
0000
0010
0100
0010
0100
,
0010
0100
0010
0100
M220
000M
M000
000M
M000
000M
M000
000M
M000
000M
M000
000M
,
M330
0000
0000
0000
0001
1000
0001
1000
0001
1000
M002
0M00
00M0
0M00
M000
0M00
,
00M3
0000
0000
0000
1100
0000
0100
1000
0100
1000
0100
1000
0011
0000
0101
0000
,
0100
0010
0100
0010
0001
0000
0011
0000
0010
0100
1000
0100
1000
0000
0011
0000
,
0101
0000
0011
0000
1001
0000
0100
1000
0100
1000
0100
1000
0101
0000
1001
0000
,
0001
0010
0100
0010
0001
0000
1010
0000
0110
0000
0011
0000
0210
0000
0000
0000
,
0301
0000
0010
0000
0101
0000
0010
0100
0010
0100
0010
0100
0010
0000
0101
0000
,
0100
1000
0100
0010
0001
0000
1010
0000
1000
0100
0010
0000
1001
0000
1010
0000
,
0101
0000
1010
0000
1100
0000
0010
0100
0001
0010
0001
0100
0010
0000
0110
0000
,
1001
0000
1000
0010
1000
0000
1010
0000
0101
0000
1010
0000
0101
0000
0000
0000
,
0202
0303
2020
3030
2002
0000
0000
0000
3003
0000
0000
0000
0000
0000
0000
0000
;
