#TITLE:Precious Jerusalem;
#SUBTITLE:A Night at the Opera (2002);
#ARTIST:Blind Guardian;
#TITLETRANSLIT:;
#SUBTITLETRANSLIT:;
#ARTISTTRANSLIT:;
#CREDIT:Shirogitsune;
#BANNER:Precious Jerusalem-bn.png;
#BACKGROUND:PreciousJerusalem-bg.png;
#LYRICSPATH:;
#CDTITLE:!ShiroTitle.png;
#MUSIC:Blind Guardian - 01 Precious Jerusalem.mp3;
#OFFSET:-0.260;
#SAMPLESTART:43.896;
#SAMPLELENGTH:7.380;
#SELECTABLE:YES;
#BPMS:0.000=132.000;
#STOPS:;
#BGCHANGES:;
// cache tags:
#FIRSTBEAT:0.000;
#LASTBEAT:831.000;
#SONGFILENAME:Songs/Astronomic Metal Collection/Precious Jerusalem (Shirogitsune)/Precious Jerusalem.sm;
#HASMUSIC:1;
#HASBANNER:1;
#MUSICLENGTH:382.072;
// end cache tags

//---------------dance-single - ----------------
#NOTES:
     dance-single:
     :
     Medium:
     13:
     1.000,1.000,1.000,0.576,1.000,2714.000,728.000,220.000,0.000,0.000:
1100
1100
0000
1001
1001
0000
0010
0100
1000
0010
0000
0100
0010
0000
0100
0000
,
0101
0101
0000
0110
0110
0000
1000
0001
0010
0100
0000
0100
0010
0000
0001
0000
,
0011
0011
0000
1100
1100
0000
1000
0010
0100
0001
0000
0010
0100
0000
1000
0000
,
1010
1010
0000
0110
0110
0000
0100
0001
0011
0001
0100
0001
0101
0000
0100
0000
,
0220
0330
0110
0000
0000
0000
1001
0000
2002
3003
0000
0000
0100
0000
0010
0000
0001
0000
0010
0000
0000
0000
0010
0000
0100
0000
0000
0000
0100
0000
0000
0000
,
2100
3000
0020
0030
0200
0300
0002
0003
0120
0030
2000
3000
0020
0030
0200
0300
0001
0000
0100
0000
0000
0000
0010
0000
1000
0000
0000
0000
0001
0000
0000
0000
,
0022
0033
0110
0000
0000
0000
0110
0000
2200
3300
0000
0000
0100
0000
0010
0000
0001
0000
1000
0000
0000
0000
1000
0000
0010
0000
0000
0000
0100
0000
0000
0000
,
0201
0300
0020
0030
2000
3000
0002
0003
0210
0300
2000
3000
0020
0030
0200
0300
0011
0000
0010
0000
0001
0000
0100
0000
1010
0000
0000
0000
1001
0000
0000
0000
,
1010
0110
0000
0110
0101
0000
0011
0100
1100
1000
1010
0010
0100
0000
0101
0000
,
0012
0003
0020
0030
0120
0030
0200
0300
1200
0300
2000
3000
1200
0300
2001
3000
0001
0000
0100
0000
0000
0000
0001
0000
0010
0000
0000
0000
0110
0000
0000
0000
,
1100
1001
0000
1001
0101
0000
0110
0100
0101
0001
0010
0100
1000
0000
1100
0000
,
0210
0300
0020
0030
0021
0030
0002
0003
1002
0003
2000
3000
2001
3000
1002
0003
1001
0000
0010
0000
0100
0000
0010
0000
0011
0000
0000
0000
0100
0000
0000
0000
,
1100
0110
0000
0011
0110
0000
1100
0010
0001
0100
0000
0010
0110
0000
1001
0000
,
1020
0030
2000
3000
0002
0003
0200
0300
0210
0300
0020
0030
0120
0030
0200
0300
0001
0000
0010
0000
0000
0000
0100
0000
1100
0000
0000
0000
0011
0000
0000
0000
,
0110
0110
0000
1100
1100
0000
1010
0010
1000
0001
0000
0100
0101
0000
1001
0000
,
0101
0101
0000
1100
1100
0000
0101
0201
0310
0100
1000
0010
0110
0000
0000
0000
,
0210
0300
0101
0000
0000
0000
0101
0000
1001
0000
0000
0000
2001
3000
0110
0000
0000
0000
0110
0000
1200
0300
0000
0000
1000
0000
0000
0000
1000
0000
0000
0000
,
2010
3000
0110
0000
0000
0000
0110
0000
0101
0000
0000
0000
0201
0300
1001
0000
0000
0000
1001
0000
2100
3000
0000
0000
0011
0000
0000
0000
0021
0030
0000
0000
,
0201
0300
0110
0000
0000
0000
0110
0000
1010
0000
0000
0000
2001
3000
1100
0000
0000
0000
1100
0000
0102
0003
0000
0000
0100
0000
0000
0000
0100
0000
0000
0000
,
0210
0300
0110
0000
0000
0000
1001
0000
1002
0003
0000
0000
2001
3000
0110
0000
0000
0000
0110
0000
1100
0000
0000
0000
0100
0000
1000
0000
1020
0030
0100
0000
,
0102
0003
0101
0000
0000
0000
0110
0000
0110
0000
0000
0000
1020
0030
1001
0000
0000
0000
1001
0000
2100
3000
0000
0000
0100
0000
0000
0000
0100
0000
0000
0000
,
2100
3000
0110
0000
0000
0000
0011
0000
0110
0000
0000
0000
2001
3000
0110
0000
0000
0000
0101
0000
0201
0300
0000
0000
0110
0000
0000
0000
0210
0300
0000
0000
,
2010
3000
1010
0000
0000
0000
0101
0000
0101
0000
0000
0000
0021
0030
0011
0000
0000
0000
1100
0000
2100
3000
0000
0000
0010
0000
0000
0000
0010
0000
0000
0000
,
0010
0000
0000
0000
0000
0000
1000
0000
0000
0000
0000
0000
0001
0000
0000
0000
0000
0000
0100
0000
0000
0000
0000
0000
0010
0000
0000
0000
0000
0000
0000
0000
1000
0000
0000
0000
0000
0000
0000
0000
0001
0000
0000
0000
0000
0000
0000
0000
0010
0000
0000
0000
0000
0000
0100
0000
0000
0000
0000
0000
1000
0000
0000
0000
0000
0000
0001
0000
0000
0000
0000
0000
1000
0000
0000
0000
0000
0000
0000
0000
0010
0000
0000
0000
0000
0000
0000
0000
0100
0000
0000
0000
0000
0000
0000
0000
0001
0000
0000
0000
0000
0000
0010
0000
0000
0000
0000
0000
0100
0000
0000
0000
0000
0000
1000
0000
0000
0000
0000
0000
0001
0000
0000
0000
0000
0000
0000
0000
1000
0000
0000
0000
0000
0000
0000
0000
0010
0000
0000
0000
0000
0000
0000
0000
0100
0000
0000
0000
0000
0000
0000
0000
0001
0000
0000
0000
0000
0000
0000
0000
0010
0000
0000
0000
0000
0000
0000
0000
0100
0000
0000
0000
0000
0000
0000
0000
1000
0000
0000
0000
0000
0000
0000
0000
0001
0000
0000
0000
0000
0000
0000
0000
,
0100
0010
1000
0001
0100
0010
1000
0001
1001
0000
0000
0000
0001
0000
0010
0000
1100
0000
0000
0000
1000
0000
0001
0000
0101
0000
0010
0000
0000
0000
0000
0000
,
1000
0100
0010
0001
0010
0100
1000
0010
1000
0000
0000
0000
0010
0000
1000
0000
1100
0000
0000
0000
0110
0000
0000
0000
1100
0000
0000
0000
0000
0000
0000
0000
,
0010
0100
0001
1000
0010
0100
0001
1000
1001
0000
0000
0000
0001
0000
0010
0000
1100
0000
0000
0000
0001
0000
0010
0000
0110
0000
1000
0000
0000
0000
0000
0000
,
0010
1000
0010
0100
0001
0100
0010
1000
0100
0000
0000
0000
0100
0000
0010
0000
1001
0000
0000
0000
0110
0000
0000
0000
1001
0000
0000
0000
0000
0000
0000
0000
,
0100
1000
0100
0010
0001
0100
0010
1000
1100
0000
0000
0000
1000
0000
0100
0000
0110
0000
0000
0000
0001
0000
1000
0000
0110
0000
0001
0000
0000
0000
0000
0000
,
0010
0001
0010
0100
1000
0010
0100
0001
0100
0000
0000
0000
0001
0000
0100
0000
0110
0000
0000
0000
0101
0000
0000
0000
0110
0000
0000
0000
0000
0000
0000
0000
,
0010
1000
0100
0010
0001
0010
0100
1000
1010
0000
0000
0000
0010
0000
1000
0000
0110
0000
0000
0000
0001
0000
0010
0000
0110
0000
1000
0000
0000
0000
0000
0000
,
0001
0010
0001
0100
0001
1000
0001
0100
0101
0000
0000
0000
0001
0000
0100
0000
0010
0000
1000
0000
0001
0000
0010
0000
0100
0000
1000
0000
0001
0000
0010
0000
,
1100
0000
0000
1000
1001
0000
0101
0000
0000
0100
0001
0000
0101
0000
0110
0000
,
1001
0000
0000
1000
1100
0000
0110
0000
0000
0010
0001
0000
0011
0000
0110
0000
,
1001
0000
0000
1000
0001
0000
0100
0000
0000
0100
0110
0000
1010
0000
0110
0000
,
0101
0000
0000
0000
0000
0000
0000
0000
0000
0001
0000
0000
0011
0000
0000
0000
0000
0000
0010
0000
0000
0000
0000
0000
0100
0000
1000
0000
0001
0000
0100
0000
0000
0010
0000
0000
1000
0000
0000
0100
0000
0000
0010
0000
0000
0100
0000
0000
,
1100
0000
0000
0010
0011
0000
0101
0000
0000
0100
0010
0000
1010
0000
1100
0000
,
1001
0000
0000
0001
0110
0000
1100
0000
0000
1000
0100
0000
0011
0000
1001
0000
,
0001
0000
0000
0100
0010
0000
0010
0000
0000
0100
0110
0000
1010
0000
1001
0000
,
1000
0000
0000
0000
0000
0000
0001
0000
0000
0000
0000
0000
0010
0000
0000
0000
0000
0000
0100
0000
0000
0000
0000
0000
1000
0000
0000
0000
0000
0000
0000
0000
0100
0000
0000
0000
0000
0000
0000
0000
1000
0000
0000
0000
0000
0000
0000
0000
0100
0000
0000
0000
0000
0000
0010
0000
0000
0000
0000
0000
0001
0000
0000
0000
0000
0000
1000
0000
0000
0000
0000
0000
0010
0000
0000
0000
0000
0000
0000
0000
0100
0000
0000
0000
0000
0000
0000
0000
0010
0000
0000
0000
0000
0000
0000
0000
0100
0000
0000
0000
0000
0000
0001
0000
0000
0000
0000
0000
0010
0000
0000
0000
0000
0000
0100
0000
0000
0000
0000
0000
1000
0000
0000
0000
0000
0000
0000
0000
0010
0000
0000
0000
0000
0000
0000
0000
0100
0000
0000
0000
0000
0000
0000
0000
0001
0000
0000
0000
0000
0000
0000
0000
1000
0000
0000
0000
0000
0000
0000
0000
0001
0000
0000
0000
0000
0000
0000
0000
0010
0000
0000
0000
0000
0000
0000
0000
0001
0000
0000
0000
0000
0000
0000
0000
1000
0000
0000
0000
0000
0000
0000
0000
,
0100
0010
0001
0010
0100
0010
0001
1000
0100
1000
0010
0100
0010
1000
0010
0100
,
0001
0100
0010
1000
0001
1000
0010
1000
0001
0010
0001
1000
0001
0010
0100
0010
,
1100
0010
0100
0001
0100
0010
1000
0001
0100
0110
1000
0001
0110
1000
0001
0010
,
0001
1000
0100
1000
0001
0010
0001
0100
0001
1010
0010
0100
0110
0001
1000
0010
,
0110
0001
0010
0100
0010
0001
0010
0100
1000
0010
1000
0100
1000
0001
1000
0010
,
0100
0001
0010
0100
1000
0001
0010
0100
1000
0001
0010
0100
1000
0010
0100
0010
,
1001
0010
0001
0100
0010
1000
1010
0100
0001
0010
0001
0100
0101
0010
1000
0010
0100
0001
1001
0010
0100
0010
0001
0100
,
0010
1000
0010
0100
0001
0100
0010
1000
0001
0010
0001
1000
0100
1000
0010
0100
0001
0100
0010
1000
0100
0010
0001
0100
,
0110
0000
0000
0010
0200
0000
0320
0000
0030
1000
0002
0000
0013
0000
0100
0000
,
2100
0000
3000
0010
0100
0000
0002
0000
0003
0100
0020
0000
1030
0000
0001
0010
,
0012
0000
0003
0010
0100
0000
0200
0000
0300
1000
0020
0000
0130
0000
0010
0000
,
0201
0000
0000
0000
0000
0000
0300
0000
0000
0010
0000
0000
0200
0000
0000
0000
0000
0000
0320
0000
0000
0000
0000
0000
1030
0000
0100
0000
0010
0000
0001
0000
0000
0000
0000
0000
0001
0000
0010
0000
0100
0000
1000
0000
0000
0000
0000
0000
,
0110
0000
0000
0010
0200
0000
0320
0000
0030
1000
0200
0000
0310
0000
0001
0000
,
2001
0000
3000
0010
1000
0000
2000
0000
3000
0100
0020
0000
0031
0000
0010
0001
,
0021
0000
0030
0010
0100
0000
0020
0000
0030
0010
0002
0000
1003
0000
0010
0000
,
2010
0000
0000
0000
0000
0000
3000
0000
0000
0010
0000
0000
0100
0000
0000
0000
0000
0000
0200
0000
0000
0000
0000
0000
0301
0000
0100
0000
0010
0000
2000
0000
0000
0000
0000
0000
3100
0000
0010
0000
0001
0000
1000
0000
0000
0000
0000
0000
,
0210
0000
0300
0001
2000
0000
3020
0000
0030
0010
0200
0000
0301
0000
1000
0000
,
2100
0000
3000
0100
0010
0000
0020
0000
0030
0001
2000
0000
3001
0000
1000
0010
,
1020
0000
0030
1000
0001
0000
0002
0000
0003
1000
0020
0000
1030
0000
0001
0000
,
0021
0000
0000
0000
0000
0000
0030
0000
0000
0001
0000
0000
0020
0000
0000
0000
0000
0000
0230
0000
0000
0000
0000
0000
1300
0000
0001
0000
0010
0000
0100
0000
0000
0000
0000
0000
0100
0000
0010
0000
0001
0000
1000
0000
0000
0000
0000
0000
,
1010
0000
0000
1000
2000
0000
3002
0000
0003
1000
2000
0000
3010
0000
0010
0000
,
2010
0000
3000
0001
0001
0000
0020
0000
0030
0001
0002
0000
1003
0000
0001
0100
,
0201
0000
0300
0010
0100
0000
0100
0000
0000
0001
1000
0000
1000
0000
0010
0000
,
0010
0000
0000
0000
0000
0000
1000
0000
0000
0000
0000
0000
0001
0000
0000
0000
0000
0000
0100
0000
0000
0000
0000
0000
0010
0000
0000
0000
0000
0000
0000
0000
0100
0000
0000
0000
0000
0000
0000
0000
0001
0000
0000
0000
0000
0000
0000
0000
0010
0000
0000
0000
0000
0000
0100
0000
0000
0000
0000
0000
1000
0000
0000
0000
0000
0000
0100
0000
0000
0000
0000
0000
0010
0000
0000
0000
0000
0000
0000
0000
0001
0000
0000
0000
0000
0000
0000
0000
1000
0000
0000
0000
0000
0000
0000
0000
0010
0000
0000
0000
0000
0000
0000
0000
0000
0000
0000
0000
1000
0000
0000
0000
0000
0000
0000
0000
0000
0000
0000
0000
0010
0000
0000
0000
0000
0000
0000
0000
0000
0000
0000
0000
0100
0000
0000
0000
0000
0000
0000
0000
0000
0000
0000
0000
0001
0000
0000
0000
0000
0000
0000
0000
0000
0000
0000
0000
0010
0000
0000
0000
0000
0000
0000
0000
0000
0000
0000
0000
0001
0000
0000
0000
0000
0000
0000
0000
0000
0000
0000
0000
0100
0000
0000
0000
0000
0000
0000
0000
0000
0000
0000
0000
,
0110
0100
0010
1000
0100
0010
0001
0100
0010
1000
0100
0010
0001
0100
0010
1000
,
0100
0010
0001
0100
0010
1000
0100
0010
1001
0010
0100
0001
0101
0010
0100
1000
,
1010
0100
0001
0010
0100
1000
0010
0100
0001
0010
0100
1000
0010
0100
0001
0010
,
0100
1000
0010
0100
0001
0010
0100
1000
0010
0100
0001
0010
0001
0100
0001
1000
,
0011
0100
1000
0010
1000
0001
1000
0010
0100
0001
0100
0010
0100
0001
0100
0010
,
1000
0001
1000
0010
1000
0100
1000
0001
0010
0100
0010
0001
1000
0010
1000
0100
,
0010
0100
1000
0001
0100
0010
0100
0001
0010
0100
0010
0001
1000
0100
1000
0001
,
0100
0000
0000
0000
0000
0000
0010
0000
0000
0000
0000
0000
1000
0000
0000
0000
0000
0000
0001
0000
0000
0000
0000
0000
0010
0000
0000
0000
0000
0000
0000
0000
0100
0000
0000
0000
0000
0000
0000
0000
1000
0000
0000
0000
0000
0000
0000
0000
0001
0000
0000
0000
0000
0000
0100
0000
0000
0000
0000
0000
0010
0000
0000
0000
0000
0000
1000
0000
0000
0000
0000
0000
0001
0000
0000
0000
0000
0000
0000
0000
0100
0000
0000
0000
0000
0000
0000
0000
0010
0000
0000
0000
0000
0000
0000
0000
1000
0000
0000
0000
0000
0000
0000
0000
0000
0000
0000
0000
0100
0000
0000
0000
0000
0000
0000
0000
0000
0000
0000
0000
0010
0000
0000
0000
0000
0000
0000
0000
0000
0000
0000
0000
0001
0000
0000
0000
0000
0000
0000
0000
0000
0000
0000
0000
0100
0000
0000
0000
0000
0000
0000
0000
0000
0000
0000
0000
0010
0000
0000
0000
0000
0000
0000
0000
0000
0000
0000
0000
1000
0000
0000
0000
0000
0000
0000
0000
0000
0000
0000
0000
0001
0000
0000
0000
0000
0000
0000
0000
0000
0000
0000
0000
,
0110
0000
0000
0000
0000
0000
0000
0000
0100
0000
0000
0000
1000
0001
1000
0001
1001
0000
0000
0000
0010
0000
0000
0000
0101
0000
0000
0000
1010
0000
0000
0000
,
0000
0000
0000
0000
0000
0000
1000
0000
0000
0100
0010
0001
0101
0000
0000
0000
0000
0000
0110
0000
0000
0001
0000
0000
,
1100
0000
0000
0010
0000
0000
0110
0000
0000
0001
0000
0000
1000
0000
0000
0001
0010
0100
1100
0000
0000
0011
0000
0000
,
0000
0000
0000
0000
0000
0000
0000
0000
0000
0000
0000
0000
0010
0000
0000
0000
0000
0000
0001
0000
1000
0000
0010
0000
0110
0000
0000
0000
0000
0000
0000
0000
0000
0010
0000
0000
0100
0000
0000
0000
0000
0000
0101
0000
0000
0000
0000
0000
,
1010
0000
0000
0000
0000
0000
0000
0000
0000
0000
0000
0000
0000
0000
0000
0000
0000
0000
0000
0000
0000
0000
0000
0000
0000
0000
0000
0000
0000
0000
0000
0000
0000
0000
0000
0000
0000
0000
0000
0000
0000
0000
0000
0000
0000
0000
0000
0000
1001
0000
0000
0000
0000
0000
0000
0000
0000
0000
0000
0000
0000
0000
0000
0000
0000
0000
0000
0000
0000
0000
0000
0000
0001
0000
0000
0000
0000
0000
0000
0000
0010
0000
0000
0000
0000
0000
0000
0000
0100
0000
0000
0000
0000
0000
0000
0000
0110
0000
0000
0000
0000
0000
0000
0000
0000
0000
0000
0000
0000
0000
0000
0000
0000
0000
0000
0000
0000
0000
0000
0000
1000
0000
0000
0000
0000
0000
0010
0000
0000
0000
0000
0000
0100
0000
0000
0000
0000
0000
0001
0000
0000
0000
0000
0000
1001
0000
0000
0000
0000
0000
0000
0000
0000
0000
0000
0000
0000
0000
0000
0000
0000
0000
0000
0000
0000
0000
0000
0000
0110
0000
0000
0000
0000
0000
0000
0000
0000
0000
0000
0000
0000
0000
0000
0000
0000
0000
0000
0000
0000
0000
0000
0000
,
0000
0000
0000
0000
0000
0000
0000
0000
0000
0000
0000
0000
0110
0000
0000
0000
0000
0000
1001
0000
0100
0000
0010
0000
0001
0000
0000
0000
0000
0000
0000
0000
0000
0101
0000
0000
0010
0000
0000
0000
0000
0000
0110
0000
0000
0000
0000
0000
,
1001
0000
0000
0000
0000
0000
0101
0000
0000
0001
0100
0010
0110
0000
0000
0000
0000
0000
0101
0000
0000
1001
0000
0000
,
0100
0010
0100
1000
0001
0100
0010
0100
0001
1000
0100
0010
0100
1000
0001
0100
,
0010
1000
0100
0010
0001
1000
0100
0010
0100
1000
0001
0010
0100
1000
0001
0010
,
0001
0100
0001
1000
0100
1000
0001
0100
0010
1000
0010
0100
1001
0010
0100
0010
,
0011
0100
0010
1000
0001
0100
0010
1000
0001
0100
0010
1000
0001
0100
0010
1000
,
0110
0001
0100
0010
0100
0001
0010
0001
0100
0010
0100
0001
1000
0001
1000
0001
,
0100
0001
0010
0100
1000
0010
0100
0001
0100
0010
1000
0010
0100
0001
0100
0010
,
1000
0100
0010
0001
0100
0010
1000
0100
0010
0100
1000
0001
0010
0100
0010
0001
,
0100
0010
1000
0001
0100
0010
1000
0001
0100
0010
1000
0001
0100
0010
1000
0001
,
0100
0000
0000
0000
0000
0000
0001
0000
0000
0000
0000
0000
0010
0000
0000
0000
0000
0000
0100
0000
0000
0000
0000
0000
1000
0000
0000
0000
0000
0000
0000
0000
0100
0000
0000
0000
0000
0000
0000
0000
0010
0000
0000
0000
0000
0000
0000
0000
0001
0000
0000
0000
0000
0000
0010
0000
0000
0000
0000
0000
0100
0000
0000
0000
0000
0000
1000
0000
0000
0000
0000
0000
0100
0000
0000
0000
0000
0000
0000
0000
0010
0000
0000
0000
0000
0000
0000
0000
0001
0000
0000
0000
0000
0000
0000
0000
0010
0000
0000
0000
0000
0000
0100
0000
0000
0000
0000
0000
1000
0000
0000
0000
0000
0000
0001
0000
0000
0000
0000
0000
0010
0000
0000
0000
0000
0000
0000
0000
0000
0000
0000
0000
0100
0000
0000
0000
0000
0000
0000
0000
0000
0000
0000
0000
1000
0000
0000
0000
0000
0000
0000
0000
0000
0000
0000
0000
0010
0000
0000
0000
0000
0000
0000
0000
0000
0000
0000
0000
0100
0000
0000
0000
0000
0000
0000
0000
0000
0000
0000
0000
0001
0000
0000
0000
0000
0000
0000
0000
0000
0000
0000
0000
,
0010
0000
0000
0000
0000
0000
0011
0000
0100
0000
1000
0000
0110
0000
0000
0000
0000
0000
0101
0000
0000
0000
0000
0000
1002
0000
0000
0000
0000
0000
0013
0000
0100
0000
1000
0000
0110
0000
0000
0000
0000
0000
1010
0000
0000
0100
0000
0000
,
1001
0000
0000
0000
0000
0000
1100
0000
0010
0000
0001
0000
0101
0000
0000
0000
0000
0000
1010
0000
0000
0000
0000
0000
1100
0000
0010
0000
0100
0000
1100
0000
0000
0000
0000
0000
1001
0000
0010
0000
0100
0000
0110
0000
0000
0001
0000
0000
,
1100
0000
0000
0000
0000
0000
0011
0000
0100
0000
0010
0000
1001
0000
0000
0000
0000
0000
1100
0000
0000
0000
0000
0000
2001
0000
0000
0000
0000
0000
3010
0000
0100
0000
0001
0000
0110
0000
0000
0000
0000
0000
0110
0000
0000
0010
0000
0000
,
0011
0000
0000
1001
0010
1000
1200
0000
0000
1300
0010
0100
0201
0000
0000
0310
1000
0001
0021
0000
0000
0130
0000
0000
,
1001
0000
0000
0000
0000
0000
0101
0000
0010
0000
1000
0000
1100
0000
0000
0000
0000
0000
0011
0000
0000
0000
0000
0000
0102
0000
0000
0000
0000
0000
0013
0000
0100
0000
1000
0000
1010
0000
0000
0000
0000
0000
0110
0000
0000
0010
0000
0000
,
0101
0000
0000
0000
0000
0000
0110
0000
1000
0000
0010
0000
0101
0000
0000
0000
0000
0000
0101
0000
0000
0000
0000
0000
1100
0000
0010
0000
0001
0000
0101
0000
0000
0000
0000
0000
0001
0000
0010
0000
0100
0000
1100
0000
0000
0010
0000
0000
,
0110
0000
0000
1010
0100
0001
0101
0000
0000
1001
0000
0000
0012
0000
0000
1003
0100
0010
0011
0000
0000
1010
0000
0000
,
0011
0100
0010
1000
0100
1000
0010
0100
0001
0100
0010
1000
0100
1000
0001
0010
0001
0100
0202
0000
0000
0303
0000
0000
,
0001
0100
0110
0000
1000
0100
0110
0000
0001
0010
0110
0000
1100
0010
0101
0000
,
0001
1000
0001
0000
1001
0100
1001
0000
0001
0100
0001
0000
0101
0100
0110
0000
,
0010
1000
0010
0000
0110
1000
0110
0000
0100
1000
0100
0000
1100
0001
0101
0000
,
0101
1000
1100
0000
0010
1000
1010
0000
1010
0000
0001
0000
0101
0000
0001
0000
,
0011
0100
1100
0000
0010
1000
1001
0000
0001
0010
0100
0000
1100
1000
1001
0000
,
0010
0100
0010
0000
0110
0001
0011
0000
0010
0100
1000
0000
1001
0010
0110
0000
,
0100
0001
0010
0000
0011
0100
1100
0000
0010
0100
0001
0000
0101
0010
0110
0000
,
0001
0100
0101
0001
0010
0001
0011
0010
0100
1000
1100
0100
1000
0010
1000
0001
,
1001
0000
0000
1000
0002
0000
0023
0000
0030
0100
0020
0000
0031
0000
0100
0000
,
0120
0000
0030
0100
0010
0000
2000
0000
3000
0010
0200
0000
0301
0000
1000
0100
,
2100
0000
3000
0100
0010
0000
0020
0000
0030
0001
0200
0000
0310
0000
1000
0000
,
1020
0000
0000
0000
0000
0000
0030
0000
0000
0100
0000
0000
0020
0000
0000
0000
0000
0000
0230
0000
0000
0000
0000
0000
0301
0000
0010
0000
0100
0000
1000
0000
0000
0000
0000
0000
1000
0000
0100
0000
0010
0000
0001
0000
0000
0000
0000
0000
,
0110
0000
0000
0100
0020
0000
0230
0000
0300
0001
0020
0000
0130
0000
1000
0000
,
1002
0000
0003
0100
0001
0000
0002
0000
0003
0010
0200
0000
1300
0000
0100
1000
,
1200
0000
0300
0100
0010
0000
0200
0000
0300
0100
2000
0000
3001
0000
0100
0000
,
0102
0000
0000
0000
0000
0000
0003
0000
0000
0100
0000
0000
0010
0000
0000
0000
0000
0000
0020
0000
0000
0000
0000
0000
1030
0000
0010
0000
0100
0000
0002
0000
0000
0000
0000
0000
0013
0000
0100
0000
1000
0000
0001
0000
0000
0000
0000
0000
,
0120
0000
0030
1000
0002
0000
0203
0000
0300
0100
0020
0000
1030
0000
0001
0000
,
0012
0000
0003
0010
0100
0000
0200
0000
0300
1000
0002
0000
1003
0000
0001
0100
,
0201
0000
0300
0001
1000
0000
2000
0000
3000
0001
0200
0000
0301
0000
1000
0000
,
1200
0000
0000
0000
0000
0000
0300
0000
0000
1000
0000
0000
0200
0000
0000
0000
0000
0000
0320
0000
0000
0000
0000
0000
0031
0000
1000
0000
0100
0000
0010
0000
0000
0000
0000
0000
0010
0000
0100
0000
1000
0000
0001
0000
0000
0000
0000
0000
,
0101
0000
0000
0001
0002
0000
2003
0000
3000
0001
0002
0000
0103
0000
0100
0000
,
0102
0000
0003
1000
1000
0000
0200
0000
0300
1000
2000
0000
3001
0000
1000
0010
,
1020
0000
0030
0100
0001
0000
1000
0000
0000
1000
0001
0000
0010
0000
0001
0000
,
0100
0000
0000
0000
0000
0000
0010
0000
0000
0000
0000
0000
1000
0000
0000
0000
0000
0000
0001
0000
0000
0000
0000
0000
0100
0000
0000
0000
0000
0000
0000
0000
0010
0000
0000
0000
0000
0000
0000
0000
0100
0000
0000
0000
0000
0000
0000
0000
0010
0000
0000
0000
0000
0000
1000
0000
0000
0000
0000
0000
0001
0000
0000
0000
0000
0000
0100
0000
0000
0000
0000
0000
0010
0000
0000
0000
0000
0000
0000
0000
0100
0000
0000
0000
0000
0000
0000
0000
0010
0000
0000
0000
0000
0000
0000
0000
0100
0000
0000
0000
0000
0000
0000
0000
0000
0000
0000
0000
0001
0000
0000
0000
0000
0000
0000
0000
0000
0000
0000
0000
0010
0000
0000
0000
0000
0000
0000
0000
0000
0000
0000
0000
0001
0000
0000
0000
0000
0000
0000
0000
0000
0000
0000
0000
1000
0000
0000
0000
0000
0000
0000
0000
0000
0000
0000
0000
0100
0000
0000
0000
0000
0000
0000
0000
0000
0000
0000
0000
0010
0000
0000
0000
0000
0000
0000
0000
0000
0000
0000
0000
0001
0000
0000
0000
0000
0000
0000
0000
0000
0000
0000
0000
,
0011
0010
0100
1000
0001
0100
0010
0100
0101
0010
0100
1000
0100
0010
0100
1000
,
0001
0100
0110
0010
0110
1000
0100
1000
1010
0010
0110
0100
0001
0010
0001
0100
,
0001
0000
0011
0010
0110
0100
1000
0100
1100
1000
1010
0100
0001
0100
0010
1000
,
0010
0000
1010
1000
1001
0001
0010
0100
1001
0010
0110
0100
0001
0010
0001
0100
,
0101
0001
0010
0001
0100
0001
0010
0011
0010
0110
0100
1100
1000
1001
0001
1000
,
0010
1000
0010
0100
0010
1000
0010
1010
0100
0101
0001
1001
0010
0100
0010
0100
,
1000
0010
1000
0100
1000
0001
1000
1001
0010
0101
0001
0011
0010
0110
0100
1000
,
0001
0010
0001
1000
0001
0100
0001
0011
0100
0110
1000
1100
0100
0010
0001
0010
,
1100
1000
0010
0100
0001
0100
0001
0010
0110
0100
1000
0010
0100
0001
1000
0010
,
0100
0000
0000
0001
0000
0000
0010
0000
0000
0001
0000
0000
0101
0000
0010
0000
0100
0000
1000
0000
0000
0100
0000
0000
0010
0000
0000
0100
0000
0000
1000
0000
0000
0001
0000
0000
0100
0000
0000
0010
0000
0000
0100
0000
0000
0001
0000
0000
,
0011
0100
1000
0010
0110
0001
0010
0100
1100
0010
0100
0001
1001
0010
0100
1000
,
1100
0010
0100
0110
0001
0100
0101
0001
0010
0110
0001
1000
1001
0010
0100
0001
,
1001
0010
0100
0010
0001
0100
0110
1000
0001
0010
0100
1000
1010
0100
0001
0100
,
0110
0001
0010
0100
1000
0010
1010
0100
0001
0010
0001
1000
1001
0010
0100
0001
,
0110
1000
0100
1100
0010
0100
0110
1000
0100
1100
0010
0100
0101
0010
0100
0010
,
0011
0100
0010
1010
0100
0001
1001
0000
0100
1000
0010
0100
0001
0010
0100
1000
,
0010
0100
0010
0000
1010
1010
1010
0000
1010
0100
0110
0000
0011
0010
0110
0000
,
0100
0010
0100
0000
1100
1100
1100
0000
1001
0001
0011
0000
0011
0001
1001
0000
,
1000
0010
1000
0000
1010
1010
1010
0000
0110
0010
0101
0000
0101
0001
1001
0000
,
1000
1000
0110
0000
0001
0001
0110
1000
0010
0100
0001
0010
1100
0000
1010
0000
,
0100
0001
0100
0000
0101
0101
0101
0000
0011
0010
0110
0000
1100
0001
0101
0000
,
0010
1000
0010
0000
1010
1010
1010
0000
1001
0001
0011
0000
0110
0010
0011
0000
,
0100
0001
0100
0000
0101
0101
0101
0000
1001
1000
1001
0000
1100
0010
0110
0000
,
0001
0001
0110
0000
1000
1000
0110
0000
0001
0010
0100
1000
1001
0000
0110
0000
,
0101
0010
0100
1000
0010
0100
0001
0010
0100
1000
0010
0100
0001
0010
0100
1000
0010
0100
0001
0010
0100
1000
0010
0100
,
1001
0100
0010
0001
0100
0010
1000
0100
0010
0001
0100
0010
1000
0100
0010
0001
0100
0010
1000
0100
0010
0001
0100
0010
,
1001
0010
0100
1000
0010
0100
0001
0010
0100
1000
0010
0100
1001
0100
0010
0001
0100
0010
1000
0100
0010
0001
0100
0010
,
1001
0010
0100
1000
0010
0100
0001
0010
0100
1000
0010
0100
1001
0100
0010
0001
0100
0010
1000
0100
0010
0001
0100
0010
,
1001
0010
0100
1000
0010
0100
1001
0100
0010
0001
0100
0010
1001
0010
0100
1000
0010
0100
1001
0100
0010
0001
0100
0010
,
1001
0010
0100
1000
0010
0100
1001
0100
0010
0001
0100
0010
1001
0010
0100
1000
0010
0100
1001
0100
0010
0001
0100
0010
,
1001
0010
1000
0010
0001
0100
1000
0100
0001
0010
1000
0010
0001
0100
1000
0100
0001
0010
1000
0010
0001
0100
1000
0100
,
0001
0010
0100
1000
0010
0100
0001
1000
0010
0100
0001
0100
1001
0100
0010
0001
0100
0010
0100
0001
0010
0100
1000
0001
,
1001
1001
0000
1001
1001
0000
0001
0010
0100
1000
0000
1000
0001
0000
0100
0000
,
0101
0101
0000
0101
0101
0000
0001
0010
0100
1000
0000
0100
0010
0000
0001
0000
,
1001
1001
0000
1001
1001
0000
1000
0100
0010
0001
0000
0010
0001
0000
0100
0000
,
1010
1010
0000
1010
1010
0000
0001
0010
0100
1000
0010
0100
1001
0000
0001
0000
,
0011
0000
0000
0110
0000
0000
1100
0000
0010
1010
0000
0100
0001
0010
0011
0100
,
1001
0000
0000
0110
1000
0000
1001
0000
1100
0100
0010
0000
0010
0001
0100
0010
,
1001
0000
0000
1100
0000
0000
0011
0000
0001
1100
0000
0010
0100
0001
0101
0010
,
0110
0000
0000
1010
0100
0000
1001
0010
0110
1000
0001
0010
0100
1000
0001
0100
,
0110
0000
0000
0000
0000
0000
0000
0000
0000
0000
0000
0000
0000
0000
0000
0000
0000
0000
0000
0000
0000
0000
0000
0000
1010
0000
0000
0000
0000
0000
0000
0000
0100
0000
0000
0000
0000
0000
0000
0000
0001
0000
0000
0000
0000
0000
0000
0000
0101
0000
0000
0000
0000
0000
0000
0000
0000
0000
0000
0000
0000
0000
0000
0000
0000
0000
0000
0000
0000
0000
0000
0000
1001
0000
0000
0000
0000
0000
0000
0000
0000
0000
0000
0000
0000
0000
0000
0000
0000
0000
0000
0000
0000
0000
0000
0000
0011
0000
0000
0000
0000
0000
0100
0000
0000
0000
0000
0000
1000
0000
0000
0000
0000
0000
0010
0000
0000
0000
0000
0000
0100
0000
0000
0000
0000
0000
0000
0000
0000
0000
0000
0000
0000
0000
0000
0000
0000
0000
0000
0000
0000
0000
0000
0000
0100
0000
0000
0000
0000
0000
0001
0000
0000
0000
0000
0000
0010
0000
0000
0000
0000
0000
0100
0000
0000
0000
0000
0000
1100
0000
0000
0000
0000
0000
0000
0000
0000
0000
0000
0000
0000
0000
0000
0000
0000
0000
0000
0000
0000
0000
0000
0000
,
1001
0000
0000
0000
0000
0000
1010
0000
0100
0000
0001
0000
0101
0000
0000
0000
0000
0000
0001
0000
0000
0000
0000
0000
0012
0000
0000
0000
0000
0000
1003
0000
0000
0000
0000
0000
0110
0000
0000
0001
0000
0000
0011
0000
0000
0110
0000
0000
,
0011
0000
0000
0000
0000
0000
0000
0000
0000
0000
0000
0000
0000
0000
0000
0000
0000
0000
0000
0000
0000
0000
0000
0000
0001
0000
0000
0000
0000
0000
0000
0000
0010
0000
0000
0000
0000
0000
0000
0000
0100
0000
0000
0000
0000
0000
0000
0000
1001
0000
0000
0000
0000
0000
0000
0000
0000
0000
0000
0000
0000
0000
0000
0000
0000
0000
0000
0000
0000
0000
0000
0000
1010
0000
0000
0000
0000
0000
0000
0000
0000
0000
0000
0000
0000
0000
0000
0000
0000
0000
0000
0000
0000
0000
0000
0000
0110
0000
0000
0000
0000
0000
0001
0000
0000
0000
0000
0000
0010
0000
0000
0000
0000
0000
0100
0000
0000
0000
0000
0000
1000
0000
0000
0000
0000
0000
0000
0000
0000
0000
0000
0000
0000
0000
0000
0000
0000
0000
0000
0000
0000
0000
0000
0000
1100
0000
0000
0000
0000
0000
0010
0000
0000
0000
0000
0000
0100
0000
0000
0000
0000
0000
0001
0000
0000
0000
0000
0000
0010
0000
0000
0000
0000
0000
0000
0000
0000
0000
0000
0000
0000
0000
0000
0000
0000
0000
0000
0000
0000
0000
0000
0000
,
0011
0000
0000
0100
1000
0001
0011
0000
0000
0010
0000
0000
0022
0000
0000
0033
0000
0000
0220
0000
0000
0330
0000
0000
,
0100
0000
0000
0000
0000
0000
0000
0000
0000
0000
0000
0000
0000
0000
0000
0000
0000
0000
0000
0000
0000
0000
0000
0000
1100
0000
0000
0000
0000
0000
0000
0000
1000
0000
0000
0000
0000
0000
0000
0000
0010
0000
0000
0000
0000
0000
0000
0000
0110
0000
0000
0000
0000
0000
0000
0000
0000
0000
0000
0000
0000
0000
0000
0000
0000
0000
0000
0000
0000
0000
0000
0000
0110
0000
0000
0000
0000
0000
0000
0000
0000
0000
0000
0000
0000
0000
0000
0000
0000
0000
0000
0000
0000
0000
0000
0000
0101
0000
0000
0000
0000
0000
0010
0000
0000
0000
0000
0000
0100
0000
0000
0000
0000
0000
1000
0000
0000
0000
0000
0000
0010
0000
0000
0000
0000
0000
0000
0000
0000
0000
0000
0000
0000
0000
0000
0000
0000
0000
0000
0000
0000
0000
0000
0000
0010
0000
0000
0000
0000
0000
0100
0000
0000
0000
0000
0000
0001
0000
0000
0000
0000
0000
0010
0000
0000
0000
0000
0000
0011
0000
0000
0000
0000
0000
0000
0000
0000
0000
0000
0000
0000
0000
0000
0000
0000
0000
0000
0000
0000
0000
0000
0000
,
0011
0000
0000
0000
1000
0010
0100
0001
0101
0000
0000
0000
0100
0000
0000
0000
0102
0000
0000
0000
0013
0000
0000
0000
0011
0000
0010
0000
0110
0000
1100
0000
,
0110
0000
0000
0000
0000
0000
0000
0000
0000
0000
0000
0000
0000
0000
0000
0000
0000
0000
0000
0000
0000
0000
0000
0000
0110
0000
0000
0000
0000
0000
0000
0000
0001
0000
0000
0000
0000
0000
0000
0000
0100
0000
0000
0000
0000
0000
0000
0000
0101
0000
0000
0000
0000
0000
0000
0000
0000
0000
0000
0000
0000
0000
0000
0000
0000
0000
0000
0000
0000
0000
0000
0000
0110
0000
0000
0000
0000
0000
0000
0000
0000
0000
0000
0000
0000
0000
0000
0000
0000
0000
0000
0000
0000
0000
0000
0000
1010
0000
0000
0000
0000
0000
0100
0000
0000
0000
0000
0000
0010
0000
0000
0000
0000
0000
0100
0000
0000
0000
0000
0000
1000
0000
0000
0000
0000
0000
0000
0000
0000
0000
0000
0000
0000
0000
0000
0000
0000
0000
0000
0000
0000
0000
0000
0000
1000
0000
0000
0000
0000
0000
0010
0000
0000
0000
0000
0000
0100
0000
0000
0000
0000
0000
0001
0000
0000
0000
0000
0000
0101
0000
0000
0000
0000
0000
0000
0000
0000
0000
0000
0000
0000
0000
0000
0000
0000
0000
0000
0000
0000
0000
0000
0000
,
0001
0000
0000
0000
0011
0100
0010
0001
0100
0000
0001
0000
1001
0000
1000
0000
0100
0000
0010
0000
1001
0000
0010
0000
0100
0000
1000
0000
0010
0000
0100
0000
,
0001
0100
0110
0000
1000
0100
0011
0000
0001
0010
0110
0000
1100
0001
0110
0000
,
0100
0001
0010
0000
0110
1000
0110
0000
0100
0001
1000
0000
1100
0010
0101
0000
,
0010
1000
0100
0000
1100
0100
0110
0000
0010
0001
0100
0000
0110
0001
0101
0000
,
1001
0100
1001
0000
1000
0100
1100
0000
1001
0000
0010
0000
0101
0000
0001
0000
,
0011
0100
1100
0000
0010
1000
1100
0000
0010
0100
0001
0000
0101
0010
1001
0000
,
0010
0100
1000
0000
0110
0001
1001
0000
1000
0001
0010
0000
0011
0100
0110
0000
,
0100
1000
0010
0000
1010
0010
0101
0000
0001
0010
0100
0000
1100
1000
0110
0000
,
0001
0101
0000
0110
0000
0010
1010
0000
,
1010
0000
0000
1000
0002
0000
0023
0000
0030
0100
0020
0000
0031
0000
1000
0000
,
2001
0000
3000
0100
0010
0000
0002
0000
0003
0010
0200
0000
0310
0000
0001
0100
,
0120
0000
0030
1000
0001
0000
0020
0000
0030
0001
2000
0000
3010
0000
1000
0000
,
1020
0000
0000
0000
0000
0000
0030
0000
0000
0100
0000
0000
0020
0000
0000
0000
0000
0000
0230
0000
0000
0000
0000
0000
0310
0000
1000
0000
0001
0000
0010
0000
0000
0000
0000
0000
0100
0000
1000
0000
0100
0000
0010
0000
0000
0000
0000
0000
,
0110
0000
0000
1000
0020
0000
0230
0000
0300
0001
0020
0000
0130
0000
1000
0000
,
1002
0000
0003
0100
0001
0000
0002
0000
0003
0010
0200
0000
1300
0000
0100
1000
,
1020
0000
0030
0100
0010
0000
0200
0000
0300
0001
2000
0000
3001
0000
0010
0000
,
1200
0000
0000
0000
0000
0000
0300
0000
0000
1000
0000
0000
0001
0000
0000
0000
0000
0000
0002
0000
0000
0000
0000
0000
0013
0000
0100
0000
1000
0000
0020
0000
0000
0000
0000
0000
0130
0000
0001
0000
0010
0000
0100
0000
0000
0000
0000
0000
,
0210
0000
0300
1000
0002
0000
0203
0000
0300
0100
0020
0000
1030
0000
1000
0000
,
0102
0000
0003
0010
0100
0000
0200
0000
0300
1000
0200
0000
0310
0000
0100
1000
,
1002
0000
0003
1000
0001
0000
0020
0000
0030
0001
0200
0000
0301
0000
1000
0000
,
1200
0000
0000
0000
0000
0000
0300
0000
0000
1000
0000
0000
0200
0000
0000
0000
0000
0000
0320
0000
0000
0000
0000
0000
0031
0000
0010
0000
0100
0000
0010
0000
0000
0000
0000
0000
0100
0000
1000
0000
0010
0000
0100
0000
0000
0000
0000
0000
,
0110
0000
0000
0001
0002
0000
0023
0000
0030
0100
0200
0000
0310
0000
0010
0000
,
2100
0000
3000
0100
1000
0000
0020
0000
0030
1000
2000
0000
3001
0000
0010
0100
,
2100
0000
3000
1000
0010
0000
0100
0000
0000
0100
0010
0000
1000
0000
0100
0000
,
1000
0000
0000
0000
0000
0000
0010
0000
0000
0000
0000
0000
0100
0000
0000
0000
0000
0000
0001
0000
0000
0000
0000
0000
0100
0000
0000
0000
0000
0000
0000
0000
0010
0000
0000
0000
0000
0000
0000
0000
1000
0000
0000
0000
0000
0000
0000
0000
0100
0000
0000
0000
0000
0000
0000
0000
0010
0000
0000
0000
0000
0000
0000
0000
0100
0000
0000
0000
0000
0000
0000
0000
1000
0000
0000
0000
0000
0000
0000
0000
0001
0000
0000
0000
0000
0000
0000
0000
0010
0000
0000
0000
0000
0000
0000
0000
0100
0000
0000
0000
0000
0000
0000
0000
0010
0000
0000
0000
0000
0000
0000
0000
0001
0000
0000
0000
0000
0000
0000
0000
1000
0000
0000
0000
0000
0000
0000
0000
0100
0000
0000
0000
0000
0000
0000
0000
1000
0000
0000
0000
0000
0000
0000
0000
0001
0000
0000
0000
0000
0000
0000
0000
0100
0000
0000
0000
0000
0000
0000
0000
0001
0000
0000
0000
0000
0000
0000
0000
1000
0000
0000
0000
0000
0000
0000
0000
0100
0000
0000
0000
0000
0000
0000
0000
0010
0000
0000
0000
0000
0000
0000
0000
,
0011
0011
0000
0110
0110
0000
1100
1100
1000
1010
0010
0100
0101
0000
1001
0000
,
1100
1100
0000
0110
0110
0000
0011
0011
0010
0001
0000
0100
0010
0000
1000
0000
,
1010
1010
0000
0110
0110
0000
0101
0101
0010
1001
1000
0100
1100
0000
1001
0000
,
0110
0110
0000
0101
0101
0000
0011
0011
0100
1000
0010
0100
1001
0000
1000
0000
,
1010
1010
0000
0101
0101
0000
0011
0011
0010
0110
1000
0010
1010
0000
1001
0000
,
0101
0101
0000
1001
1001
0000
1100
1100
0010
0100
0000
0010
0101
0000
0001
0000
,
1001
1001
0000
0110
0110
0000
1001
1001
0100
0110
0010
0001
0101
0000
1001
0000
,
1010
1010
0000
0101
0101
0000
1001
1001
0100
0010
0001
1000
1100
0000
0010
0000
,
1001
1001
0000
0011
0011
0000
1100
1100
0010
0110
0100
0001
1001
0000
0110
0000
,
0101
0101
0010
0110
1100
0000
1000
0010
1010
0100
0001
0010
0011
0000
0110
0000
,
1001
0101
0010
0110
0101
0000
1001
1100
0010
0110
1000
0100
1100
0000
1001
0000
,
1010
1010
0100
0101
0101
0000
0110
0110
0010
1000
0010
0100
0001
0000
1000
0000
,
1001
1010
0001
0101
1001
0000
1001
0011
0100
1001
1000
0010
0110
0000
0110
0000
,
0101
1001
0100
0110
0011
0000
0001
0100
0101
0010
1000
0100
0011
0000
0101
0000
,
1001
1001
1000
1100
1100
0000
0110
1100
0010
0110
0001
1000
1001
0000
0110
0000
,
1001
1100
0010
0011
1001
0000
0101
0101
0010
0010
1000
0001
1000
0000
0000
0000
;

//---------------dance-single - Drums of Death----------------
#NOTES:
     dance-single:
     Drums of Death:
     Hard:
     14:
     1.000,1.000,1.000,0.573,1.000,2786.000,722.000,219.000,0.000,0.000:
1100
1100
0000
1001
1001
0000
0010
0100
1000
0010
0000
0100
0010
0000
0100
0000
,
0101
0101
0000
0110
0110
0000
1000
0001
0010
0100
0000
0100
0010
0000
0001
0000
,
0011
0011
0000
1100
1100
0000
1000
0010
0100
0001
0000
0010
0100
0000
1000
0000
,
1010
1010
0000
0110
0110
0000
0100
0100
0101
0100
0100
0100
0110
0000
0100
0000
,
0220
0330
0110
0000
0000
0000
1001
0000
2002
3003
0000
0000
0100
0000
0010
0000
0001
0000
0010
0000
0000
0000
0010
0000
0100
0000
0000
0000
0100
0000
0000
0000
,
2100
3000
0020
0030
0200
0300
0002
0003
0120
0030
2000
3000
0020
0030
0200
0300
0001
0000
0100
0000
0000
0000
0010
0000
1000
0000
0000
0000
0001
0000
0000
0000
,
0022
0033
0110
0000
0000
0000
0110
0000
2200
3300
0000
0000
0100
0000
0010
0000
0001
0000
1000
0000
0000
0000
1000
0000
0010
0000
0000
0000
0100
0000
0000
0000
,
0201
0300
0020
0030
2000
3000
0002
0003
0210
0300
2000
3000
0020
0030
0200
0300
0011
0000
0001
0000
0001
0000
0001
0000
0101
0000
0000
0000
1001
0000
0000
0000
,
1010
0110
0000
0110
0101
0000
0011
0100
1100
1000
1010
0010
0100
0000
0101
0000
,
0012
0003
0020
0030
0120
0030
0200
0300
1200
0300
2000
3000
1200
0300
2001
3000
0001
0000
0100
0000
0000
0000
0001
0000
0010
0000
0000
0000
0110
0000
0000
0000
,
1100
1001
0000
1001
0101
0000
0110
0100
0101
0001
0010
0100
1000
0000
1100
0000
,
0210
0300
0020
0030
0021
0030
0002
0003
1002
0003
2000
3000
2001
3000
1002
0003
1100
0000
0100
0000
0100
0000
0100
0000
0110
0000
0000
0000
0100
0000
0000
0000
,
1100
0110
0000
0011
0110
0000
1100
0010
0001
0100
0000
0010
0110
0000
1001
0000
,
1020
0030
2000
3000
0002
0003
0200
0300
0210
0300
0020
0030
0120
0030
0200
0300
0001
0000
0010
0000
0000
0000
0100
0000
1100
0000
0000
0000
0011
0000
0000
0000
,
0110
0110
0000
1100
1100
0000
1010
0010
1000
0001
0000
0100
0101
0000
1001
0000
,
0101
0101
0000
1100
1100
0000
0101
0201
0001
0001
0001
0001
0010
0000
0000
0300
,
0210
0300
0101
0000
0000
0000
0101
0000
1001
0000
0000
0000
2001
3000
0110
0000
0000
0000
0110
0000
1200
0300
0000
0000
1000
0000
0000
0000
1000
0000
0000
0000
,
2010
3000
0110
0000
0000
0000
0110
0000
0101
0000
0000
0000
0201
0300
1001
0000
0000
0000
1001
0000
2100
3000
0000
0000
0011
0000
0000
0000
0012
0003
0000
0000
,
0201
0300
0110
0000
0000
0000
0110
0000
1010
0000
0000
0000
2001
3000
1100
0000
0000
0000
1100
0000
0102
0003
0000
0000
0100
0000
0000
0000
0100
0000
0000
0000
,
0210
0300
0110
0000
0000
0000
1001
0000
1002
0003
0000
0000
2001
3000
0110
0000
0000
0000
0110
0000
1100
0000
0000
0000
0010
0000
0010
0000
1010
0000
0100
0000
,
0102
0003
0101
0000
0000
0000
0110
0000
0110
0000
0000
0000
1020
0030
1001
0000
0000
0000
1001
0000
2100
3000
0000
0000
0100
0000
0000
0000
0100
0000
0000
0000
,
2100
3000
0110
0000
0000
0000
0011
0000
0110
0000
0000
0000
2001
3000
0110
0000
0000
0000
0101
0000
0201
0300
0000
0000
0110
0000
0000
0000
0210
0300
0000
0000
,
2010
3000
1010
0000
0000
0000
0101
0000
0101
0000
0000
0000
0021
0030
0011
0000
0000
0000
1100
0000
2100
3000
0000
0000
0010
0000
0000
0000
0010
0000
0000
0000
,
0010
1000
0010
0100
0001
0100
0010
1000
0100
0010
0001
0100
0010
1000
0100
0010
0001
1000
0100
1000
0001
0010
0001
1000
0100
0010
0001
1000
0100
0010
0001
0100
,
0001
1000
0001
1000
0001
1000
0001
1000
1001
0000
0000
0000
0001
0000
0010
0000
1100
0000
0000
0000
1000
0000
0001
0000
0101
0000
0010
0000
0010
0000
0010
0000
,
1000
0001
1000
0001
1000
0001
1000
0001
1000
0000
0000
0000
0010
0000
1000
0000
1100
0000
0000
0000
0011
0000
0000
0000
1100
0000
0000
0000
0100
0000
0000
0000
,
0010
0100
0010
0100
0010
0100
0010
0100
0110
0000
0000
0000
1000
0000
0001
0000
0101
0000
0000
0000
0001
0000
0010
0000
0110
0000
1000
0000
0010
0000
0010
0000
,
0010
0100
0010
0100
0010
0100
0010
0100
0010
0000
0000
0000
0100
0000
0010
0000
1001
0000
0000
0000
0110
0000
0000
0000
1001
0000
0000
0000
1000
0000
0000
0000
,
0100
1000
0100
1000
0100
1000
0100
1000
1100
0000
0000
0000
1000
0000
0100
0000
0110
0000
0000
0000
0001
0000
1000
0000
0110
0000
0001
0000
0010
0000
0010
0000
,
0010
0001
0010
0001
0010
0001
0010
0001
0010
0000
0000
0000
0001
0000
0100
0000
0101
0000
0000
0000
1001
0000
0000
0000
0110
0000
0000
0000
1000
0000
0000
0000
,
0010
1000
0010
1000
0010
1000
0010
1000
1010
0000
0000
0000
0010
0000
1000
0000
0110
0000
0000
0000
0001
0000
0010
0000
0110
0000
1000
0000
0001
0000
0001
0000
,
0001
0100
0001
0100
0001
0100
0001
0100
0101
0000
0000
0000
0001
0000
0001
0000
1000
0000
1000
0000
0001
0000
0001
0000
0010
0000
0010
0000
0100
0000
0100
0000
,
1100
0000
0000
1000
1001
0000
0101
0000
0000
0100
0001
0000
0101
0000
0110
0000
,
1001
0000
0000
1000
1100
0000
0110
0000
0000
0010
0001
0000
0011
0000
0110
0000
,
1001
0000
0000
1000
0001
0000
0100
0000
0000
0100
0110
0000
1010
0000
0110
0000
,
0101
0000
0000
0000
0000
0000
0001
0000
0011
0000
0000
0000
0010
0000
0000
0000
0100
1000
0010
0100
0001
0000
0010
0000
0100
0000
1000
0000
0010
0000
1000
0000
,
1100
0000
0000
0010
0011
0000
0101
0000
0000
0100
0010
0000
1010
0000
1100
0000
,
1001
0000
0000
0001
0110
0000
1100
0000
0000
1000
0100
0000
0011
0000
1001
0000
,
0100
0000
0000
0100
0010
0000
0010
0000
0000
0100
0110
0000
1010
0000
1001
0000
,
0100
0010
0001
0010
0100
1000
0100
0010
0001
0100
0010
1000
0100
0010
0001
0100
0010
1000
0100
0010
0001
1000
0100
0010
0001
0100
0001
1000
0001
0100
0001
1000
,
0100
0010
0001
0010
0100
0010
0001
1000
0100
1000
0010
0100
0010
1000
0010
0100
,
0001
0100
0010
1000
0001
1000
0010
1000
0001
0010
0001
1000
0001
0010
0100
0010
,
1100
0010
0100
0001
0100
0010
1000
0001
0100
0110
1000
0001
0110
1000
0001
0010
,
0001
1000
0100
1000
0001
0010
0001
0100
0001
1010
0010
0100
0110
0001
1000
0010
,
0110
0001
0010
0100
0010
0001
0010
0100
1000
0010
1000
0100
1000
0001
1000
0010
,
0100
0001
0010
0100
1000
0001
0010
0100
1000
0001
0010
0100
1000
0010
0100
0010
,
0100
0001
0010
0100
1000
0100
0010
0001
0100
0010
1000
0001
0100
0010
1000
0001
0010
0100
1000
0001
0010
0100
1000
0001
0010
0001
1000
0100
1000
0001
0010
0001
,
0100
0000
0000
0000
0000
0000
0010
0000
0000
0000
0000
0000
1000
0000
0000
0000
0000
0000
0100
0000
0000
0000
0000
0000
0010
0000
0000
0000
0000
0000
0001
0000
0000
0000
0000
0000
0100
0000
0000
0000
0000
0000
0010
0000
0000
0000
0000
0000
1000
0000
0000
0000
0000
0000
0100
0000
0000
0000
0000
0000
1000
0000
0000
0000
0000
0000
0001
0000
0000
0000
0000
0000
0100
0000
0000
0000
0000
0000
0001
0000
0000
0000
0000
0000
1000
0000
0000
0000
0000
0000
0100
0000
0000
0000
0000
0000
1000
0000
0000
0000
0000
0000
0010
0000
0000
0000
0000
0000
0100
0000
0000
0000
0000
0000
0001
0000
0000
0000
0000
0000
0100
0000
0000
0000
0000
0000
0010
0000
0000
0000
0000
0000
1000
0000
0000
0000
0000
0000
0010
0000
0000
0000
0000
0000
0100
0000
0000
0000
0000
0000
0000
0000
0001
0000
0000
0000
0000
0000
0000
0000
0100
0000
0000
0000
0000
0000
0000
0000
0010
0000
0000
0000
0000
0000
0000
0000
1000
0000
0000
0000
0000
0000
0000
0000
0100
0000
0000
0000
0000
0000
0000
0000
,
1100
0000
0000
0010
0200
0000
2300
0000
3000
0010
0200
0000
0310
0000
1000
0000
,
2100
0000
3000
0010
0100
0000
0002
0000
0003
0100
0020
0000
1030
0000
0001
0010
,
0012
0000
0003
0010
0100
0000
0200
0000
0300
1000
0020
0000
0130
0000
0010
0000
,
0201
0000
0000
0000
0000
0000
0300
0000
0000
0010
0000
0000
0200
0000
0000
0000
0000
0000
0320
0000
0000
0000
0000
0000
1030
0000
0100
0000
0001
0000
0100
0000
0000
0000
0000
0000
0100
0000
1000
0000
0010
0000
0100
0000
0000
0000
0000
0000
,
0110
0000
0000
0010
0200
0000
0320
0000
0030
1000
0200
0000
0310
0000
0001
0000
,
2001
0000
3000
0010
1000
0000
2000
0000
3000
0100
0020
0000
0031
0000
0010
0001
,
0021
0000
0030
0010
0100
0000
0020
0000
0030
0010
0002
0000
1003
0000
0010
0000
,
2010
0000
0000
0000
0000
0000
3000
0000
0000
0010
0000
0000
0100
0000
0000
0000
0000
0000
0200
0000
0000
0000
0000
0000
0301
0000
0010
0000
1000
0000
0020
0000
0000
0000
0000
0000
0130
0000
0010
0000
0001
0000
1000
0000
0000
0000
0000
0000
,
0210
0000
0300
0001
2000
0000
3020
0000
0030
0010
0200
0000
0301
0000
1000
0000
,
2100
0000
3000
0100
0010
0000
0020
0000
0030
0001
2000
0000
3001
0000
1000
0010
,
1020
0000
0030
1000
0001
0000
0002
0000
0003
1000
0020
0000
1030
0000
0001
0000
,
0021
0000
0000
0000
0000
0000
0030
0000
0000
0001
0000
0000
0020
0000
0000
0000
0000
0000
0230
0000
0000
0000
0000
0000
1300
0000
0010
0000
0001
0000
0010
0000
0000
0000
0000
0000
0010
0000
1000
0000
0100
0000
1000
0000
0000
0000
0000
0000
,
1010
0000
0000
1000
2000
0000
3002
0000
0003
1000
2000
0000
3010
0000
0010
0000
,
2010
0000
3000
0001
0001
0000
0020
0000
0030
0001
0002
0000
1003
0000
0001
0100
,
0201
0000
0300
0010
0010
0000
0100
0000
0000
0001
0001
0000
0001
0000
1000
0000
,
0001
0010
0100
1000
0100
0010
0100
1000
0001
0010
0100
0010
0001
0010
0100
1000
0010
0000
0010
0000
0010
0000
0010
0000
0010
0000
0010
0000
0010
0000
0010
0000
,
1001
0100
0010
1000
0100
0010
0001
0100
0010
1000
0100
0010
0001
0100
0010
1000
,
0100
0010
0001
0100
0010
1000
0100
0010
1001
0010
0100
0001
0101
0010
0100
1000
,
1010
0100
0001
0010
0100
1000
0010
0100
0001
0010
0100
1000
0010
0100
0001
0010
,
0100
1000
0010
0100
0001
0010
0100
1000
0010
0100
0101
0010
0001
0001
0001
0001
,
0011
0100
1000
0010
1000
0001
1000
0010
0100
0001
0100
0010
0100
0001
0100
0010
,
1000
0001
1000
0010
1000
0100
1000
0001
0010
0100
0010
0001
1000
0010
1000
0100
,
0010
0100
1000
0001
0100
0010
0100
0001
0010
0100
0010
0001
1000
0100
1000
0001
,
1000
0100
0010
0001
0100
0010
1000
0100
1000
0001
0010
0100
1000
0010
0100
0001
0100
0000
0100
0000
0100
0000
0100
0000
0010
0000
0010
0000
0010
0000
0010
0000
,
1001
0000
0000
0000
0000
0000
0000
0000
0010
0000
0000
0000
1000
0100
0010
0001
1001
0000
0000
0000
0010
0000
0000
0000
0101
0000
0000
0000
1100
0000
0000
0000
,
0000
0000
0000
0000
0000
0000
1000
0000
0000
0100
0010
0001
0101
0000
0000
0000
0000
0000
0110
0000
0000
0001
0000
0000
,
1100
0000
0000
0010
0000
0000
0110
0000
0000
0001
0000
0000
1000
0000
0000
0001
0010
0100
1100
0000
0000
0101
0000
0000
,
0000
0000
0000
0000
0000
0000
0000
0000
0000
0000
0000
0000
0010
0000
0000
0000
0000
0000
1000
0000
0001
0000
0010
0000
0110
0000
0000
0000
0000
0000
0000
0000
0000
0010
0000
0000
0100
0000
0000
0000
0000
0000
1100
0000
0000
0000
0000
0000
,
0011
0000
0000
0000
0000
0000
0000
0000
0000
0000
0000
0000
0000
0000
0000
0000
0000
0000
0000
0000
0000
0000
0000
0000
0000
0000
0000
0000
0000
0000
0000
0000
0000
0000
0000
0000
0000
0000
0000
0000
0000
0000
0000
0000
0000
0000
0000
0000
1001
0000
0000
0000
0000
0000
0000
0000
0000
0000
0000
0000
0000
0000
0000
0000
0000
0000
0000
0000
0000
0000
0000
0000
0010
0000
0000
0000
0000
0000
0000
0000
0100
0000
0000
0000
0000
0000
0000
0000
0001
0000
0000
0000
0000
0000
0000
0000
0101
0000
0000
0000
0000
0000
0000
0000
0000
0000
0000
0000
0000
0000
0000
0000
0000
0000
0000
0000
0000
0000
0000
0000
0001
0000
0000
0000
0000
0000
0010
0000
0000
0000
0000
0000
0100
0000
0000
0000
0000
0000
1000
0000
0000
0000
0000
0000
1001
0000
0000
0000
0000
0000
0000
0000
0000
0000
0000
0000
0000
0000
0000
0000
0000
0000
0000
0000
0000
0000
0000
0000
0110
0000
0000
0000
0000
0000
0000
0000
0000
0000
0000
0000
0000
0000
0000
0000
0000
0000
0000
0000
0000
0000
0000
0000
,
0000
0000
0000
0000
0000
0000
0000
0000
0000
0000
0000
0000
0110
0000
0000
0000
0000
0000
1001
0000
0100
0000
0010
0000
0001
0000
0000
0000
0000
0000
0000
0000
0000
0101
0000
0000
0010
0000
0000
0000
0000
0000
0110
0000
0000
0000
0000
0000
,
1100
0000
0000
0000
0000
0000
0101
0000
0000
0001
0100
0010
0110
0000
0000
0000
0000
0000
0101
0000
0000
1001
0000
0000
,
0100
0010
0100
1000
0001
0100
0010
0100
0001
1000
0100
0010
0100
1000
0001
0100
,
0010
1000
0100
0010
0001
1000
0100
0010
0100
1000
0001
0010
0100
1000
0001
0010
,
0001
0100
0001
1000
0100
1000
0001
0100
0010
1000
0010
0100
0101
0010
0100
0010
,
0011
0100
0010
1000
0001
0100
0010
1000
0001
0100
0010
1000
0001
0100
0010
1000
,
0110
0001
0100
0010
0100
0001
0010
0001
0100
0100
0100
0001
0010
0010
0010
0010
,
0010
0001
0010
0100
1000
0010
0100
0001
0100
0010
1000
0010
0100
0001
0100
0010
,
1000
0100
0010
0001
0100
0010
1000
0100
0010
0100
1000
0001
0010
0100
0010
0001
,
0100
0010
1000
0001
0100
0010
1000
0001
0100
0010
1000
0001
0100
0010
1000
0001
,
0100
0001
0010
0100
0010
0001
0100
0010
0100
0001
0010
0100
1000
0010
0100
0001
0010
0001
1000
0001
0010
0000
0010
0000
0100
0000
0100
0000
1000
0000
1000
0000
,
1000
0000
0000
0000
0000
0000
0011
0000
0100
0000
1000
0000
0110
0000
0000
0000
0000
0000
0101
0000
0000
0000
0000
0000
1002
0000
0000
0000
0000
0000
0013
0000
0100
0000
1000
0000
0110
0000
0000
0000
0000
0000
1010
0000
0000
0100
0000
0000
,
1001
0000
0000
0000
0000
0000
1100
0000
0010
0000
0001
0000
0101
0000
0000
0000
0000
0000
1010
0000
0000
0000
0000
0000
1100
0000
0010
0000
0100
0000
1100
0000
0000
0000
0000
0000
1001
0000
0010
0000
0100
0000
0110
0000
0000
0001
0000
0000
,
1100
0000
0000
0000
0000
0000
0011
0000
0100
0000
0010
0000
1001
0000
0000
0000
0000
0000
1100
0000
0000
0000
0000
0000
2001
0000
0000
0000
0000
0000
3010
0000
0100
0000
0001
0000
0110
0000
0000
0000
0000
0000
0110
0000
0000
0010
0000
0000
,
0011
0000
0000
1001
0010
1000
1200
0000
0000
1300
0010
0100
0201
0000
0000
0310
1000
0001
0021
0000
0000
0130
0000
0000
,
1001
0000
0000
0000
0000
0000
0101
0000
0010
0000
1000
0000
1100
0000
0000
0000
0000
0000
0011
0000
0000
0000
0000
0000
0102
0000
0000
0000
0000
0000
0013
0000
0100
0000
1000
0000
1010
0000
0000
0000
0000
0000
0110
0000
0000
0010
0000
0000
,
0101
0000
0000
0000
0000
0000
0110
0000
1000
0000
0010
0000
0101
0000
0000
0000
0000
0000
0101
0000
0000
0000
0000
0000
1100
0000
0010
0000
0001
0000
0101
0000
0000
0000
0000
0000
0001
0000
0010
0000
0100
0000
1100
0000
0000
0010
0000
0000
,
0110
0000
0000
1010
0100
0001
0101
0000
0000
1001
0000
0000
0012
0000
0000
1003
0100
0010
0011
0000
0000
1010
0000
0000
,
0011
0100
0010
1000
0100
1000
0001
0010
0001
0100
0010
1000
0100
0010
0001
0010
0100
1000
0001
0100
0001
1000
0010
0100
0202
0000
0000
0000
0303
0000
0000
0000
,
0001
0100
0110
0000
1000
0100
0110
0000
0001
0010
0110
0000
1100
0010
0101
0000
,
0001
1000
0001
0000
1001
0100
1001
0000
0001
0100
0001
0000
0101
0100
0110
0000
,
0010
1000
0010
0000
0110
1000
0110
0000
0100
1000
0100
0000
1100
0001
0101
0000
,
0101
1000
1100
0000
0010
1000
1010
0000
1010
0000
0001
0000
0101
0000
0001
0000
,
0011
0100
1100
0000
0010
1000
1001
0000
0001
0010
0100
0000
1100
1000
1001
0000
,
0010
0100
0010
0000
0110
0001
0011
0000
0010
0100
1000
0000
1001
0010
0110
0000
,
0100
0001
0010
0000
0011
0100
1100
0000
0010
0100
0001
0000
0101
0010
0110
0000
,
0001
0001
0101
0001
0010
0010
0011
0010
0100
0100
1100
0100
1000
1000
1000
1000
,
1010
0000
0000
1000
0002
0000
0023
0000
0030
0100
0020
0000
0031
0000
0100
0000
,
0120
0000
0030
0100
0010
0000
2000
0000
3000
0010
0200
0000
0301
0000
1000
0100
,
2100
0000
3000
0100
0010
0000
0020
0000
0030
0001
0200
0000
0310
0000
1000
0000
,
1020
0000
0000
0000
0000
0000
0030
0000
0000
0100
0000
0000
0020
0000
0000
0000
0000
0000
0230
0000
0000
0000
0000
0000
0301
0000
0010
0000
1000
0000
0010
0000
0000
0000
0000
0000
0010
0000
0001
0000
0100
0000
1000
0000
0000
0000
0000
0000
,
1100
0000
0000
0100
0020
0000
0230
0000
0300
0001
0020
0000
0130
0000
1000
0000
,
1002
0000
0003
0100
0001
0000
0002
0000
0003
0010
0200
0000
1300
0000
0100
1000
,
1200
0000
0300
0100
0010
0000
0200
0000
0300
0100
2000
0000
3001
0000
0100
0000
,
0102
0000
0000
0000
0000
0000
0003
0000
0000
0100
0000
0000
0010
0000
0000
0000
0000
0000
0020
0000
0000
0000
0000
0000
0130
0000
0001
0000
0010
0000
2000
0000
0000
0000
0000
0000
3010
0000
0001
0000
0100
0000
0010
0000
0000
0000
0000
0000
,
0120
0000
0030
1000
0002
0000
0203
0000
0300
0100
0020
0000
1030
0000
0001
0000
,
0012
0000
0003
0010
0100
0000
0200
0000
0300
1000
0002
0000
1003
0000
0001
0100
,
0201
0000
0300
0001
1000
0000
2000
0000
3000
0001
0200
0000
0301
0000
1000
0000
,
1200
0000
0000
0000
0000
0000
0300
0000
0000
1000
0000
0000
0200
0000
0000
0000
0000
0000
0320
0000
0000
0000
0000
0000
0031
0000
0010
0000
1000
0000
0010
0000
0000
0000
0000
0000
0010
0000
0100
0000
1000
0000
0010
0000
0000
0000
0000
0000
,
0101
0000
0000
0001
0002
0000
2003
0000
3000
0001
0002
0000
0103
0000
0100
0000
,
0102
0000
0003
1000
1000
0000
0200
0000
0300
1000
2000
0000
3001
0000
1000
0010
,
1020
0000
0030
0100
0001
0000
1000
0000
0000
1000
0001
0000
0010
0000
0001
0000
,
0100
0010
1000
0001
0100
0010
1000
0001
0010
0100
1000
0001
0010
0001
1000
0100
0010
0000
0001
0000
0001
0000
0001
0000
0001
0000
0001
0000
0001
0000
0001
0000
,
0011
0010
0100
1000
0001
0100
0010
0100
0101
0010
0100
1000
0100
0010
0100
1000
,
0001
0100
0110
0010
0110
1000
0100
1000
1010
0010
0110
0100
0001
0001
0001
0001
,
0001
0001
0011
0010
0110
0100
1000
0100
1100
1000
1010
1000
0010
0010
0010
0010
,
0010
0010
1010
1000
1001
0001
0010
0100
1001
0010
0110
0100
0100
0100
0100
0100
,
0101
0001
0010
0001
0100
0001
0010
0011
0010
0110
0100
1100
1000
1001
0001
1000
,
0010
1000
0010
0100
0010
1000
0010
1010
0100
0101
0001
1001
0010
0100
0010
0100
,
1000
0010
1000
0100
1000
0001
1000
1001
0010
0101
0001
0011
0010
0110
0100
1000
,
0001
0000
0010
0000
0001
0000
1000
0000
0001
0000
0100
0000
0001
0000
0101
0000
0001
0010
0100
1000
0100
0000
0100
0000
0100
0000
0100
0000
0100
0000
0100
0000
,
1100
1000
0010
0100
0001
0100
0001
0010
0110
0100
1000
0010
0100
0001
1000
0010
,
0100
0000
0001
0000
0010
0000
0001
0000
0001
0010
0100
0000
1000
0000
0100
0000
0010
0000
0100
0000
1000
0000
0001
0000
0100
0000
0010
0000
0100
0000
0001
0000
,
0011
0100
1000
0010
0110
0001
0010
0100
1100
0010
0100
0001
1001
0010
0100
1000
,
1100
0010
0100
0110
0001
0100
0101
0001
0010
0110
0001
1000
1001
0010
0100
0001
,
1001
0010
0100
0010
0001
0100
0110
1000
0001
0010
0100
1000
1010
0100
0001
0100
,
0110
0001
0010
0100
1000
0010
1010
0100
0001
0010
0001
1000
1001
0010
0100
0001
,
0110
1000
0100
1100
0010
0100
0110
1000
0100
1100
0010
0100
0101
0010
0100
0010
,
0011
0100
0010
1010
0100
0001
1001
0000
0100
0100
0100
0100
1000
1000
1000
1000
,
0010
0010
0010
0000
1010
1010
1010
0000
1010
0100
0110
0000
0011
0010
0110
0000
,
0100
0100
0100
0000
1100
1100
1100
0000
1001
0001
0011
0000
0011
0001
1001
0000
,
1000
1000
1000
0000
1010
1010
1010
0000
0110
0010
0101
0000
0101
0001
1001
0000
,
1000
1000
0110
0000
0001
0001
0110
1000
0010
0100
0001
0010
1100
0000
1010
0000
,
0100
0100
0100
0000
0101
0101
0101
0000
0011
0010
0110
0000
1100
0001
0101
0000
,
0010
0010
0010
0000
1010
0110
1010
0000
1001
0001
0011
0000
0110
0010
0011
0000
,
0001
0001
0001
0000
0101
0110
0101
0000
1001
1000
1001
0000
1100
0010
0110
0000
,
0001
0001
0110
0000
1000
1000
0110
0000
0001
0010
0100
1000
1001
0000
0110
0000
,
0001
1000
0001
0000
1000
0001
1000
0000
0001
1000
0001
0000
1000
0001
1000
0000
0001
1000
0001
0000
1000
0001
1000
0000
0001
1000
0001
0000
1000
0001
1000
0000
,
0110
0100
0010
0000
0100
0010
0100
0000
0010
0100
0010
0000
0100
0010
0100
0000
0010
0100
0010
0000
0100
0010
0100
0000
0010
0100
0010
0000
0100
0010
0100
0000
,
1001
1000
0001
0000
1000
0001
1000
0000
0001
1000
0001
0000
1000
0001
1000
0000
1010
0010
1000
0000
0010
1000
0010
0000
1000
0010
1000
0000
0010
1000
0010
0000
,
0101
0100
0001
0000
0100
0001
0100
0000
0001
0100
0001
0000
0100
0001
0100
0000
0011
0001
0010
0000
0001
0010
0001
0000
0010
0001
0010
0000
0001
0010
0001
0000
,
1001
1000
0001
0000
1000
0001
1000
0000
0110
0010
0100
0000
0010
0100
0010
0000
1001
1000
0001
0000
1000
0001
1000
0000
0110
0010
0100
0000
0010
0100
0010
0000
,
1010
1000
0010
0000
1000
0010
1000
0000
0110
0010
0100
0000
0010
0100
0010
0000
0101
0100
0001
0000
0100
0001
0100
0000
1001
0001
1000
0000
0001
1000
0001
0000
,
1001
0000
1000
0001
0000
1000
0001
0000
1000
0001
0000
1000
0001
0000
1000
0001
0000
1000
0001
0000
1000
0001
0000
1000
0001
0000
1000
0001
0000
1000
0001
0000
1000
0001
0000
1000
0001
0000
1000
0001
0000
1000
0001
0000
1000
0001
0000
1000
,
0001
0000
0000
0000
0000
0000
0000
0000
0010
0000
0000
0000
0000
0000
0000
0000
0001
0000
0000
0000
0000
1000
0000
0000
0100
0000
0000
0000
0000
0000
0000
0000
0010
0000
0000
0000
0000
0000
0000
0000
0001
0000
0000
0000
0000
1000
0000
0000
0100
0000
0000
0000
0000
0000
0000
0000
0010
0000
0000
0000
0000
0000
0000
0000
0001
0000
0000
0000
0000
1000
0000
0000
0100
0000
0000
0000
0000
0000
0000
0000
0010
0000
0000
0000
0000
0000
0000
0000
0001
0000
0000
0000
0000
0000
0000
0000
0100
0000
0000
0000
0000
0000
0000
0000
0010
0000
0000
0000
0000
0000
0000
0000
1000
0000
0000
0000
0000
0000
0000
0000
0001
0000
0000
0000
0000
0000
0000
0000
0100
0000
0000
0000
0000
0000
0000
0000
0010
0000
0000
0000
0000
0000
0000
0000
1000
0000
0000
0000
0000
0000
0000
0000
0100
0000
0000
0000
0000
0000
0000
0000
0010
0000
0000
0000
0000
0000
0000
0000
0001
0000
0000
0000
0000
0000
0000
0000
0100
0000
0000
0000
0000
0000
0000
0000
0010
0000
0000
0000
0000
0000
0000
0000
,
1001
1001
0000
1001
1001
0000
0001
0010
0100
1000
0000
1000
0001
0000
0100
0000
,
0101
0101
0000
0101
0101
0000
0001
0010
0100
1000
0000
0100
0010
0000
0001
0000
,
0011
0011
0000
0011
0011
0000
0001
0010
0100
1000
0000
0010
1000
0000
0010
0000
,
1010
1010
0000
1010
1010
0000
0010
0010
0010
0010
0010
0010
1001
0000
0001
0000
,
0011
0000
0000
0110
0000
0000
1100
0000
0010
1010
0000
0100
0001
0001
1001
0001
,
0011
0000
0000
0110
1000
0000
1001
0000
1100
1000
1000
0000
0010
0010
0010
0010
,
1001
0000
0000
1100
0000
0000
0011
0000
0001
1100
0000
0010
0100
0100
0101
0100
,
0110
0000
0000
1010
0100
0000
1001
0010
0110
0010
0010
0010
0010
0100
1000
0001
,
1001
0000
0000
0000
0000
0000
0000
0000
0000
0000
0000
0000
0000
0000
0000
0000
0000
0000
0000
0000
0000
0000
0000
0000
1010
0000
0000
0000
0000
0000
0000
0000
0100
0000
0000
0000
0000
0000
0000
0000
0001
0000
0000
0000
0000
0000
0000
0000
0101
0000
0000
0000
0000
0000
0000
0000
0000
0000
0000
0000
0000
0000
0000
0000
0000
0000
0000
0000
0000
0000
0000
0000
1001
0000
0000
0000
0000
0000
0000
0000
0000
0000
0000
0000
0000
0000
0000
0000
0000
0000
0000
0000
0000
0000
0000
0000
0011
0000
0000
0000
0000
0000
0100
0000
0000
0000
0000
0000
1000
0000
0000
0000
0000
0000
0010
0000
0000
0000
0000
0000
0100
0000
0000
0000
0000
0000
0000
0000
0000
0000
0000
0000
0000
0000
0000
0000
0000
0000
0000
0000
0000
0000
0000
0000
0110
0000
0000
0000
0000
0000
0001
0000
0000
0000
0000
0000
0010
0000
0000
0000
0000
0000
0100
0000
0000
0000
0000
0000
1100
0000
0000
0000
0000
0000
0000
0000
0000
0000
0000
0000
0000
0000
0000
0000
0000
0000
0000
0000
0000
0000
0000
0000
,
1001
0000
0000
0000
0000
0000
1010
0000
0100
0000
0001
0000
0101
0000
0000
0000
0000
0000
0001
0000
0000
0000
0000
0000
0012
0000
0000
0000
0000
0000
1003
0000
0000
0000
0000
0000
0110
0000
0000
0001
0000
0000
0011
0000
0000
0110
0000
0000
,
0011
0000
0000
0000
0000
0000
0000
0000
0000
0000
0000
0000
0000
0000
0000
0000
0000
0000
0000
0000
0000
0000
0000
0000
0001
0000
0000
0000
0000
0000
0000
0000
0010
0000
0000
0000
0000
0000
0000
0000
0100
0000
0000
0000
0000
0000
0000
0000
1001
0000
0000
0000
0000
0000
0000
0000
0000
0000
0000
0000
0000
0000
0000
0000
0000
0000
0000
0000
0000
0000
0000
0000
1010
0000
0000
0000
0000
0000
0000
0000
0000
0000
0000
0000
0000
0000
0000
0000
0000
0000
0000
0000
0000
0000
0000
0000
0110
0000
0000
0000
0000
0000
0001
0000
0000
0000
0000
0000
0010
0000
0000
0000
0000
0000
0100
0000
0000
0000
0000
0000
1000
0000
0000
0000
0000
0000
0000
0000
0000
0000
0000
0000
0000
0000
0000
0000
0000
0000
0000
0000
0000
0000
0000
0000
1100
0000
0000
0000
0000
0000
0010
0000
0000
0000
0000
0000
0100
0000
0000
0000
0000
0000
0001
0000
0000
0000
0000
0000
0010
0000
0000
0000
0000
0000
0000
0000
0000
0000
0000
0000
0000
0000
0000
0000
0000
0000
0000
0000
0000
0000
0000
0000
,
0011
0000
0000
0100
1000
0001
0011
0000
0000
0010
0000
0000
0022
0000
0000
0033
0000
0000
0220
0000
0000
0330
0000
0000
,
0100
0000
0000
0000
0000
0000
0000
0000
0000
0000
0000
0000
0000
0000
0000
0000
0000
0000
0000
0000
0000
0000
0000
0000
1100
0000
0000
0000
0000
0000
0000
0000
1000
0000
0000
0000
0000
0000
0000
0000
0010
0000
0000
0000
0000
0000
0000
0000
0110
0000
0000
0000
0000
0000
0000
0000
0000
0000
0000
0000
0000
0000
0000
0000
0000
0000
0000
0000
0000
0000
0000
0000
0110
0000
0000
0000
0000
0000
0000
0000
0000
0000
0000
0000
0000
0000
0000
0000
0000
0000
0000
0000
0000
0000
0000
0000
0101
0000
0000
0000
0000
0000
0010
0000
0000
0000
0000
0000
0100
0000
0000
0000
0000
0000
1000
0000
0000
0000
0000
0000
0010
0000
0000
0000
0000
0000
0000
0000
0000
0000
0000
0000
0000
0000
0000
0000
0000
0000
0000
0000
0000
0000
0000
0000
0010
0000
0000
0000
0000
0000
0100
0000
0000
0000
0000
0000
0001
0000
0000
0000
0000
0000
0010
0000
0000
0000
0000
0000
0011
0000
0000
0000
0000
0000
0000
0000
0000
0000
0000
0000
0000
0000
0000
0000
0000
0000
0000
0000
0000
0000
0000
0000
,
0011
0000
0000
0000
1001
0010
0100
0001
0101
0000
0000
0000
0100
0000
0000
0000
0102
0000
0000
0000
0013
0000
0000
0000
0011
0000
0010
0000
0110
0000
1100
0000
,
0110
0000
0000
0000
0000
0000
0000
0000
0000
0000
0000
0000
0000
0000
0000
0000
0000
0000
0000
0000
0000
0000
0000
0000
0110
0000
0000
0000
0000
0000
0000
0000
0001
0000
0000
0000
0000
0000
0000
0000
0100
0000
0000
0000
0000
0000
0000
0000
0101
0000
0000
0000
0000
0000
0000
0000
0000
0000
0000
0000
0000
0000
0000
0000
0000
0000
0000
0000
0000
0000
0000
0000
0110
0000
0000
0000
0000
0000
0000
0000
0000
0000
0000
0000
0000
0000
0000
0000
0000
0000
0000
0000
0000
0000
0000
0000
1010
0000
0000
0000
0000
0000
0100
0000
0000
0000
0000
0000
0010
0000
0000
0000
0000
0000
0100
0000
0000
0000
0000
0000
1000
0000
0000
0000
0000
0000
0000
0000
0000
0000
0000
0000
0000
0000
0000
0000
0000
0000
0000
0000
0000
0000
0000
0000
1100
0000
0000
0000
0000
0000
0010
0000
0000
0000
0000
0000
0100
0000
0000
0000
0000
0000
0001
0000
0000
0000
0000
0000
0101
0000
0000
0000
0000
0000
0000
0000
0000
0000
0000
0000
0000
0000
0000
0000
0000
0000
0000
0000
0000
0000
0000
0000
,
0001
0000
0000
0000
0011
0100
0010
0001
0100
0000
0100
0000
0110
0000
0100
0000
0001
0000
0001
0000
1001
0000
0001
0000
0010
0000
0010
0000
0010
0000
0010
0000
,
0001
0100
0110
0000
1000
0100
0011
0000
0001
0010
0110
0000
1100
0001
0110
0000
,
0100
0001
0010
0000
0110
1000
0110
0000
0100
0001
1000
0000
1100
0010
0101
0000
,
0010
1000
0100
0000
1100
0100
0110
0000
0010
0001
0100
0000
0110
0001
0101
0000
,
1001
0100
1001
0000
1000
0100
1100
0000
1001
0000
0010
0000
0101
0000
0001
0000
,
0011
0100
1100
0000
0010
1000
1100
0000
0010
0100
0001
0000
0101
0010
1001
0000
,
0010
0100
1000
0000
0110
0001
1001
0000
1000
0001
0010
0000
0011
0100
0110
0000
,
0100
1000
0010
0000
1010
0010
0101
0000
0001
0010
0100
0000
1100
1000
0110
0000
,
0001
0101
0000
0110
0000
0010
1010
0000
,
1010
0000
0000
1000
0002
0000
0023
0000
0030
0100
0020
0000
0031
0000
1000
0000
,
2001
0000
3000
0100
0010
0000
0002
0000
0003
0010
0200
0000
0310
0000
0001
0100
,
0120
0000
0030
1000
0001
0000
0020
0000
0030
0001
2000
0000
3010
0000
1000
0000
,
1020
0000
0000
0000
0000
0000
0030
0000
0000
0100
0000
0000
0020
0000
0000
0000
0000
0000
0230
0000
0000
0000
0000
0000
0301
0000
0100
0000
1000
0000
0100
0000
0000
0000
0000
0000
0100
0000
1000
0000
0100
0000
0010
0000
0000
0000
0000
0000
,
1010
0000
0000
1000
0020
0000
0230
0000
0300
0001
0020
0000
0130
0000
1000
0000
,
1002
0000
0003
0100
0001
0000
0002
0000
0003
0010
0200
0000
1300
0000
0100
1000
,
1020
0000
0030
0100
0010
0000
0200
0000
0300
0001
2000
0000
3001
0000
0010
0000
,
1200
0000
0000
0000
0000
0000
0300
0000
0000
1000
0000
0000
0001
0000
0000
0000
0000
0000
0002
0000
0000
0000
0000
0000
1003
0000
0010
0000
0001
0000
2000
0000
0000
0000
0000
0000
3001
0000
0010
0000
1000
0000
0001
0000
0000
0000
0000
0000
,
0210
0000
0300
1000
0002
0000
0203
0000
0300
0100
0020
0000
1030
0000
1000
0000
,
0102
0000
0003
0010
0100
0000
0200
0000
0300
1000
0200
0000
0310
0000
0100
1000
,
1002
0000
0003
1000
0001
0000
0020
0000
0030
0001
0200
0000
0301
0000
1000
0000
,
1200
0000
0000
0000
0000
0000
0300
0000
0000
1000
0000
0000
0200
0000
0000
0000
0000
0000
0320
0000
0000
0000
0000
0000
0031
0000
0010
0000
0100
0000
0010
0000
0000
0000
0000
0000
0100
0000
1000
0000
0010
0000
0001
0000
0000
0000
0000
0000
,
0110
0000
0000
0001
0002
0000
0023
0000
0030
0100
0200
0000
0310
0000
0010
0000
,
2100
0000
3000
0100
1000
0000
0020
0000
0030
1000
2000
0000
3001
0000
0010
0100
,
2100
0000
3000
1000
0010
0000
0100
0000
0000
0100
0010
0000
1000
0000
0100
0000
,
1000
0010
0100
0001
0100
0010
1000
0100
0010
0100
1000
0001
0010
0100
0010
0001
1000
0100
1000
0001
0100
0001
1000
0100
1000
0001
0100
0001
1000
0100
0010
0001
,
0011
0011
0000
0110
0110
0000
1100
1100
1000
1010
0010
0100
0101
0000
1001
0000
,
1100
1100
0000
0110
0110
0000
0011
0011
0010
0001
0000
0100
0010
0000
1000
0000
,
1010
1010
0000
0110
0110
0000
0101
0101
0010
1001
1000
0100
1100
0000
1001
0000
,
0110
0110
0000
0101
0101
0000
0011
0011
0001
0001
0001
0001
1001
0000
1000
0000
,
1010
1010
0000
0101
0101
0000
0011
0011
0010
0110
1000
0010
1010
0000
1001
0000
,
0101
0101
0000
1001
1001
0000
1100
1100
0010
0100
0000
0010
0101
0000
0001
0000
,
1001
1001
0000
0110
0110
0000
1001
1001
0100
0110
0010
0001
0101
0000
1001
0000
,
1010
1010
0000
0101
0101
0000
1001
1001
0100
0100
0100
0100
1100
0000
0001
0000
,
1001
1001
0000
0011
0011
0000
1100
1100
0010
0110
0100
0001
1001
0000
0110
0000
,
0101
0101
0010
0110
1100
0000
1000
0010
1010
0100
0001
0010
0011
0000
0110
0000
,
1001
0101
0010
0110
0101
0000
1001
1100
0010
0110
1000
0100
1100
0000
1001
0000
,
1010
1010
0100
0101
0101
0000
0110
0110
0010
0010
0010
0010
0010
0000
0010
0000
,
1010
0110
0001
0101
1001
0000
1001
0011
0100
1001
1000
0010
0110
0000
0110
0000
,
0101
1001
0100
0110
0011
0000
0001
0100
0101
0010
1000
0100
0011
0000
0101
0000
,
1001
1001
1000
1100
1100
0000
0110
1100
0010
0110
0001
1000
1001
0000
0110
0000
,
1001
1100
0010
0011
1001
0000
0101
0101
0010
0010
1000
1000
1000
0000
0000
0000
;

//---------------dance-single - Drums of Much Death----------------
#NOTES:
     dance-single:
     Drums of Much Death:
     Challenge:
     15:
     1.000,1.000,1.000,0.573,1.000,2835.000,730.000,219.000,0.000,0.000:
1100
1100
0000
1001
1001
0000
0010
0100
1000
0010
0000
0100
0010
0000
0100
0000
,
0101
0101
0000
0110
0110
0000
1000
0001
0010
0100
0000
0100
0010
0000
0001
0000
,
0011
0011
0000
1100
1100
0000
1000
0010
0100
0001
0000
0010
0100
0000
1000
0000
,
1010
1010
0000
0110
0110
0000
0100
0100
0101
0100
0100
0100
0110
0000
0100
0000
,
0220
0330
0110
0000
0000
0000
1001
0000
2002
3003
0000
0000
0100
0000
0010
0000
0001
0000
0010
0000
0000
0000
0010
0000
0100
0000
0000
0000
0100
0000
0000
0000
,
2100
3000
0020
0030
0200
0300
0002
0003
0120
0030
2000
3000
0020
0030
0200
0300
0001
0000
0100
0000
0000
0000
0010
0000
1000
0000
0000
0000
0001
0000
0000
0000
,
0022
0033
0110
0000
0000
0000
0110
0000
2200
3300
0000
0000
0100
0000
0010
0000
0001
0000
1000
0000
0000
0000
1000
0000
0010
0000
0000
0000
0100
0000
0000
0000
,
0201
0300
0020
0030
2000
3000
0002
0003
0210
0300
2000
3000
0020
0030
0200
0300
0011
0000
0001
0000
0001
0000
0001
0000
0101
0000
0000
0000
1001
0000
0000
0000
,
1010
0110
0000
0110
0101
0000
0011
0100
1100
1000
1010
0010
0100
0000
0101
0000
,
0012
0003
0020
0030
0120
0030
0200
0300
1200
0300
2000
3000
1200
0300
2001
3000
0001
0000
0100
0000
0000
0000
0001
0000
0010
0000
0000
0000
0110
0000
0000
0000
,
1100
1001
0000
1001
0101
0000
0110
0100
0101
0001
0010
0100
1000
0000
1100
0000
,
0210
0300
0020
0030
0021
0030
0002
0003
1002
0003
2000
3000
2001
3000
1002
0003
1100
0000
0100
0000
0100
0000
0100
0000
0110
0000
0000
0000
0100
0000
0000
0000
,
1100
0110
0000
0011
0110
0000
1100
0010
0001
0100
0000
0010
0110
0000
1001
0000
,
1020
0030
2000
3000
0002
0003
0200
0300
0210
0300
0020
0030
0120
0030
0200
0300
0001
0000
0010
0000
0000
0000
0100
0000
1100
0000
0000
0000
0011
0000
0000
0000
,
0110
0110
0000
1100
1100
0000
1010
0010
1000
0001
0000
0100
0101
0000
1001
0000
,
0101
0101
0000
1100
1100
0000
0101
0201
0001
0001
0001
0001
0010
0000
0000
0300
,
0210
0300
0101
0000
0000
0000
0101
0000
1001
0000
0000
0000
2001
3000
0110
0000
0000
0000
0110
0000
1200
0300
0000
0000
1000
0000
0000
0000
1000
0000
0000
0000
,
2010
3000
0110
0000
0000
0000
0110
0000
0101
0000
0000
0000
0201
0300
1001
0000
0000
0000
1001
0000
2100
3000
0000
0000
0011
0000
0000
0000
0012
0003
0000
0000
,
0201
0300
0110
0000
0000
0000
0110
0000
1010
0000
0000
0000
2001
3000
1100
0000
0000
0000
1100
0000
0102
0003
0000
0000
0100
0000
0000
0000
0100
0000
0000
0000
,
0210
0300
0110
0000
0000
0000
1001
0000
1002
0003
0000
0000
2001
3000
0110
0000
0000
0000
0110
0000
1100
0000
0000
0000
0010
0000
0010
0000
1010
0000
0100
0000
,
0102
0003
0101
0000
0000
0000
0110
0000
0110
0000
0000
0000
1020
0030
1001
0000
0000
0000
1001
0000
2100
3000
0000
0000
0100
0000
0000
0000
0100
0000
0000
0000
,
2100
3000
0110
0000
0000
0000
0011
0000
0110
0000
0000
0000
2001
3000
0110
0000
0000
0000
0101
0000
0201
0300
0000
0000
0110
0000
0000
0000
0210
0300
0000
0000
,
2010
3000
1010
0000
0000
0000
0101
0000
0101
0000
0000
0000
0021
0030
0011
0000
0000
0000
1100
0000
2100
3000
0000
0000
0010
0000
0000
0000
0010
0000
0000
0000
,
0010
1000
0010
0100
0001
0100
0010
1000
0100
0010
0001
0100
0010
1000
0100
0010
0001
1000
0100
1000
0001
0010
0001
1000
0100
0010
0001
1000
0100
0010
0001
0100
,
0001
1000
0001
1000
0001
1000
0001
1000
1001
0000
0000
0000
0001
0000
0010
0000
1100
0000
0000
0000
1000
0000
0001
0000
0101
0000
0010
0000
0010
0000
0010
0000
,
1000
0001
1000
0001
1000
0001
1000
0001
1000
0000
0000
0000
0010
0000
1000
0000
1100
0000
0000
0000
0011
0000
0000
0000
1100
0000
0000
0000
0100
0000
0000
0000
,
0010
0100
0010
0100
0010
0100
0010
0100
0110
0000
0000
0000
1000
0000
0001
0000
0101
0000
0000
0000
0001
0000
0010
0000
0110
0000
1000
0000
0010
0000
0010
0000
,
0010
0100
0010
0100
0010
0100
0010
0100
0010
0000
0000
0000
0100
0000
0010
0000
1001
0000
0000
0000
0110
0000
0000
0000
1001
0000
0000
0000
1000
0000
0000
0000
,
0100
1000
0100
1000
0100
1000
0100
1000
1100
0000
0000
0000
1000
0000
0100
0000
0110
0000
0000
0000
0001
0000
1000
0000
0110
0000
0001
0000
0010
0000
0010
0000
,
0010
0001
0010
0001
0010
0001
0010
0001
0010
0000
0000
0000
0001
0000
0100
0000
0101
0000
0000
0000
1001
0000
0000
0000
0110
0000
0000
0000
1000
0000
0000
0000
,
0010
1000
0010
1000
0010
1000
0010
1000
1010
0000
0000
0000
0010
0000
1000
0000
0110
0000
0000
0000
0001
0000
0010
0000
0110
0000
1000
0000
0001
0000
0001
0000
,
0001
0100
0001
0100
0001
0100
0001
0100
0101
0000
0000
0000
0001
0000
0001
0000
1000
0000
1000
0000
0001
0000
0001
0000
0010
0000
0010
0000
0100
0000
0100
0000
,
1100
0000
0000
1000
1001
0000
0101
0000
0000
0100
0001
0000
0101
0000
0110
0000
,
1001
0000
0000
1000
1100
0000
0110
0000
0000
0010
0001
0000
0011
0000
0110
0000
,
1001
0000
0000
1000
0001
0000
0100
0000
0000
0100
0110
0000
1010
0000
0110
0000
,
0101
0000
0000
0000
0000
0000
0001
0000
0011
0000
0000
0000
0010
0000
0000
0000
0100
1000
0010
0100
0001
0000
0010
0000
0100
0000
1000
0000
0010
0000
1000
0000
,
1100
0000
0000
0010
0011
0000
0101
0000
0000
0100
0010
0000
1010
0000
1100
0000
,
1001
0000
0000
0001
0110
0000
1100
0000
0000
1000
0100
0000
0011
0000
1001
0000
,
0100
0000
0000
0100
0010
0000
0010
0000
0000
0100
0110
0000
1010
0000
1001
0000
,
0100
0010
0001
0010
0100
1000
0100
0010
0001
0100
0010
1000
0100
0010
0001
0100
0010
1000
0100
0010
0001
1000
0100
0010
0001
0100
0001
1000
0001
0100
0001
1000
,
0100
0010
0001
0010
0100
0010
0001
1000
0100
1000
0010
0100
0010
1000
0010
0100
,
0001
0100
0010
1000
0001
1000
0010
1000
0001
0010
0001
1000
0001
0010
0100
0010
,
1100
0010
0100
0001
0100
0010
1000
0001
0100
0110
1000
0001
0110
1000
0001
0010
,
0001
1000
0100
1000
0001
0010
0001
0100
0001
1010
0010
0100
0110
0001
1000
0010
,
0110
0001
0010
0100
0010
0001
0010
0100
1000
0010
1000
0100
1000
0001
1000
0010
,
0100
0001
0010
0100
1000
0001
0010
0100
1000
0001
0010
0100
1000
0010
0100
0010
,
0100
0001
0010
0100
1000
0100
0010
0001
0100
0010
1000
0001
0100
0010
1000
0001
0010
0100
1000
0001
0010
0100
1000
0001
0010
0001
1000
0100
1000
0001
0010
0001
,
0100
0000
0000
0000
0000
0000
0010
0000
0000
0000
0000
0000
1000
0000
0000
0000
0000
0000
0100
0000
0000
0000
0000
0000
0010
0000
0000
0000
0000
0000
0001
0000
0000
0000
0000
0000
0100
0000
0000
0000
0000
0000
0010
0000
0000
0000
0000
0000
1000
0000
0000
0000
0000
0000
0100
0000
0000
0000
0000
0000
1000
0000
0000
0000
0000
0000
0001
0000
0000
0000
0000
0000
0100
0000
0000
0000
0000
0000
0001
0000
0000
0000
0000
0000
1000
0000
0000
0000
0000
0000
0100
0000
0000
0000
0000
0000
1000
0000
0000
0000
0000
0000
0010
0000
0000
0000
0000
0000
0100
0000
0000
0000
0000
0000
0001
0000
0000
0000
0000
0000
0100
0000
0000
0000
0000
0000
0010
0000
0000
0000
0000
0000
1000
0000
0000
0000
0000
0000
0010
0000
0000
0000
0000
0000
0100
0000
0000
0000
0000
0000
0000
0000
0001
0000
0000
0000
0000
0000
0000
0000
0100
0000
0000
0000
0000
0000
0000
0000
0010
0000
0000
0000
0000
0000
0000
0000
1000
0000
0000
0000
0000
0000
0000
0000
0100
0000
0000
0000
0000
0000
0000
0000
,
1100
0000
0000
0010
0200
0000
2300
0000
3000
0010
0200
0000
0310
0000
1000
0000
,
2100
0000
3000
0010
0100
0000
0002
0000
0003
0100
0020
0000
1030
0000
0001
0010
,
0012
0000
0003
0010
0100
0000
0200
0000
0300
1000
0020
0000
0130
0000
0010
0000
,
0201
0000
0000
0000
0000
0000
0300
0000
0000
0010
0000
0000
0200
0000
0000
0000
0000
0000
0320
0000
0000
0000
0000
0000
1030
0000
0100
0000
0001
0000
0100
0000
0000
0000
0000
0000
0100
0000
1000
0000
0010
0000
0100
0000
0000
0000
0000
0000
,
0110
0000
0000
0010
0200
0000
0320
0000
0030
1000
0200
0000
0310
0000
0001
0000
,
2001
0000
3000
0010
1000
0000
2000
0000
3000
0100
0020
0000
0031
0000
0010
0001
,
0021
0000
0030
0010
0100
0000
0020
0000
0030
0010
0002
0000
1003
0000
0010
0000
,
2010
0000
0000
0000
0000
0000
3000
0000
0000
0010
0000
0000
0100
0000
0000
0000
0000
0000
0200
0000
0000
0000
0000
0000
0301
0000
0010
0000
1000
0000
0020
0000
0000
0000
0000
0000
0130
0000
0010
0000
0001
0000
1000
0000
0000
0000
0000
0000
,
0210
0000
0300
0001
2000
0000
3020
0000
0030
0010
0200
0000
0301
0000
1000
0000
,
2100
0000
3000
0100
0010
0000
0020
0000
0030
0001
2000
0000
3001
0000
1000
0010
,
1020
0000
0030
1000
0001
0000
0002
0000
0003
1000
0020
0000
1030
0000
0001
0000
,
0021
0000
0000
0000
0000
0000
0030
0000
0000
0001
0000
0000
0020
0000
0000
0000
0000
0000
0230
0000
0000
0000
0000
0000
1300
0000
0010
0000
0001
0000
0010
0000
0000
0000
0000
0000
0010
0000
1000
0000
0100
0000
1000
0000
0000
0000
0000
0000
,
1010
0000
0000
1000
2000
0000
3002
0000
0003
1000
2000
0000
3010
0000
0010
0000
,
2010
0000
3000
0001
0001
0000
0020
0000
0030
0001
0002
0000
1003
0000
0001
0100
,
0201
0000
0300
0010
0010
0000
0100
0000
0000
0001
0001
0000
0001
0000
1000
0000
,
0001
0010
0100
1000
0100
0010
0100
1000
0001
0010
0100
0010
0001
0010
0100
1000
0010
0000
0010
0000
0010
0000
0010
0000
0010
0000
0010
0000
0010
0000
0010
0000
,
1001
0100
0010
1000
0100
0010
0001
0100
0010
1000
0100
0010
0001
0100
0010
1000
,
0100
0010
0001
0100
0010
1000
0100
0010
1001
0010
0100
0001
0101
0010
0100
1000
,
1010
0100
0001
0010
0100
1000
0010
0100
0001
0010
0100
1000
0010
0100
0001
0010
,
0100
1000
0010
0100
0001
0010
0100
1000
0010
0100
0101
0010
0001
0001
0001
0001
,
0011
0100
1000
0010
1000
0001
1000
0010
0100
0001
0100
0010
0100
0001
0100
0010
,
1000
0001
1000
0010
1000
0100
1000
0001
0010
0100
0010
0001
1000
0010
1000
0100
,
0010
0100
1000
0001
0100
0010
0100
0001
0010
0100
0010
0001
1000
0100
1000
0001
,
1000
0100
0010
0001
0100
0010
1000
0100
1000
0001
0010
0100
1000
0010
0100
0001
0100
0000
0100
0000
0100
0000
0100
0000
0010
0000
0010
0000
0010
0000
0010
0000
,
1001
0000
0000
0000
0000
0000
0000
0000
0010
0000
0000
0000
1000
0100
0010
0001
1001
0000
0000
0000
0010
0000
0000
0000
0101
0000
0000
0000
1100
0000
0000
0000
,
0000
0000
0000
0000
0000
0000
1000
0000
0000
0100
0010
0001
0101
0000
0000
0000
0000
0000
0110
0000
0000
0001
0000
0000
,
1100
0000
0000
0010
0000
0000
0110
0000
0000
0001
0000
0000
1000
0000
0000
0001
0010
0100
1100
0000
0000
0101
0000
0000
,
0000
0000
0000
0000
0000
0000
0000
0000
0000
0000
0000
0000
0010
0000
0000
0000
0000
0000
1000
0000
0001
0000
0010
0000
0110
0000
0000
0000
0000
0000
0000
0000
0000
0010
0000
0000
0100
0000
0000
0000
0000
0000
1100
0000
0000
0000
0000
0000
,
0011
0000
0000
0000
0000
0000
0000
0000
0000
0000
0000
0000
0000
0000
0000
0000
0000
0000
0000
0000
0000
0000
0000
0000
0000
0000
0000
0000
0000
0000
0000
0000
0000
0000
0000
0000
0000
0000
0000
0000
0000
0000
0000
0000
0000
0000
0000
0000
1001
0000
0000
0000
0000
0000
0000
0000
0000
0000
0000
0000
0000
0000
0000
0000
0000
0000
0000
0000
0000
0000
0000
0000
0010
0000
0000
0000
0000
0000
0000
0000
0100
0000
0000
0000
0000
0000
0000
0000
0001
0000
0000
0000
0000
0000
0000
0000
0101
0000
0000
0000
0000
0000
0000
0000
0000
0000
0000
0000
0000
0000
0000
0000
0000
0000
0000
0000
0000
0000
0000
0000
0001
0000
0000
0000
0000
0000
0010
0000
0000
0000
0000
0000
0100
0000
0000
0000
0000
0000
1000
0000
0000
0000
0000
0000
1001
0000
0000
0000
0000
0000
0000
0000
0000
0000
0000
0000
0000
0000
0000
0000
0000
0000
0000
0000
0000
0000
0000
0000
0110
0000
0000
0000
0000
0000
0000
0000
0000
0000
0000
0000
0000
0000
0000
0000
0000
0000
0000
0000
0000
0000
0000
0000
,
0000
0000
0000
0000
0000
0000
0000
0000
0000
0000
0000
0000
0110
0000
0000
0000
0000
0000
1001
0000
0100
0000
0010
0000
0001
0000
0000
0000
0000
0000
0000
0000
0000
0101
0000
0000
0010
0000
0000
0000
0000
0000
0110
0000
0000
0000
0000
0000
,
1100
0000
0000
0000
0000
0000
0101
0000
0000
0001
0100
0010
0110
0000
0000
0000
0000
0000
0101
0000
0000
1001
0000
0000
,
0100
0010
0100
1000
0001
0100
0010
0100
0001
1000
0100
0010
0100
1000
0001
0100
,
0010
1000
0100
0010
0001
1000
0100
0010
0100
1000
0001
0010
0100
1000
0001
0010
,
0001
0100
0001
1000
0100
1000
0001
0100
0010
1000
0010
0100
0101
0010
0100
0010
,
0011
0100
0010
1000
0001
0100
0010
1000
0001
0100
0010
1000
0001
0100
0010
1000
,
0110
0001
0100
0010
0100
0001
0010
0001
0100
0100
0100
0001
0010
0010
0010
0010
,
0010
0001
0010
0100
1000
0010
0100
0001
0100
0010
1000
0010
0100
0001
0100
0010
,
1000
0100
0010
0001
0100
0010
1000
0100
0010
0100
1000
0001
0010
0100
0010
0001
,
0100
0010
1000
0001
0100
0010
1000
0001
0100
0010
1000
0001
0100
0010
1000
0001
,
0100
0001
0010
0100
0010
0001
0100
0010
0100
0001
0010
0100
1000
0010
0100
0001
0010
0001
1000
0001
0010
0000
0010
0000
0100
0000
0100
0000
1000
0000
1000
0000
,
1000
0000
0000
0000
0000
0000
0011
0000
0100
0000
1000
0000
0110
0000
0000
0000
0000
0000
0101
0000
0000
0000
0000
0000
1002
0000
0000
0000
0000
0000
0013
0000
0100
0000
1000
0000
0110
0000
0000
0000
0000
0000
1010
0000
0000
0100
0000
0000
,
1001
0000
0000
0000
0000
0000
1100
0000
0010
0000
0001
0000
0101
0000
0000
0000
0000
0000
1010
0000
0000
0000
0000
0000
1100
0000
0010
0000
0100
0000
1100
0000
0000
0000
0000
0000
1001
0000
0010
0000
0100
0000
0110
0000
0000
0001
0000
0000
,
1100
0000
0000
0000
0000
0000
0011
0000
0100
0000
0010
0000
1001
0000
0000
0000
0000
0000
1100
0000
0000
0000
0000
0000
2001
0000
0000
0000
0000
0000
3010
0000
0100
0000
0001
0000
0110
0000
0000
0000
0000
0000
0110
0000
0000
0010
0000
0000
,
0011
0000
0000
1001
0010
1000
1200
0000
0000
1300
0010
0100
0201
0000
0000
0310
1000
0001
0021
0000
0000
0130
0000
0000
,
1001
0000
0000
0000
0000
0000
0101
0000
0010
0000
1000
0000
1100
0000
0000
0000
0000
0000
0011
0000
0000
0000
0000
0000
0102
0000
0000
0000
0000
0000
0013
0000
0100
0000
1000
0000
1010
0000
0000
0000
0000
0000
0110
0000
0000
0010
0000
0000
,
0101
0000
0000
0000
0000
0000
0110
0000
1000
0000
0010
0000
0101
0000
0000
0000
0000
0000
0101
0000
0000
0000
0000
0000
1100
0000
0010
0000
0001
0000
0101
0000
0000
0000
0000
0000
0001
0000
0010
0000
0100
0000
1100
0000
0000
0010
0000
0000
,
0110
0000
0000
1010
0100
0001
0101
0000
0000
1001
0000
0000
0012
0000
0000
1003
0100
0010
0011
0000
0000
1010
0000
0000
,
0011
0100
0010
1000
0100
1000
0001
0010
0001
0100
0010
1000
0100
0010
0001
0010
0100
1000
0001
0100
0001
1000
0010
0100
0202
0000
0000
0000
0303
0000
0000
0000
,
0001
0100
0110
0000
1000
0100
0110
0000
0001
0010
0110
0000
1100
0010
0101
0000
,
0001
1000
0001
0000
1001
0100
1001
0000
0001
0100
0001
0000
0101
0100
0110
0000
,
0010
1000
0010
0000
0110
1000
0110
0000
0100
1000
0100
0000
1100
0001
0101
0000
,
0101
1000
1100
0000
0010
1000
1010
0000
1010
0000
0001
0000
0101
0000
0001
0000
,
0011
0100
1100
0000
0010
1000
1001
0000
0001
0010
0100
0000
1100
1000
1001
0000
,
0010
0100
0010
0000
0110
0001
0011
0000
0010
0100
1000
0000
1001
0010
0110
0000
,
0100
0001
0010
0000
0011
0100
1100
0000
0010
0100
0001
0000
0101
0010
0110
0000
,
0001
0001
0101
0001
0010
0010
0011
0010
0100
0100
1100
0100
1000
1000
1000
1000
,
1010
0000
0000
1000
0002
0000
0023
0000
0030
0100
0020
0000
0031
0000
0100
0000
,
0120
0000
0030
0100
0010
0000
2000
0000
3000
0010
0200
0000
0301
0000
1000
0100
,
2100
0000
3000
0100
0010
0000
0020
0000
0030
0001
0200
0000
0310
0000
1000
0000
,
1020
0000
0000
0000
0000
0000
0030
0000
0000
0100
0000
0000
0020
0000
0000
0000
0000
0000
0230
0000
0000
0000
0000
0000
0301
0000
0010
0000
1000
0000
0010
0000
0000
0000
0000
0000
0010
0000
0001
0000
0100
0000
1000
0000
0000
0000
0000
0000
,
1100
0000
0000
0100
0020
0000
0230
0000
0300
0001
0020
0000
0130
0000
1000
0000
,
1002
0000
0003
0100
0001
0000
0002
0000
0003
0010
0200
0000
1300
0000
0100
1000
,
1200
0000
0300
0100
0010
0000
0200
0000
0300
0100
2000
0000
3001
0000
0100
0000
,
0102
0000
0000
0000
0000
0000
0003
0000
0000
0100
0000
0000
0010
0000
0000
0000
0000
0000
0020
0000
0000
0000
0000
0000
0130
0000
0001
0000
0010
0000
2000
0000
0000
0000
0000
0000
3010
0000
0001
0000
0100
0000
0010
0000
0000
0000
0000
0000
,
0120
0000
0030
1000
0002
0000
0203
0000
0300
0100
0020
0000
1030
0000
0001
0000
,
0012
0000
0003
0010
0100
0000
0200
0000
0300
1000
0002
0000
1003
0000
0001
0100
,
0201
0000
0300
0001
1000
0000
2000
0000
3000
0001
0200
0000
0301
0000
1000
0000
,
1200
0000
0000
0000
0000
0000
0300
0000
0000
1000
0000
0000
0200
0000
0000
0000
0000
0000
0320
0000
0000
0000
0000
0000
0031
0000
0010
0000
1000
0000
0010
0000
0000
0000
0000
0000
0010
0000
0100
0000
1000
0000
0010
0000
0000
0000
0000
0000
,
0101
0000
0000
0001
0002
0000
2003
0000
3000
0001
0002
0000
0103
0000
0100
0000
,
0102
0000
0003
1000
1000
0000
0200
0000
0300
1000
2000
0000
3001
0000
1000
0010
,
1020
0000
0030
0100
0001
0000
1000
0000
0000
1000
0001
0000
0010
0000
0001
0000
,
0100
0010
1000
0001
0100
0010
1000
0001
0010
0100
1000
0001
0010
0001
1000
0100
0010
0000
0001
0000
0001
0000
0001
0000
0001
0000
0001
0000
0001
0000
0001
0000
,
0011
0010
0100
1000
0001
0100
0010
0100
0101
0010
0100
1000
0100
0010
0100
1000
,
0001
0100
0110
0010
0110
1000
0100
1000
1010
0010
0110
0100
0001
0001
0001
0001
,
0001
0001
0011
0010
0110
0100
1000
0100
1100
1000
1010
1000
0010
0010
0010
0010
,
0010
0010
1010
1000
1001
0001
0010
0100
1001
0010
0110
0100
0100
0100
0100
0100
,
0101
0001
0010
0001
0100
0001
0010
0011
0010
0110
0100
1100
1000
1001
0001
1000
,
0010
1000
0010
0100
0010
1000
0010
1010
0100
0101
0001
1001
0010
0100
0010
0100
,
1000
0010
1000
0100
1000
0001
1000
1001
0010
0101
0001
0011
0010
0110
0100
1000
,
0001
0000
0010
0000
0001
0000
1000
0000
0001
0000
0100
0000
0001
0000
0101
0000
0001
0010
0100
1000
0100
0000
0100
0000
0100
0000
0100
0000
0100
0000
0100
0000
,
1100
1000
0010
0100
0001
0100
0001
0010
0110
0100
1000
0010
0100
0001
1000
0010
,
0100
0000
0001
0000
0010
0000
0001
0000
0001
0010
0100
0000
1000
0000
0100
0000
0010
0000
0100
0000
1000
0000
0001
0000
0100
0000
0010
0000
0100
0000
0001
0000
,
0011
0100
1000
0010
0110
0001
0010
0100
1100
0010
0100
0001
1001
0010
0100
1000
,
1100
0010
0100
0110
0001
0100
0101
0001
0010
0110
0001
1000
1001
0010
0100
0001
,
1001
0010
0100
0010
0001
0100
0110
1000
0001
0010
0100
1000
1010
0100
0001
0100
,
0110
0001
0010
0100
1000
0010
1010
0100
0001
0010
0001
1000
1001
0010
0100
0001
,
0110
1000
0100
1100
0010
0100
0110
1000
0100
1100
0010
0100
0101
0010
0100
0010
,
0011
0100
0010
1010
0100
0001
1001
0000
0100
0100
0100
0100
1000
1000
1000
1000
,
0010
0010
0010
0000
1010
1010
1010
0000
1010
0100
0110
0000
0011
0010
0110
0000
,
0100
0100
0100
0000
1100
1100
1100
0000
1001
0001
0011
0000
0011
0001
1001
0000
,
1000
1000
1000
0000
1010
1010
1010
0000
0110
0010
0101
0000
0101
0001
1001
0000
,
1000
1000
0110
0000
0001
0001
0110
1000
0010
0100
0001
0010
1100
0000
1010
0000
,
0100
0100
0100
0000
0101
0101
0101
0000
0011
0010
0110
0000
1100
0001
0101
0000
,
0010
0010
0010
0000
1010
0110
1010
0000
1001
0001
0011
0000
0110
0010
0011
0000
,
0001
0001
0001
0000
0101
0110
0101
0000
1001
1000
1001
0000
1100
0010
0110
0000
,
0001
0000
0000
0000
0001
0000
0000
0000
0110
0000
0000
0000
0000
0000
0000
0000
1000
0000
0000
0000
1000
0000
0000
0000
0110
0000
0000
0000
0000
0000
0000
0000
0001
0000
0000
0000
0010
0000
0000
0000
0100
0000
0000
0000
1000
0000
0000
0000
1001
0000
0000
0000
0000
0000
0000
0000
0110
0000
0000
0000
0000
0000
0000
1000
,
0001
0000
1000
0000
0001
0000
0000
1000
0001
0000
1000
0000
0001
0000
0000
1000
0001
0000
1000
0000
0001
0000
0000
1000
0001
0000
1000
0000
0001
0000
0000
1000
0001
0000
1000
0000
0001
0000
0000
1000
0001
0000
1000
0000
0001
0000
0000
1000
0001
0000
1000
0000
0001
0000
0000
1000
0001
0000
1000
0000
0001
0000
0000
1000
,
0101
0000
0010
0000
0100
0000
0000
0010
0100
0000
0010
0000
0100
0000
0000
0010
0100
0000
0010
0000
0100
0000
0000
0010
0100
0000
0010
0000
0100
0000
0000
0010
0100
0000
0010
0000
0100
0000
0000
0010
0100
0000
0010
0000
0100
0000
0000
0010
0100
0000
0010
0000
0100
0000
0000
0010
0100
0000
0010
0000
0100
0000
0000
0010
,
0101
0000
0010
0000
0001
0000
0000
0010
0001
0000
0010
0000
0001
0000
0000
0010
0001
0000
0010
0000
0001
0000
0000
0010
0001
0000
0010
0000
0001
0000
0000
0010
0101
0000
1000
0000
0100
0000
0000
1000
0100
0000
1000
0000
0100
0000
0000
1000
0100
0000
1000
0000
0100
0000
0000
1000
0100
0000
1000
0000
0100
0000
0000
1000
,
0101
0000
0010
0000
0100
0000
0000
0010
0100
0000
0010
0000
0100
0000
0000
0010
0100
0000
0010
0000
0100
0000
0000
0010
0100
0000
0010
0000
0100
0000
0000
0010
0101
0000
1000
0000
0001
0000
0000
1000
0001
0000
1000
0000
0001
0000
0000
1000
0001
0000
1000
0000
0001
0000
0000
1000
0001
0000
1000
0000
0001
0000
0000
1000
,
0011
0000
0100
0000
0010
0000
0000
0100
0010
0000
0100
0000
0010
0000
0000
0100
0011
0000
1000
0000
0100
0000
0000
1000
0100
0000
1000
0000
0100
0000
0000
1000
0110
0000
1000
0000
0010
0000
0000
1000
0010
0000
1000
0000
0010
0000
0000
1000
0101
0000
0010
0000
0100
0000
0000
0010
0100
0000
0010
0000
0100
0000
0000
0010
,
0101
0000
1000
0000
0001
0000
0000
1000
0001
0000
1000
0000
0001
0000
0000
1000
0101
0000
1000
0000
0001
0000
0000
1000
0001
0000
1000
0000
0001
0000
0000
1000
0101
0000
1000
0000
0001
0000
0000
1000
0001
0000
1000
0000
0001
0000
0000
1000
0101
0000
1000
0000
0001
0000
0000
1000
0001
0000
1000
0000
0001
0000
0000
1000
,
0101
0000
0000
0000
0000
0000
0010
0000
0000
0000
0000
0000
0100
0000
0000
0000
0000
0000
0000
0000
0000
0010
0000
0000
0101
0000
0000
0000
0000
0000
0000
0000
1000
0000
0000
0000
0100
0000
0000
0000
0000
0000
0000
0000
1000
0000
0000
0000
0101
0000
0000
0000
0000
0000
0000
0000
0010
0000
0000
0000
0001
0000
0000
0000
0000
0000
0000
0000
0010
0000
0000
0000
0101
0000
0000
0000
0000
0000
0000
0000
1000
0000
0000
0000
0010
0000
0000
0000
0000
0000
0000
0000
1000
0000
0000
0000
0101
0000
0000
0000
0000
0000
0000
0000
0010
0000
0000
0000
0001
0000
0000
0000
0000
0000
0000
0000
0010
0000
0000
0000
0101
0000
0000
0000
0000
0000
0000
0000
1000
0000
0000
0000
0010
0000
0000
0000
0000
0000
0000
0000
1000
0000
0000
0000
0101
0000
0000
0000
0000
0000
0000
0000
0010
0000
0000
0000
0001
0000
0000
0000
0000
0000
0000
0000
0010
0000
0000
0000
0101
0000
0000
0000
0000
0000
0000
0000
1000
0000
0000
0000
0100
0000
0000
0000
0000
0000
0000
0000
1000
0000
0000
0000
,
0101
0000
0000
0000
0000
0000
0000
0000
0010
0000
0000
0000
0000
0000
0000
0000
0100
0000
0000
0000
0000
1000
0000
0000
0100
0000
0000
0000
0000
0000
0000
0000
0010
0000
0000
0000
0000
0000
0000
0000
0001
0000
0000
0000
0000
0010
0000
0000
0001
0000
0000
0000
0000
0000
0000
0000
0010
0000
0000
0000
0000
0000
0000
0000
0100
0000
0000
0000
0000
1000
0000
0000
0100
0000
0000
0000
0000
0000
0000
0000
0010
0000
0000
0000
0000
0000
0000
0000
0001
0000
0000
0000
0000
0000
0000
0000
1000
0000
0000
0000
0000
0000
0000
0000
0010
0000
0000
0000
0000
0000
0000
0000
0100
0000
0000
0000
0000
0000
0000
0000
0001
0000
0000
0000
0000
0000
0000
0000
1000
0000
0000
0000
0000
0000
0000
0000
0010
0000
0000
0000
0000
0000
0000
0000
0100
0000
0000
0000
0000
0000
0000
0000
0001
0000
0000
0000
0000
0000
0000
0000
0010
0000
0000
0000
0000
0000
0000
0000
0100
0000
0000
0000
0000
0000
0000
0000
1000
0000
0000
0000
0000
0000
0000
0000
0001
0000
0000
0000
0000
0000
0000
0000
,
1001
1001
0000
1001
1001
0000
0001
0010
0100
1000
0000
1000
0001
0000
0100
0000
,
0101
0101
0000
0101
0101
0000
0001
0010
0100
1000
0000
0100
0010
0000
0001
0000
,
0011
0011
0000
0011
0011
0000
0001
0010
0100
1000
0000
0010
1000
0000
0010
0000
,
1010
1010
0000
1010
1010
0000
0010
0010
0010
0010
0010
0010
1001
0000
0001
0000
,
0011
0000
0000
0110
0000
0000
1100
0000
0010
1010
0000
0100
0001
0001
1001
0001
,
0011
0000
0000
0110
1000
0000
1001
0000
1100
1000
1000
0000
0010
0010
0010
0010
,
1001
0000
0000
1100
0000
0000
0011
0000
0001
1100
0000
0010
0100
0100
0101
0100
,
0110
0000
0000
1010
0100
0000
1001
0010
0110
0010
0010
0010
0010
0100
1000
0001
,
1001
0000
0000
0000
0000
0000
0000
0000
0000
0000
0000
0000
0000
0000
0000
0000
0000
0000
0000
0000
0000
0000
0000
0000
1010
0000
0000
0000
0000
0000
0000
0000
0100
0000
0000
0000
0000
0000
0000
0000
0001
0000
0000
0000
0000
0000
0000
0000
0101
0000
0000
0000
0000
0000
0000
0000
0000
0000
0000
0000
0000
0000
0000
0000
0000
0000
0000
0000
0000
0000
0000
0000
1001
0000
0000
0000
0000
0000
0000
0000
0000
0000
0000
0000
0000
0000
0000
0000
0000
0000
0000
0000
0000
0000
0000
0000
0011
0000
0000
0000
0000
0000
0100
0000
0000
0000
0000
0000
1000
0000
0000
0000
0000
0000
0010
0000
0000
0000
0000
0000
0100
0000
0000
0000
0000
0000
0000
0000
0000
0000
0000
0000
0000
0000
0000
0000
0000
0000
0000
0000
0000
0000
0000
0000
0110
0000
0000
0000
0000
0000
0001
0000
0000
0000
0000
0000
0010
0000
0000
0000
0000
0000
0100
0000
0000
0000
0000
0000
1100
0000
0000
0000
0000
0000
0000
0000
0000
0000
0000
0000
0000
0000
0000
0000
0000
0000
0000
0000
0000
0000
0000
0000
,
1001
0000
0000
0000
0000
0000
1010
0000
0100
0000
0001
0000
0101
0000
0000
0000
0000
0000
0001
0000
0000
0000
0000
0000
0012
0000
0000
0000
0000
0000
1003
0000
0000
0000
0000
0000
0110
0000
0000
0001
0000
0000
0011
0000
0000
0110
0000
0000
,
0011
0000
0000
0000
0000
0000
0000
0000
0000
0000
0000
0000
0000
0000
0000
0000
0000
0000
0000
0000
0000
0000
0000
0000
0001
0000
0000
0000
0000
0000
0000
0000
0010
0000
0000
0000
0000
0000
0000
0000
0100
0000
0000
0000
0000
0000
0000
0000
1001
0000
0000
0000
0000
0000
0000
0000
0000
0000
0000
0000
0000
0000
0000
0000
0000
0000
0000
0000
0000
0000
0000
0000
1010
0000
0000
0000
0000
0000
0000
0000
0000
0000
0000
0000
0000
0000
0000
0000
0000
0000
0000
0000
0000
0000
0000
0000
0110
0000
0000
0000
0000
0000
0001
0000
0000
0000
0000
0000
0010
0000
0000
0000
0000
0000
0100
0000
0000
0000
0000
0000
1000
0000
0000
0000
0000
0000
0000
0000
0000
0000
0000
0000
0000
0000
0000
0000
0000
0000
0000
0000
0000
0000
0000
0000
1100
0000
0000
0000
0000
0000
0010
0000
0000
0000
0000
0000
0100
0000
0000
0000
0000
0000
0001
0000
0000
0000
0000
0000
0010
0000
0000
0000
0000
0000
0000
0000
0000
0000
0000
0000
0000
0000
0000
0000
0000
0000
0000
0000
0000
0000
0000
0000
,
0011
0000
0000
0100
1000
0001
0011
0000
0000
0010
0000
0000
0022
0000
0000
0033
0000
0000
0220
0000
0000
0330
0000
0000
,
0100
0000
0000
0000
0000
0000
0000
0000
0000
0000
0000
0000
0000
0000
0000
0000
0000
0000
0000
0000
0000
0000
0000
0000
1100
0000
0000
0000
0000
0000
0000
0000
1000
0000
0000
0000
0000
0000
0000
0000
0010
0000
0000
0000
0000
0000
0000
0000
0110
0000
0000
0000
0000
0000
0000
0000
0000
0000
0000
0000
0000
0000
0000
0000
0000
0000
0000
0000
0000
0000
0000
0000
0110
0000
0000
0000
0000
0000
0000
0000
0000
0000
0000
0000
0000
0000
0000
0000
0000
0000
0000
0000
0000
0000
0000
0000
0101
0000
0000
0000
0000
0000
0010
0000
0000
0000
0000
0000
0100
0000
0000
0000
0000
0000
1000
0000
0000
0000
0000
0000
0010
0000
0000
0000
0000
0000
0000
0000
0000
0000
0000
0000
0000
0000
0000
0000
0000
0000
0000
0000
0000
0000
0000
0000
0010
0000
0000
0000
0000
0000
0100
0000
0000
0000
0000
0000
0001
0000
0000
0000
0000
0000
0010
0000
0000
0000
0000
0000
0011
0000
0000
0000
0000
0000
0000
0000
0000
0000
0000
0000
0000
0000
0000
0000
0000
0000
0000
0000
0000
0000
0000
0000
,
0011
0000
0000
0000
1001
0010
0100
0001
0101
0000
0000
0000
0100
0000
0000
0000
0102
0000
0000
0000
0013
0000
0000
0000
0011
0000
0010
0000
0110
0000
1100
0000
,
0110
0000
0000
0000
0000
0000
0000
0000
0000
0000
0000
0000
0000
0000
0000
0000
0000
0000
0000
0000
0000
0000
0000
0000
0110
0000
0000
0000
0000
0000
0000
0000
0001
0000
0000
0000
0000
0000
0000
0000
0100
0000
0000
0000
0000
0000
0000
0000
0101
0000
0000
0000
0000
0000
0000
0000
0000
0000
0000
0000
0000
0000
0000
0000
0000
0000
0000
0000
0000
0000
0000
0000
0110
0000
0000
0000
0000
0000
0000
0000
0000
0000
0000
0000
0000
0000
0000
0000
0000
0000
0000
0000
0000
0000
0000
0000
1010
0000
0000
0000
0000
0000
0100
0000
0000
0000
0000
0000
0010
0000
0000
0000
0000
0000
0100
0000
0000
0000
0000
0000
1000
0000
0000
0000
0000
0000
0000
0000
0000
0000
0000
0000
0000
0000
0000
0000
0000
0000
0000
0000
0000
0000
0000
0000
1100
0000
0000
0000
0000
0000
0010
0000
0000
0000
0000
0000
0100
0000
0000
0000
0000
0000
0001
0000
0000
0000
0000
0000
0101
0000
0000
0000
0000
0000
0000
0000
0000
0000
0000
0000
0000
0000
0000
0000
0000
0000
0000
0000
0000
0000
0000
0000
,
0001
0000
0000
0000
0011
0100
0010
0001
0100
0000
0100
0000
0110
0000
0100
0000
0001
0000
0001
0000
1001
0000
0001
0000
0010
0000
0010
0000
0010
0000
0010
0000
,
0001
0100
0110
0000
1000
0100
0011
0000
0001
0010
0110
0000
1100
0001
0110
0000
,
0100
0001
0010
0000
0110
1000
0110
0000
0100
0001
1000
0000
1100
0010
0101
0000
,
0010
1000
0100
0000
1100
0100
0110
0000
0010
0001
0100
0000
0110
0001
0101
0000
,
1001
0100
1001
0000
1000
0100
1100
0000
1001
0000
0010
0000
0101
0000
0001
0000
,
0011
0100
1100
0000
0010
1000
1100
0000
0010
0100
0001
0000
0101
0010
1001
0000
,
0010
0100
1000
0000
0110
0001
1001
0000
1000
0001
0010
0000
0011
0100
0110
0000
,
0100
1000
0010
0000
1010
0010
0101
0000
0001
0010
0100
0000
1100
1000
0110
0000
,
0001
0101
0000
0110
0000
0010
1010
0000
,
1010
0000
0000
1000
0002
0000
0023
0000
0030
0100
0020
0000
0031
0000
1000
0000
,
2001
0000
3000
0100
0010
0000
0002
0000
0003
0010
0200
0000
0310
0000
0001
0100
,
0120
0000
0030
1000
0001
0000
0020
0000
0030
0001
2000
0000
3010
0000
1000
0000
,
1020
0000
0000
0000
0000
0000
0030
0000
0000
0100
0000
0000
0020
0000
0000
0000
0000
0000
0230
0000
0000
0000
0000
0000
0301
0000
0100
0000
1000
0000
0100
0000
0000
0000
0000
0000
0100
0000
1000
0000
0100
0000
0010
0000
0000
0000
0000
0000
,
1010
0000
0000
1000
0020
0000
0230
0000
0300
0001
0020
0000
0130
0000
1000
0000
,
1002
0000
0003
0100
0001
0000
0002
0000
0003
0010
0200
0000
1300
0000
0100
1000
,
1020
0000
0030
0100
0010
0000
0200
0000
0300
0001
2000
0000
3001
0000
0010
0000
,
1200
0000
0000
0000
0000
0000
0300
0000
0000
1000
0000
0000
0001
0000
0000
0000
0000
0000
0002
0000
0000
0000
0000
0000
1003
0000
0010
0000
0001
0000
2000
0000
0000
0000
0000
0000
3001
0000
0010
0000
1000
0000
0001
0000
0000
0000
0000
0000
,
0210
0000
0300
1000
0002
0000
0203
0000
0300
0100
0020
0000
1030
0000
1000
0000
,
0102
0000
0003
0010
0100
0000
0200
0000
0300
1000
0200
0000
0310
0000
0100
1000
,
1002
0000
0003
1000
0001
0000
0020
0000
0030
0001
0200
0000
0301
0000
1000
0000
,
1200
0000
0000
0000
0000
0000
0300
0000
0000
1000
0000
0000
0200
0000
0000
0000
0000
0000
0320
0000
0000
0000
0000
0000
0031
0000
0010
0000
0100
0000
0010
0000
0000
0000
0000
0000
0100
0000
1000
0000
0010
0000
0001
0000
0000
0000
0000
0000
,
0110
0000
0000
0001
0002
0000
0023
0000
0030
0100
0200
0000
0310
0000
0010
0000
,
2100
0000
3000
0100
1000
0000
0020
0000
0030
1000
2000
0000
3001
0000
0010
0100
,
2100
0000
3000
1000
0010
0000
0100
0000
0000
0100
0010
0000
1000
0000
0100
0000
,
1000
0010
0100
0001
0100
0010
1000
0100
0010
0100
1000
0001
0010
0100
0010
0001
1000
0100
1000
0001
0100
0001
1000
0100
1000
0001
0100
0001
1000
0100
0010
0001
,
0011
0011
0000
0110
0110
0000
1100
1100
1000
1010
0010
0100
0101
0000
1001
0000
,
1100
1100
0000
0110
0110
0000
0011
0011
0010
0001
0000
0100
0010
0000
1000
0000
,
1010
1010
0000
0110
0110
0000
0101
0101
0010
1001
1000
0100
1100
0000
1001
0000
,
0110
0110
0000
0101
0101
0000
0011
0011
0001
0001
0001
0001
1001
0000
1000
0000
,
1010
1010
0000
0101
0101
0000
0011
0011
0010
0110
1000
0010
1010
0000
1001
0000
,
0101
0101
0000
1001
1001
0000
1100
1100
0010
0100
0000
0010
0101
0000
0001
0000
,
1001
1001
0000
0110
0110
0000
1001
1001
0100
0110
0010
0001
0101
0000
1001
0000
,
1010
1010
0000
0101
0101
0000
1001
1001
0100
0100
0100
0100
1100
0000
0001
0000
,
1001
1001
0000
0011
0011
0000
1100
1100
0010
0110
0100
0001
1001
0000
0110
0000
,
0101
0101
0010
0110
1100
0000
1000
0010
1010
0100
0001
0010
0011
0000
0110
0000
,
1001
0101
0010
0110
0101
0000
1001
1100
0010
0110
1000
0100
1100
0000
1001
0000
,
1010
1010
0100
0101
0101
0000
0110
0110
0010
0010
0010
0010
0010
0000
0010
0000
,
1010
0110
0001
0101
1001
0000
1001
0011
0100
1001
1000
0010
0110
0000
0110
0000
,
0101
1001
0100
0110
0011
0000
0001
0100
0101
0010
1000
0100
0011
0000
0101
0000
,
1001
1001
1000
1100
1100
0000
0110
1100
0010
0110
0001
1000
1001
0000
0110
0000
,
1001
1100
0010
0011
1001
0000
0101
0101
0010
0010
1000
1000
1000
0000
0000
0000
;
