#TITLE:Twincore Maid-gic;
#SUBTITLE:(Loffciamcore Remix);
#ARTIST:odaxelagnia feat. Kreton;
#TITLETRANSLIT:;
#SUBTITLETRANSLIT:;
#ARTISTTRANSLIT:;
#CREDIT:Aoreo;
#BANNER:twincore bn.png;
#BACKGROUND:twincore bg.png;
#LYRICSPATH:;
#CDTITLE:;
#MUSIC:Twincore Maid-gic (Loffciamcore Remix).ogg;
#OFFSET:0.004;
#SAMPLESTART:29.394;
#SAMPLELENGTH:12.000;
#SELECTABLE:YES;
#DISPLAYBPM:240.000;
#BPMS:0.000=240.000;
#STOPS:;
#BGCHANGES:;
// cache tags:
#FIRSTBEAT:16.000;
#LASTBEAT:499.000;
#SONGFILENAME:Songs/SPEEEDCOOOORE 2/Twincore Maid-gic (Loffciamcore Remix) - [Aoreo]/Twincore Maid-gic (Loffciamcore Remix).sm;
#HASMUSIC:1;
#HASBANNER:1;
#MUSICLENGTH:125.250;
// end cache tags

//---------------dance-single - J. Nero----------------
#NOTES:
     dance-single:
     J. Nero:
     Challenge:
     17:
     1.000,1.000,0.200,0.463,1.000,1062.000,25.000,58.000,0.000,0.000:

0000
0000
0000
0000
,
0000
0000
0000
0000
,
0000
0000
0000
0000
,
0000
0000
0000
0000
,
0001
1000
0100
1000
0010
0100
0001
0010
,
0100
0000
1000
0000
0001
0000
0100
0000
0001
1000
0100
1000
0001
0000
1000
0000
,
0100
0010
0100
1000
0001
0100
0010
1000
,
0100
0000
0010
0000
0100
0000
0010
0000
0001
1000
0001
1000
0100
0000
1000
0000
,
0020
0030
0000
0000
0100
0000
0101
0000
,
0001
0000
1001
0000
1000
0010
1000
0010
,
0202
0303
0000
0000
2002
3003
0000
0000
,
2000
3000
0000
0000
0001
0000
0010
0010
,
0110
0100
1000
0020
0030
0020
0030
1000
,
0100
0010
0100
2000
0000
3000
0000
0000
,
0001
1000
0100
0010
0100
0010
0001
1000
,
0001
0100
0010
0200
0000
0000
0300
0000
,
0201
0000
0300
0002
0003
2000
3000
0200
,
0320
0000
0000
0032
0000
1003
0100
1000
,
0001
0100
0000
0001
1000
0000
0001
0100
,
0000
0001
1000
0000
0100
0010
0001
1000
,
2002
0000
0000
3003
,
0001
0100
0001
0100
0010
0000
0000
0000
1000
0100
1000
0100
0010
0000
0000
0000
,
0022
0033
0000
0000
2002
3003
0000
0000
,
2020
3030
0000
0000
0220
0330
0000
0000
,
0202
0000
0000
0000
0000
0000
0000
0000
0000
0000
0000
0000
0303
0000
0000
0000
0001
0000
0000
0000
0000
0000
0000
0000
2000
3000
0000
0000
0000
0000
0000
0000
,
0010
0000
0000
0000
0100
0000
0001
1000
,
0100
1000
0001
1000
,
0010
0100
0001
1000
0100
0010
0100
0010
,
0001
0000
1000
0000
0001
0000
0000
0000
1000
0001
1000
0010
0100
0010
1000
0001
,
1000
0010
0100
0001
1000
0010
0100
0001
1000
0001
0100
0001
0010
0100
0010
0100
,
1000
0001
1000
0100
0010
0001
1000
0001
0010
0100
0010
0001
1000
0100
0010
0001
,
1000
0100
0010
0100
0010
0001
1000
0001
1000
0010
0100
0001
1000
0000
0004
0003
,
0100
0010
1000
0001
1000
0001
0100
0010
0100
0001
1000
0010
0100
0010
1000
0001
,
0100
0010
0100
0001
1000
0001
0100
0001
2000
0000
3000
0000
0000
0000
0000
0000
,
0001
0100
0001
0100
0010
1000
0010
1000
0001
1000
0001
1000
0010
0100
0001
0100
,
0001
1000
0001
1000
0010
0100
0001
1000
,
0100
0000
0100
0000
1000
0000
0000
0000
0001
0100
0001
1000
0010
1000
0010
0100
,
0001
1000
0001
0100
0010
0100
0010
1000
0004
0000
0000
0000
0000
0000
0000
0000
,
1003
0100
0010
0100
1000
0001
0010
0001
1000
0100
0010
0100
0010
0001
1000
0001
,
4000
0000
0000
3001
,
1000
0010
1000
0010
0100
0001
0100
0001
1000
0001
1000
0001
1000
0001
1000
0001
,
1000
0000
0001
0100
0010
0000
0100
0000
,
0001
0100
0001
0100
0010
1000
0010
1000
0001
1000
0010
0100
0001
1000
0001
1000
,
0100
0000
2000
3001
,
1001
1000
0010
0100
0001
1000
0100
1000
,
0001
0100
0010
0100
0001
0100
0010
1000
,
0100
0010
0100
0010
0001
1000
0001
0100
,
0010
0100
0001
0001
0010
0100
1000
1000
,
0001
0000
1000
0000
0010
0000
0100
0000
0001
0100
0001
1000
0010
0100
0001
1000
,
0001
1000
0100
0010
0100
1000
0001
1000
,
0100
0010
0100
1000
0001
1000
0010
0100
,
0001
0001
0010
0010
0200
0300
1000
0000
,
0001
0001
0100
0000
0101
0001
1000
0010
,
1000
0100
0010
0100
1000
0100
0010
0001
,
0100
0010
1000
0001
0100
0001
1000
0100
,
1000
0000
0000
0000
1001
0000
0000
0000
0001
0100
0001
1000
0010
0100
0010
1000
,
0001
0100
0010
0100
0001
0100
0010
1000
,
0100
0010
0100
1000
0001
1000
0001
0100
,
0010
0010
1000
1000
0001
0001
0100
0100
,
0001
0000
0001
0010
0100
0000
1000
0001
,
1000
0000
1000
0000
0001
0000
0000
0000
0100
0001
0100
0001
1000
0100
1000
0001
,
0100
0010
1000
0100
1000
0001
0010
0100
,
0010
0001
1000
0001
0100
0010
0100
0001
,
1000
0100
1000
0100
0010
0001
0010
0001
,
1000
0100
1000
0001
0010
0001
1000
0100
0010
0100
0010
0001
1000
0001
1000
0001
,
1000
0001
0100
0010
0100
0001
1000
0100
,
0010
0001
1000
0001
0010
0100
1000
0001
,
0010
0010
0100
0100
1000
1000
0001
0001
,
0100
0000
0100
0000
0001
0000
0000
0000
1000
0001
1000
0010
0100
0001
1000
0001
,
1000
0001
0100
0010
1000
0001
1000
0100
,
0010
0100
1000
0001
1000
0010
0100
0001
,
1000
0000
1000
0000
0010
0000
0010
0000
1000
0001
1000
0010
0100
0010
1000
0001
,
2000
3000
0002
0003
0020
0030
0200
0300
,
2200
0000
0000
3300
,
1000
0000
0100
1000
0000
0000
0001
0100
,
0010
0000
0000
0000
1000
0000
1000
0001
,
4000
0000
0000
0000
3001
0100
0001
1000
0010
0100
0001
1000
0001
1000
0010
0100
,
0010
1000
0001
1000
0001
0100
0010
1000
0001
1000
0001
0100
0010
0100
0001
1000
,
0100
1000
0001
0100
0001
0010
0100
1000
0001
0010
0001
1000
0100
0010
0001
1000
,
0001
1000
0100
0010
0100
0010
0001
1000
0002
0000
0000
0000
0003
0000
0000
0000
,
0100
0001
0100
0010
1000
0010
0100
0001
1000
0001
1000
0010
0100
0010
1000
0001
,
0100
0010
1000
0001
1000
0001
0100
0010
1000
0001
1000
0010
0100
0001
0100
0010
,
1000
0100
0010
0100
1000
0001
0010
0100
1000
0001
0010
0001
1000
0100
0010
0001
,
1000
0001
1000
0010
0100
0010
1000
0001
0100
0001
0100
0010
1000
0010
1000
0001
,
2000
0000
0000
0000
3000
0000
0000
0000
0001
0100
0001
1000
0010
0100
0001
1000
,
0001
1000
0010
1000
0001
0100
0010
0100
0001
1000
0001
1000
0010
0100
0001
1000
,
0001
1000
0010
0100
0001
1000
0001
1000
0100
0010
0100
1000
0001
0010
0100
1000
,
0001
1000
0100
0010
0001
0010
0100
1000
0010
0100
0001
0100
0010
1000
0010
1000
,
0001
0000
1000
0000
0001
0000
0000
0000
1000
0010
1000
0010
0100
0001
1000
0001
,
1000
0001
0100
0010
0100
0001
1000
0001
1000
0010
0100
0001
1000
0001
0100
0010
,
2000
3000
0000
0000
2002
3003
0000
0000
,
0002
0000
0000
0000
0000
0000
0000
0000
0000
0000
0000
0000
0000
0000
0000
0003
,
2002
0000
0000
3003
,
1000
0010
0100
0000
0001
1000
0100
0000
,
1000
0001
0100
0000
0001
0100
0010
0000
,
0100
0000
0001
0000
1000
0000
0000
0000
0001
0100
0001
0100
0010
1000
0010
1000
,
0001
0000
1000
0100
1000
0000
0001
0000
,
0200
0000
0300
0000
0001
1000
0100
0000
,
2200
0000
0000
0000
0000
3300
0000
0000
,
1000
0001
0100
0001
0010
0100
1000
0001
,
2000
0000
3000
0000
0001
0000
1000
0000
0001
1000
0001
0100
0010
0100
0001
1000
,
0001
0100
0010
1000
0001
0100
0010
1000
0001
0000
0400
0300
0010
0000
4000
3000
,
0001
0010
0100
0010
0001
1000
0100
0010
0001
1000
0100
1000
0001
0010
0100
1000
,
0001
0010
0100
0010
0100
1000
0001
1000
0002
0003
0000
0000
4000
0000
0000
3000
,
0001
0100
0001
1000
0010
1000
0010
0100
0001
1000
0001
0100
0010
0100
0001
1000
,
0001
1000
0010
0100
0001
1000
0010
0100
0001
1000
0001
1000
0010
0100
0001
0100
,
0001
1000
0001
0010
0100
0010
0001
1000
0100
1000
0001
0010
0001
1000
0100
0010
,
0001
0000
1001
0000
,
0001
1000
0001
0100
0010
0100
0001
1000
,
0001
0000
0010
0000
0100
0000
0010
0000
0001
1000
0001
0100
0010
0100
0001
1000
,
0001
0100
0001
0100
0001
1000
0100
0010
,
0001
0000
1000
0000
0001
0000
1000
0000
0010
0100
0010
1000
0001
1000
0010
0100
,
0001
1000
0010
0100
0001
0010
0100
1000
,
0001
1000
0100
0010
0100
1000
0001
1000
,
2002
3003
0000
0000
0202
0303
0000
0000
,
0200
0300
0000
0000
0001
0000
0001
1000
,
0100
0000
0000
0000
1000
0000
0001
0000
1000
0001
0100
0001
0100
0010
1000
0001
,
0100
0001
1000
0010
1000
0010
0100
0001
1000
0100
0010
0100
1000
0001
0010
0001
,
0010
0100
1000
0001
0010
0001
1000
0100
0010
0001
1000
0001
0100
0010
0100
0001
,
1000
0010
1000
0010
0100
0001
1000
0010
2000
3000
0000
0000
0001
0000
0000
0000
,
1000
0000
0010
0000
1000
0100
0010
0001
1000
0001
0010
0100
1000
0001
0100
0001
,
1000
0010
0100
0001
1000
0100
0010
0001
1000
0010
1000
0001
0100
0010
0100
0001
,
1000
0000
0001
0000
0000
0000
1000
0010
,
0100
0000
0000
0000
0001
0000
1000
0001
,
0200
0000
0000
0300
;
