#TITLE:Banned From Heaven;
#SUBTITLE:By Nicholas T. Mihaila;
#ARTIST:Children of Bodom;
#TITLETRANSLIT:;
#SUBTITLETRANSLIT:;
#ARTISTTRANSLIT:;
#CREDIT:;
#BANNER:BFH - BN.jpg;
#BACKGROUND:BFH - BG.jpg;
#LYRICSPATH:;
#CDTITLE:cdtitle.gif;
#MUSIC:Children Of Bodom - Banned From Heaven.mp3;
#OFFSET:-0.140;
#SAMPLESTART:100.000;
#SAMPLELENGTH:12.000;
#SELECTABLE:YES;
#BPMS:0.000=98.020,306.000=97.980,457.000=96.000,459.000=91.000,461.000=87.000,462.000=82.000,464.000=80.500,466.000=73.000,468.000=58.800;
#STOPS:;
#BGCHANGES:;
// cache tags:
#FIRSTBEAT:0.000;
#LASTBEAT:474.000;
#SONGFILENAME:Songs/toune 5/COB - Banned From Heaven/Children Of Bodom - Banned From Heaven.sm;
#HASMUSIC:1;
#HASBANNER:1;
#MUSICLENGTH:305.999;
// end cache tags

//---------------dance-single - ----------------
#NOTES:
     dance-single:
     :
     Challenge:
     11:
     0.754,1.000,0.768,0.693,0.662,1167.000,235.000,212.000,0.000,8.000:
1100
1010
0110
0002
0000
0000
0000
0000
,
0000
0000
0003
0002
0000
0103
0020
0000
,
1130
1010
0110
2000
0000
0000
0000
0000
,
0000
0000
3000
2000
0000
3100
0020
0000
,
1130
1010
0110
0002
0000
0000
0000
0000
,
0000
0000
0003
0002
0000
0103
0020
0000
,
1130
1010
0110
1000
0002
0000
0013
0200
,
0000
1300
0200
0301
0010
0100
2000
0000
,
3011
0100
0010
0100
1002
0000
1003
0120
,
0000
0000
0031
0000
0020
0000
0130
0000
2200
0000
0000
3300
0220
0000
0000
0330
,
0011
0100
0010
0100
1002
0000
1003
0210
,
0000
0000
0301
0000
0200
0000
1300
1000
0100
0000
0010
0000
2000
0000
0000
3000
,
0110
0001
0100
0001
2010
0000
3010
0201
,
0000
0000
0301
0000
0200
0000
1300
0000
0202
0000
0000
0303
2020
0000
0000
3030
,
0110
0001
0100
0001
2010
0000
3010
0102
,
0000
0000
0103
0000
0002
0000
0103
0100
0010
0000
1000
0000
0020
0000
0000
0030
,
0100
1000
1000
1000
0100
0010
1000
1000
1000
1000
0001
0001
1000
1000
1000
1000
,
0001
0000
0100
0000
1000
0000
1000
0000
1000
0000
1000
0000
0001
0000
0001
0000
1000
0000
1000
0000
1000
0000
1000
0000
0002
0000
0000
0200
0000
0000
0000
0000
,
1303
0100
0010
0001
0100
0010
1000
0001
1100
0000
0011
0000
0220
0000
0000
0330
,
1000
0100
0010
0001
0100
0010
1000
0001
2000
0000
3100
0010
0001
0010
0100
0010
,
1000
0100
0010
0001
0100
0010
1000
0001
1100
0000
0011
0000
0220
0000
0000
0330
,
0012
1003
0100
1000
0010
1000
0100
1000
0120
1030
0100
1000
0010
1000
0100
1000
,
0001
0010
0100
0010
1000
0100
0010
0001
1010
0000
0110
0000
2200
0000
0000
3300
,
0001
0010
0100
0010
1000
0100
0010
0001
0020
0000
0031
0100
1000
0100
0001
0100
,
0001
0010
0100
0010
1000
0100
0010
0001
1010
0000
0110
0000
2200
0000
0000
3300
,
0012
0103
1000
0100
0001
0100
1000
0100
1020
0130
1000
0100
0001
0100
1000
0100
,
0001
0010
0100
1000
0001
0100
0010
1000
0101
0000
1000
0000
0100
0000
1000
0000
,
0210
0000
1300
0012
0000
1003
0002
0103
,
2020
0000
0000
3030
2200
0000
0000
3300
0101
0000
1000
0000
0100
0000
1000
0000
,
0210
0000
0000
0000
1300
0000
0021
0000
0000
0000
1030
0000
0020
0000
0130
0100
,
1000
0000
0001
0000
0020
0000
0000
0030
1100
0000
0001
0000
0100
0000
0001
0000
,
0210
0000
0301
2010
0000
3100
2000
3001
,
0220
0000
0000
0330
0022
0000
0000
0033
1100
0000
0001
0000
0100
0000
0001
0000
,
0210
0000
0000
0000
0301
0000
1020
0000
0000
0000
0130
0000
0020
0000
0031
0001
,
0100
0000
0010
0000
2000
0000
0000
3000
0110
0000
0001
0000
0010
0000
0001
0000
,
2100
0000
3010
0102
0000
1003
0002
0013
,
2200
0000
0000
3300
0022
0000
0000
0033
0110
0000
0001
0000
0010
0000
0001
0000
,
2100
0000
0000
0000
3010
0000
0201
0000
0000
0000
1300
0000
0200
0000
0301
0001
,
1000
0000
0100
0000
0020
0000
0000
0030
1001
0000
0100
0000
0010
0000
0100
0000
,
0021
0000
1030
1200
0000
0301
0200
0310
,
2020
0000
0000
3030
0022
0000
0000
0033
1001
0000
0100
0000
0010
0000
0100
0000
,
0021
0000
0000
0000
1030
0000
2100
0000
0000
0000
3001
0000
2000
0000
3010
0010
,
0100
0000
1000
0000
0002
0000
0000
0003
1000
0010
0100
0001
0000
1000
0010
0100
,
0011
0000
1010
0000
0202
0000
0000
0303
1000
0100
0010
0001
0010
0100
0010
0100
,
2000
0000
3010
0001
0100
0001
0010
0001
1000
0100
0010
0001
0010
0100
0010
0100
,
0011
0000
1010
0000
0202
0000
0000
0303
0102
0013
1000
0010
0100
0010
1000
0010
,
1200
0310
1000
0010
0100
0010
1000
0010
0001
1000
0100
0010
0001
0100
0010
1000
,
0110
0000
1001
0000
2200
0000
0000
3300
0001
1000
0100
0010
0001
0100
0010
1000
,
0002
0000
1003
0100
0010
0100
1000
0100
0001
1000
0100
0010
0001
0100
0010
1000
,
0110
0000
1001
0000
2200
0000
0000
3300
0120
0031
0100
0001
1000
0001
0100
0001
,
2100
3001
0100
0001
1000
0001
0100
0001
1000
0100
0010
0001
1000
0100
0001
0010
,
1000
0100
0001
0010
1000
0100
0010
0001
2010
0000
0000
0000
3100
0000
0010
0000
,
1000
1000
0100
0100
0001
0001
0010
0000
2001
0000
0000
0000
3100
0000
0010
0000
,
1000
1000
0100
0100
0001
0001
0010
0000
2100
3000
1000
0000
0001
0000
1000
0000
,
0210
0300
1000
0000
0001
0000
1000
0000
0021
0030
1000
0000
0001
0000
1000
0000
,
0102
0003
1000
1000
0001
0000
1000
1000
0120
0000
0000
0000
0031
0000
1000
0000
,
0100
0100
0001
0001
0010
0010
1000
0000
1020
0000
0000
0000
0031
0000
1000
0000
,
0100
0100
0001
0001
0010
0010
1000
0000
0012
0003
0010
0000
0100
0000
0010
0000
,
1200
0300
0010
0000
0100
0000
0010
0000
1020
0030
0010
0000
0100
0000
0010
0000
,
2001
3000
0010
0010
0100
0000
0010
0010
1100
0000
1010
0000
0110
0000
0002
0000
,
0000
0000
0000
0000
0000
0000
0003
0002
,
0000
0103
0020
0000
1130
1010
0110
2000
,
0000
0000
0000
0000
0000
0000
3000
2000
,
0000
3100
0020
0000
1130
1010
0110
0002
,
0000
0000
0000
0000
0000
0000
0003
0002
,
0000
0103
0020
0000
1130
1010
0110
1000
,
0002
0000
0013
0200
0000
1300
0200
0301
,
0010
0100
2000
0000
3010
0001
0010
0200
,
0000
1300
0100
0020
0000
0130
0010
0002
,
0000
0000
1003
0010
2000
0000
0000
0000
3100
0000
0001
0001
0100
0100
0020
0000
,
0000
0000
0000
0000
1030
0000
0001
0000
0200
0000
0000
0000
0000
0000
0300
0000
0200
0000
0000
0000
0301
0010
0100
1000
0100
0010
0001
1000
0100
0010
0001
0010
,
0100
1000
0100
0010
0001
0010
0100
1000
0001
0010
0100
1000
0010
0100
1000
0100
1010
0000
0000
0000
0011
0000
0000
0000
0110
0000
0000
0000
2002
0000
0000
0000
,
0000
3003
0100
0010
0001
1000
0200
0000
0000
0300
0010
0010
0100
0100
0001
0001
,
1000
0100
0010
0001
1000
0000
0100
0000
0010
0000
0100
0000
0001
0000
1000
0000
0100
0000
0010
0000
0001
0000
1000
0000
0010
0000
0100
0000
0001
0000
1000
0000
,
0100
0010
0001
1000
0010
0100
0001
1000
0100
0010
0100
1000
0010
0001
0100
1000
,
0100
0000
0010
0000
0100
0000
1000
0000
0010
0000
0001
0000
0100
0000
1000
0000
0001
0010
0100
1000
0010
0100
1000
0100
0010
1000
0100
0010
0001
0100
0010
0001
,
0100
1000
0100
0010
0001
0010
0100
0010
1000
0100
0010
0001
0010
0100
1000
0100
0011
0000
0000
0000
1100
0000
0000
0000
0100
0000
0100
0000
0100
0000
0100
0000
,
0011
0000
1100
0000
0001
1000
0010
0100
0011
0000
1100
0000
0101
0110
1100
1001
,
0000
1100
0110
0011
0000
1100
0110
0101
0011
0000
1100
0000
0010
0010
1000
0100
,
0011
0000
1100
0000
0100
0010
0100
1000
0011
0000
1100
0000
0101
0110
1100
1001
,
0000
1100
0110
0011
0000
1100
0110
0101
0011
0000
1100
0000
0100
0100
0100
0100
,
0011
0000
1100
0000
0001
1000
0010
0100
0011
0000
1100
0000
0101
0110
1100
1001
,
0000
1100
0110
0011
0000
1100
0110
0101
0011
0000
1100
0000
0010
0010
1000
0100
,
0011
0000
1100
0000
0100
0010
0100
1000
0011
0000
1100
0000
0101
0110
1100
1001
,
0000
1100
0110
0011
0000
1100
0110
0101
0012
0003
1100
0000
0200
0300
0000
0000
,
0021
0030
1100
0000
2000
3000
0000
0000
0012
0003
1100
0000
0210
0300
0000
0000
,
1000
0100
0010
0001
0001
0001
0010
0100
0012
0003
1100
0000
0200
0300
0000
0000
,
0021
0030
1100
0000
2000
3000
0000
0000
0012
0003
1100
0000
0001
0100
0001
0010
,
0000
1000
0100
0010
0000
1000
0100
0000
0012
0003
1100
0000
0200
0300
0000
0000
,
0021
0030
1100
0000
2000
3000
0000
0000
0012
0003
1100
0000
0210
0300
0000
0000
,
1000
0100
0010
0001
0001
0001
0010
0100
0012
0003
1100
0000
0200
0300
0000
0000
,
0021
0030
1100
0000
2000
3000
0000
0000
0012
0003
1100
0000
0001
0100
0001
0010
,
0000
1000
0100
0010
0000
1000
0100
0000
0020
0000
0000
0000
0000
0000
0000
0000
,
0000
0000
0000
0030
2000
0000
0000
0000
3200
0000
0000
0000
0000
0000
0000
0000
,
0000
0000
0000
0000
0000
0000
0000
0000
0000
0000
0000
0000
0000
0000
0000
0300
0000
0000
0010
0000
0000
0100
0000
0000
0002
0000
0000
0000
0000
0000
0000
0000
0000
0003
0000
1000
0020
0000
0000
0000
0000
0000
0000
0000
0000
0000
0000
0000
,
0000
0000
0000
0000
0000
0000
0000
0000
0000
0000
0000
0000
0000
0000
0030
0000
1000
0100
0010
0001
1000
0100
0010
0001
0100
0010
0001
1000
0100
0010
0001
1000
,
0001
0010
0100
1000
0001
0010
0100
1000
0001
0010
0100
1000
0001
0010
0100
1000
0002
0000
0203
0000
0320
0000
2030
0000
3100
0000
0100
0000
0200
0000
0320
0000
,
0230
0000
0302
0000
1003
0100
0010
0001
2000
0000
0000
0000
0000
0000
3100
0000
0020
0000
0130
0000
0100
0000
0002
0000
0103
0000
2000
0000
3100
0000
0020
0000
,
0031
0100
1000
0010
0002
0000
0000
0003
0100
1000
0010
0100
0000
0001
0010
0100
,
1000
0000
0001
0000
0100
0000
0010
0000
2000
0000
0000
0000
0000
0000
3000
0000
0001
0010
0100
1000
0010
0100
0010
1000
0001
0010
0100
1000
0010
0100
0010
0100
,
1000
0100
0010
0001
0100
0010
0001
0100
1000
0100
0010
0001
0100
0010
0001
0010
1000
0100
0010
0001
1000
0100
0010
0001
1000
0100
0010
0001
1000
0100
0010
0001
,
1000
0100
0010
0001
1000
0100
0010
0001
1000
0100
0010
0001
1000
0100
0010
0001
2100
0000
0000
0000
0000
0000
0000
0000
3001
0000
0000
0000
0010
0000
0000
0000
,
0100
0100
0001
0001
1000
1000
0010
0000
2001
0000
0000
0000
3001
0000
0010
0000
,
0100
0100
0001
0001
1000
1000
0010
0000
2100
3000
0001
0000
0100
0000
0001
0000
,
1020
0030
0001
0000
0100
0000
0001
0000
0201
0300
0001
0000
0100
0000
0001
0000
,
0012
0003
0001
0001
0100
0000
0001
0001
1020
0000
0000
0000
0130
0000
1000
0000
,
0001
0001
0100
0100
0010
0010
1000
0000
0120
0000
0000
0000
0130
0000
1000
0000
,
0001
0001
0100
0100
0010
0010
1000
0000
0012
0003
0100
0000
0010
0000
0100
0000
,
2001
3000
0100
0000
0010
0000
0100
0000
0120
0030
0100
0000
0010
0000
0100
0000
,
2010
3000
0100
0100
0010
0000
0100
0100
1002
0000
0000
0000
0103
0000
1000
0000
,
0001
0001
0100
0100
0010
0010
1000
0000
0012
0000
0000
0000
0103
0000
1000
0000
,
0001
0001
0100
0100
0010
0010
1000
0000
0012
0003
0100
0000
0010
0000
0100
0000
,
2001
3000
0100
0000
0010
0000
0100
0000
0120
0030
0100
0000
0010
0000
0100
0000
,
2010
3000
0100
0100
0010
0000
0100
0100
2001
0000
0000
0000
3100
0000
0010
0000
,
1000
1000
0100
0100
0001
0001
0010
0000
2010
0000
0000
0000
3100
0000
0010
0000
,
1000
1000
0100
0100
0001
0001
0010
0000
2100
3000
1000
0000
0001
0000
1000
0000
,
0210
0300
1000
0000
0001
0000
1000
0000
0021
0030
1000
0000
0001
0000
1000
0000
,
0102
0000
0000
0000
0003
0000
0100
1000
0000
0000
0000
0000
0000
0000
0100
0000
0000
0000
0010
0000
0000
0000
0001
0000
0000
0000
0000
0000
0000
0000
0000
0000
2002
0000
0000
0000
0000
0000
0000
0000
0000
0000
0000
0000
0000
0000
0000
0000
0000
0000
0000
0000
0000
0000
0000
0000
0000
0000
0000
0000
0000
0000
0000
0000
,
0000
0000
3003
0000
;
