#TITLE:Milky Way Overworld;
#SUBTITLE:星のカービィ スーパーデラックス;
#ARTIST:石川淳／宮川弾;
#TITLETRANSLIT:Milky Way Overworld;
#SUBTITLETRANSLIT:Kirby Super Star;
#ARTISTTRANSLIT:Jun Ishikawa / Dan Miyakawa;
#CREDIT:flamingspinach;
#BANNER:overworld.png;
#BACKGROUND:overworld-bg.png;
#LYRICSPATH:;
#CDTITLE:!flamingspinach.png;
#MUSIC:overworld.mp3;
#OFFSET:-0.082;
#SAMPLESTART:40.171;
#SAMPLELENGTH:12.000;
#SELECTABLE:YES;
#BPMS:0.000=149.362;
#STOPS:;
#BGCHANGES:;
// cache tags:
#FIRSTBEAT:0.000;
#LASTBEAT:144.000;
#SONGFILENAME:Songs/Keys of Flames/Milky Way Overworld (flamingspinach)/overworld.sm;
#HASMUSIC:1;
#HASBANNER:1;
#MUSICLENGTH:64.156;
// end cache tags

//---------------dance-single - ----------------
#NOTES:
     dance-single:
     :
     Hard:
     12:
     1.000,1.000,1.000,0.499,1.000,441.000,127.000,32.000,0.000,0.000:
2000
0000
0000
3001
0010
0000
0200
0000
0000
0000
0310
0000
1000
0010
0002
0000
,
0000
0103
0010
0000
2000
0000
0000
0000
3020
0000
0031
0100
0020
0000
0000
0130
,
1000
0000
0020
0000
0000
0000
2030
0000
3010
0100
0002
0000
0103
0010
0100
0000
,
0020
0000
0000
0000
0130
0001
0100
0000
2000
0000
0000
3010
0001
0010
0200
0000
,
0000
0000
0310
1000
0001
0100
0020
0000
0000
1030
0100
0000
2000
0000
0000
0000
,
3010
0100
1000
0100
0002
0000
0103
0010
0002
0000
0103
0010
1000
0100
0020
0000
,
1030
0100
0002
0000
0103
0010
2000
0000
3010
0100
2000
0000
3001
0010
2000
0000
,
3002
0000
0103
0010
2000
0000
0000
3100
0001
0000
0020
0000
0000
0000
0230
0000
,
0301
1000
0020
0000
0000
0130
0001
0000
0200
0000
0000
0000
0320
0000
1030
0001
,
0200
0000
0000
0310
0001
0000
2000
0000
0000
0000
3100
0000
0010
1000
0200
0000
,
0301
0010
0001
0000
2000
0000
0000
3000
0001
1000
0001
1000
0101
0000
0101
0000
,
0101
0110
0110
0110
0110
1010
1010
1010
,
0110
0110
0110
0110
1100
1100
1100
1001
,
1001
1001
1001
0011
0011
0011
1001
1001
,
1001
1001
1100
1010
0101
0011
1010
0011
,
1010
0011
0101
1010
1100
0101
1100
0101
,
0011
0101
1001
1010
0011
1010
0011
1100
,
1010
1001
0101
1100
0101
1100
0110
0110
,
1001
0100
0001
0100
0001
0000
0010
1000
0010
1000
0010
1000
0010
1000
0100
0001
,
0100
0001
0100
0000
1000
0010
1000
0010
1000
0010
1000
0010
0100
0010
0100
0010
,
0100
0000
0001
1000
0001
1000
0001
1000
0001
1000
0010
0100
0010
0100
0010
0000
,
1000
0001
1000
0001
1000
0001
1000
0001
0100
1000
0100
1000
0100
0010
0001
0010
,
0001
0010
0001
0010
0001
0010
0100
0010
0100
0001
0100
1000
0010
0001
0010
0001
,
0010
0001
0010
0001
0100
0010
0100
0010
0100
0010
0100
0010
0001
1000
0100
0001
,
0100
0001
0010
1000
0001
0100
0001
0100
0010
1000
0001
0100
1000
0010
0100
0001
,
1010
0100
1010
0100
1001
0010
0100
0010
0001
0000
0100
1000
0010
0100
0001
0100
,
0010
1000
0100
0010
0001
0010
0100
0000
0010
0100
0001
1000
0010
1000
0001
0010
,
1000
0100
0010
0100
1000
0010
0100
1000
0010
1000
0100
0001
1000
0001
0010
0100
,
1000
0100
0010
0001
0100
0010
1000
0010
0101
1010
1100
0011
1010
0001
1010
0100
,
1010
0001
0110
1000
0110
1000
0110
0001
0110
1000
0101
1000
0101
0010
0101
1000
,
0110
0001
0110
1000
0110
0001
0110
1000
0011
0100
0011
1000
0011
0100
1001
0010
,
1001
0010
1001
0100
1001
0010
1100
0001
1100
0001
1100
0010
1001
0100
1001
0010
,
1001
0010
1001
0100
0011
1000
0101
0100
1010
0001
1100
0010
0101
0010
1100
0010
,
0101
0010
1100
0001
1010
0010
0101
1000
0011
0100
1010
0100
0011
0100
1010
0001
,
1100
0001
1010
0100
1001
0010
0101
0010
1100
0010
0101
0010
1100
0100
0011
1000
,
0101
0010
1001
0100
1010
0100
0011
0100
1010
0100
0011
1000
0110
1001
0110
1001
,
0110
0000
0000
0000
;
