#TITLE:Alternate Route;
#SUBTITLE:Super Mario 64;
#ARTIST:Sandy1bd;
#TITLETRANSLIT:;
#SUBTITLETRANSLIT:;
#ARTISTTRANSLIT:;
#CREDIT:;
#BANNER:mario-banner.png;
#BACKGROUND:mario-bg.png;
#LYRICSPATH:;
#CDTITLE:sandy.png;
#MUSIC:Super_Mario_64_The_Alternate_Route_OC_ReMix.mp3;
#OFFSET:-0.040;
#SAMPLESTART:59.400;
#SAMPLELENGTH:11.920;
#SELECTABLE:YES;
#BPMS:0.000=81.000,80.000=162.000,310.000=324.000,442.000=162.000,538.000=324.000,554.000=162.000,674.000=324.000,704.000=162.000;
#STOPS:;
#BGCHANGES:;
// cache tags:
#FIRSTBEAT:0.000;
#LASTBEAT:703.000;
#SONGFILENAME:Songs/new cedric/Super_Mario_64_The_Alternate_Route_OC_ReMix/Super_Mario_64_The_Alternate_Route_OC_ReMix.sm;
#HASMUSIC:1;
#HASBANNER:1;
#MUSICLENGTH:260.101;
// end cache tags

//---------------dance-single - ----------------
#NOTES:
     dance-single:
     :
     Medium:
     4:
     0.299,0.574,0.008,0.085,0.040,521.000,2.000,22.000,0.000,0.000:
1000
0000
0000
0000
,
0010
0000
0000
0000
,
1000
0000
0000
0000
,
0010
0000
0000
0000
,
0100
0000
0000
0000
,
1000
0000
0000
0000
,
0010
0000
0000
0000
,
1000
0000
0000
0000
,
0010
0000
0000
0000
,
0100
0000
0000
0000
,
0001
0000
0000
0000
,
1000
0000
0000
0000
,
0010
1000
0000
0000
0000
0000
0000
0000
0001
0000
0000
0000
0000
0000
0000
0000
,
1000
0000
0010
0000
,
0100
0000
1000
0000
,
0001
0000
1000
0000
,
0010
0000
0000
0000
0000
0000
1000
0001
1000
0010
0100
0000
0000
0000
0000
0000
,
0000
0000
1000
0000
0000
0010
1000
0001
1000
0000
0000
0000
0000
0000
0000
0000
,
0000
0000
1000
0000
0000
0000
0001
1000
0010
0100
1000
0000
0000
0000
0001
1000
,
0010
0000
0000
0100
0000
0000
0000
1000
0001
0000
0000
0000
0000
0000
0000
0000
,
0010
0000
1000
0000
0000
0000
0001
0100
,
1000
0100
0001
0000
0000
0000
0000
0000
,
0000
0000
1000
0000
0000
0010
1000
0001
,
1000
0000
0000
0000
,
0010
0000
0100
0000
0000
0000
1000
0001
,
1000
0010
0100
0000
0000
0000
1000
0001
,
1000
0000
0000
0010
0000
0000
0000
0100
,
1000
0000
0000
0000
,
0001
0000
0000
0000
0000
0000
1000
0010
,
1000
0001
1000
0000
0000
0000
0000
0000
,
0000
0000
0010
0000
0000
0100
1000
0001
,
1000
0000
0000
0000
,
0000
0000
0010
0000
0000
0000
0100
1000
,
0001
1000
0010
0000
0000
0000
0100
1000
,
0001
0000
0000
0010
0000
0000
0000
0100
,
1000
0000
0000
0000
,
0010
0000
0100
0000
0000
0000
1000
0001
,
1000
0010
0100
0000
0000
0000
0000
0001
,
1000
0000
0000
0000
0000
0000
0000
0010
,
0000
0100
0000
0000
0000
0000
0000
0000
,
0001
0000
0000
0000
0000
0000
1000
0010
,
1000
0001
1000
0000
0000
0000
0000
0000
,
0010
0000
0000
0000
,
0000
0000
0000
0000
,
1000
0001
1000
0010
,
0100
1000
0010
0100
,
1000
0010
0100
1000
,
0001
1000
0010
0100
,
1000
0001
0010
0100
,
1000
0001
0010
0100
,
1000
0010
0100
1000
,
0001
1000
0010
0100
,
1000
0000
0000
0000
,
0000
0000
0000
0000
,
0100
0020
0000
0000
,
0130
2000
0000
0000
,
3010
0002
0000
0000
,
0103
0020
0000
0000
,
1030
0200
0000
0000
,
0301
0020
0000
0000
,
0130
2000
0000
0000
,
3010
0002
0000
0000
,
1003
0000
0200
0000
0000
0010
1000
0001
,
1300
0010
0002
1000
0010
0100
1000
0010
,
0103
1000
2001
0100
0010
0100
0010
0001
,
3100
0020
0000
0000
,
0130
2000
0000
0000
,
3001
0020
0000
0000
,
0130
2000
0000
0000
,
3010
0200
0000
0000
,
0310
1000
0100
0001
,
1000
0010
0100
1000
,
0010
0100
1000
0010
,
0100
1000
0001
0010
,
1000
0001
0100
0010
,
1000
0100
0001
0100
,
0010
1000
0001
0001
,
0001
0001
0001
0001
,
0001
0000
0001
0000
0002
0010
0000
0010
,
0000
0010
0000
0010
,
0000
0000
0010
0000
0010
0000
0000
0010
,
0000
0000
0010
0000
0000
0010
0000
0000
,
0010
0000
0000
0000
0010
0000
0000
0010
,
0000
0010
0000
0010
,
0000
0000
0010
0000
0000
0000
0000
0010
,
0000
0000
0010
0000
0000
0010
0000
0000
,
0010
0000
0000
0000
0010
0000
0000
0010
,
0000
0010
0000
0010
,
0000
0000
0010
0000
0013
0000
0000
0010
,
0000
0000
0010
0000
0000
0010
0000
0000
,
0010
0000
0000
0000
0010
0000
0000
0010
,
0000
0010
0000
0010
,
0000
0000
0010
0000
0000
0010
0000
0010
,
0000
0000
0010
0000
0000
0010
0000
0000
,
0010
0000
1000
0000
,
0000
0000
0010
1000
,
0001
1000
0010
0100
,
1000
0001
1000
0100
,
0010
0100
1000
0001
,
1000
0010
0100
1000
,
0001
1000
0010
0100
,
0010
1000
0100
1000
,
0010
0000
0100
0000
1000
0000
0000
0010
,
0000
0010
0000
0010
,
0000
0000
0010
0000
0010
0000
0000
0010
,
0000
0000
0010
0000
0000
0010
0000
0000
,
0010
0000
0000
0000
0010
0000
0000
0010
,
0000
0010
0000
0010
,
0000
0000
0010
0000
0000
0000
0000
0010
,
0000
0000
0010
0000
0000
0010
0000
0000
,
0010
0000
0020
0000
,
0000
0000
0000
0000
0000
0000
0000
0000
0001
0000
0000
0001
0000
0000
0001
0000
,
0000
0000
0000
0000
0000
0000
0000
0000
1000
0000
0000
1000
0000
0000
1000
0000
,
0000
0000
0000
0000
0000
0000
0000
0000
0001
0000
0000
0001
0000
0000
0001
0000
,
0000
0000
0000
0000
0000
0000
0000
0000
1000
0000
0000
1000
0000
0000
1000
0000
,
0000
0000
0000
0000
0000
0000
0000
0000
0001
0000
0000
0001
0000
0000
0001
0000
,
0000
0000
0000
0000
0000
0000
0000
0000
1000
0000
0000
1000
0000
0000
1000
0000
,
0000
0000
0000
0000
0000
0000
0000
0000
0100
0000
0000
0100
0000
0000
0100
0000
,
0000
0000
1030
0000
,
0001
1000
0010
0001
0100
1000
0001
1000
,
0010
0100
1000
0001
1000
0010
0100
1000
,
0001
1000
0010
0100
1000
0001
1000
0010
,
0001
0000
0200
0000
0000
0000
0000
0000
1000
0000
0000
1000
0000
0000
1000
0000
,
0000
0000
0000
0000
0000
0000
0000
0000
0001
0000
0000
0001
0000
0000
0001
0000
,
0000
0000
0000
0000
0000
0000
0000
0000
0010
0000
0000
0010
0000
0000
0010
0000
,
0000
0000
0000
0000
0000
0000
0000
0000
1000
0000
0000
1000
0000
0000
1000
0000
,
0000
0000
0301
0000
,
0000
0000
1000
0010
1000
0001
1000
0000
,
0000
0000
0000
0000
0010
1000
0001
0000
,
0000
0100
0010
0100
1000
0000
0000
0000
,
0000
0000
0000
1000
0010
1000
0100
0000
,
0000
0000
1000
0001
1000
0010
0100
0000
,
0000
0000
1000
0001
1000
0000
0000
0001
,
1000
0001
0000
1000
0010
0000
0010
0000
,
0010
0000
1000
0001
2000
0000
0000
0000
,
0000
0000
0000
0000
,
0000
0000
0000
0000
,
0000
0000
0000
0000
,
0000
0000
3100
1000
,
0000
0000
0001
1000
0010
0100
1000
0000
,
0000
0000
0000
0001
,
0000
1000
0010
0100
1000
0000
0000
0000
,
0000
0000
0010
0100
,
0000
0000
1000
0001
1000
0010
0100
0000
,
0000
0000
0010
1000
0001
0000
0000
0010
,
0000
0000
0000
0100
1000
0000
0000
0000
,
0000
0000
0010
0000
,
0000
0000
1000
0001
1000
0010
0100
0000
,
0000
0000
1000
0010
,
0000
0100
1000
0001
1000
0000
0000
0000
,
0000
0000
0010
0100
,
0000
0000
1000
0001
1000
0010
0001
0000
,
0000
0000
0010
0100
1000
0000
0000
0010
,
0000
0000
0000
0100
1000
0000
0000
0000
,
0000
0000
0010
1000
,
0000
0000
1000
0001
1000
0010
0100
0000
,
0000
0000
0000
1000
0001
0000
0000
0000
,
0000
0000
0000
0010
0000
1000
0000
0000
,
0000
0000
0001
0000
,
0000
0000
1000
0010
1000
0001
1000
0000
,
0000
0000
0010
0000
,
0000
0000
0000
0000
,
0000
0000
1000
0001
,
0000
1000
0010
1000
0001
0000
0000
1000
,
0000
0010
1000
0001
1000
0000
0000
0000
,
0000
1000
0001
0100
1000
0000
0010
1000
,
0000
0001
1000
0010
1000
0000
1000
0000
,
1000
1000
1000
1000
,
1000
1000
1000
1000
,
1000
1000
1000
1000
,
1000
1000
1000
1000
,
1000
1000
1000
1000
,
1000
1000
2002
0000
,
0000
0000
0000
0000
,
0000
0000
0000
0000
,
0000
0000
0000
3003
;

//---------------dance-single - Copied from----------------
#NOTES:
     dance-single:
     Copied from:
     Hard:
     7:
     0.438,0.810,0.038,0.511,0.158,654.000,10.000,133.000,0.000,1.000:
2000
0000
0000
0000
,
3020
0000
0000
0000
,
2030
0000
0000
0000
,
3020
0000
0000
0000
,
0230
0000
0000
0000
,
2300
0000
0000
0000
,
3020
0000
0000
0000
,
2030
0000
0000
0000
,
3020
0000
0000
0000
,
0230
0000
0000
0000
,
0302
0000
0000
0000
,
2003
0000
0000
0000
0000
0000
0000
0000
0000
0000
0000
0000
0000
0000
0000
0001
,
3020
0000
0032
0000
,
2003
0000
3020
0000
,
0230
0000
2300
0000
,
3002
0000
2003
0000
,
3020
0000
0000
0000
0000
0000
1030
0001
1000
0010
0200
0000
0000
0000
0000
0000
,
0000
0000
2300
0000
0000
3010
1000
0001
0200
0000
0000
0000
0000
0000
0000
0000
,
0000
0000
2300
0000
0000
0000
3001
0100
0010
0001
2000
0000
0000
0000
3001
0100
,
0020
0000
0000
0230
0000
0000
0000
1300
0002
0000
0000
0000
0000
0000
0000
0000
,
0013
0000
2000
0000
0000
0000
3001
0100
,
1000
0100
0002
0000
0000
0000
0000
0000
,
0000
0000
0203
0000
0000
0310
1000
0001
,
0200
0000
0000
0000
,
0000
0000
0320
0000
0000
0000
1030
0001
,
1000
0010
0200
0000
0000
0000
1300
0001
,
2000
0000
0000
3020
0000
0000
0000
0130
,
2000
0000
0000
0000
,
3002
0000
0000
0000
0000
0000
1003
0010
,
1000
0001
0200
0000
0000
0000
0000
0000
,
0000
0000
0320
0000
0000
0130
1000
0001
,
2000
0000
0000
0000
,
0000
0000
3020
0000
0000
0000
0130
1000
,
0001
1000
0002
0000
0000
0000
0103
1000
,
0002
0000
0000
0023
0000
0000
0000
0130
,
2000
0000
0000
0000
,
3010
0000
0200
0000
0000
0000
1300
0001
,
1000
0100
0020
0000
0000
0000
0000
0031
,
2000
0000
0000
0000
0000
0000
0000
3020
,
0000
0230
0000
0000
0000
0000
0000
0000
,
0302
0000
0000
0000
0000
0000
1003
0010
,
1000
0001
0200
0000
0000
0000
0000
0000
,
2302
0000
0000
0000
,
0000
0000
0000
0000
0000
0000
0000
3003
,
0100
0000
0000
0000
0001
0000
0000
0000
0000
0000
1000
0000
0100
0010
0000
0000
,
0001
0000
0000
0000
0000
0000
0000
0100
0000
0000
1000
0000
0010
0100
0000
0000
,
1000
0000
0000
0000
0000
0000
0000
0000
0000
0000
0100
0000
1000
0100
0000
0000
,
0001
0000
0000
0000
0000
0010
0100
0000
0000
0000
1000
0000
0001
0000
1000
0100
,
0002
0000
0000
0000
0000
0000
0000
0000
0000
0000
0000
0003
0002
0000
0000
0000
0000
0000
0000
0000
0000
0000
0000
0003
0002
0000
0000
0000
0100
0000
0000
0000
0000
0000
0000
0003
0002
0000
0000
0000
0010
0000
0000
0000
0000
0000
0000
0003
0100
0000
0000
0000
1000
0000
0000
0000
0000
0000
0000
0000
0000
0000
0000
0000
,
0010
0000
0000
0000
1000
0000
0000
0001
0000
0000
0010
0000
1000
0100
0000
0000
,
1000
0000
0000
0000
0000
0000
0000
0000
0000
0000
0100
0000
1000
0010
0000
0000
,
0001
0000
0000
0000
1000
0000
0000
0001
1000
0001
1000
0001
1000
0001
1000
0001
,
2002
0000
0000
0000
,
0000
0000
0000
0000
0000
0000
0000
0000
0000
0000
0000
0000
0000
0000
0000
3003
,
0100
0000
0000
0000
0020
0000
0000
0000
0000
0000
0100
0000
1000
0100
0000
0000
,
0130
0000
0000
0000
2000
0000
0000
0010
0000
0000
0001
0000
0100
0001
0000
0000
,
3010
0000
0000
0000
0002
0000
0000
0000
0000
0000
0100
0000
1000
0100
0000
0000
,
0013
0000
0000
0000
0020
0000
1000
0000
0000
0000
0001
0000
0100
0000
1000
0100
,
0031
0000
0000
0000
0200
0000
0000
0000
0000
0000
1000
0000
0010
1000
0000
0000
,
0301
0000
0000
0000
0020
0000
0000
1000
0000
0000
0100
0000
0001
1000
0000
0000
,
0130
0000
0000
0000
2000
0000
0000
0000
0000
0000
0010
0000
0001
0100
0000
0000
,
3010
0000
0002
0000
0100
0000
0010
0100
,
1003
0000
0200
0000
0000
0010
1000
0001
,
1300
0010
0002
1000
0010
0100
1000
0010
,
1003
0010
2000
0001
0010
0100
0010
0001
,
3100
0000
0000
0000
0020
0000
1000
0000
0000
0000
0001
0000
0100
0000
1000
0001
,
0130
0000
0000
0000
2000
0000
0000
0000
0000
0000
0010
0000
0001
0100
0000
0000
,
3001
0000
0000
0000
0020
0000
0000
0100
0000
0000
1000
0000
0100
0001
0000
0000
,
0130
0000
0000
0000
2000
0000
0000
0000
0000
0000
0010
0000
0100
0001
0000
0000
,
3010
0000
0000
0000
0200
0000
0000
0000
0000
0000
1000
0000
0010
0001
0000
0000
,
0310
0000
0000
0000
1000
0000
0000
0000
0000
0000
0010
0000
0001
0100
0000
0000
,
1000
0000
0000
0000
0000
0000
0000
0100
0000
0000
0010
0000
1000
0100
0000
0000
,
0001
0000
0000
0000
0000
0000
0000
0000
0000
0000
0100
0000
0010
0001
0000
0000
,
0100
0000
0000
0001
0000
1000
0010
0100
,
1000
0000
0000
0000
0001
0000
0000
0000
0000
0000
0100
0000
0010
0100
0000
0000
,
1000
0000
0000
0000
0000
0000
0000
0010
0000
0000
1000
0000
0100
0001
0000
0000
,
0010
0000
0000
0000
0000
0000
0000
0000
0000
0000
0010
0000
0001
0100
0000
0000
,
0001
0001
0001
0000
,
0001
0000
0001
0000
0002
0010
0000
0010
,
0000
0010
0000
0010
,
0000
0000
0010
0000
0010
0000
0000
0010
,
0000
0000
0010
0000
0000
0010
0000
0000
,
0010
0000
0000
0000
0010
0000
0000
0010
,
0000
0010
0000
0010
,
0000
0000
0010
0000
0000
0000
0000
0010
,
0000
0000
0010
0000
0000
0010
0000
0000
,
0010
0000
0000
0000
0010
0000
0000
0010
,
0000
0010
0000
0010
,
0000
0000
0010
0000
0013
0000
0000
0010
,
0000
0000
0010
0000
0000
0010
0000
0000
,
0010
0000
0000
0000
0010
0000
0000
0010
,
0000
0010
0000
0010
,
0000
0000
0010
0000
0000
0010
0000
0010
,
0000
0000
0010
0000
0000
0010
0000
0000
,
0010
0000
1000
0000
,
0000
0000
0010
1000
,
0001
1000
0010
0100
,
1000
0001
1000
0100
,
0010
0100
1000
0001
,
1000
0010
0100
1000
,
0001
1000
0010
0100
,
0010
1000
0100
1000
,
0010
0000
0100
0000
1000
0000
0000
0010
,
0000
0010
0000
0010
,
0000
0000
0010
0000
0010
0000
0000
0010
,
0000
0000
0010
0000
0000
0010
0000
0000
,
0010
0000
0000
0000
0010
0000
0000
0010
,
0000
0010
0000
0010
,
0000
0000
0010
0000
0000
0000
0000
0010
,
0000
0000
0010
0000
0000
0010
0000
0000
,
0010
0000
0000
0000
0020
0000
1000
0001
,
0000
0000
1000
0000
0100
0001
1000
0000
0031
0000
0000
0001
0000
0000
0001
0000
,
0000
0000
0100
0000
0010
0001
0100
0000
1000
0000
0000
1000
0000
0000
1000
0000
,
0000
0000
0001
0000
0010
1000
0100
0000
0001
0000
0000
0001
0000
0000
0001
0000
,
0000
0000
1000
0000
0010
0001
0100
0000
1000
0000
0000
1000
0000
0000
1000
0000
,
0000
0000
0001
0000
0100
1000
0010
0000
0001
0000
0000
0001
0000
0000
0001
0000
,
0000
0000
0010
0000
0100
0010
0001
0000
1000
0000
0000
1000
0000
0000
1000
0000
,
0000
0000
0010
0000
1000
0010
0001
0000
0100
0000
0000
0100
0000
0000
0100
0000
,
0000
0000
0100
0000
0010
0100
0001
0000
1000
0000
0000
0000
0000
0000
0000
0000
,
0001
1000
0010
0001
0100
1000
0001
1000
,
0010
0100
1000
0001
1000
0010
0100
1000
,
0001
1000
0010
0100
1000
0001
1000
0010
,
0001
0000
0100
0000
0010
0100
0001
0000
1000
0000
0000
1000
0000
0000
1000
0000
,
0000
0000
0010
0000
0001
1000
0100
0000
0001
0000
0000
0001
0000
0000
0001
0000
,
0000
0000
0100
0000
0001
1000
0100
0000
0010
0000
0000
0010
0000
0000
0010
0000
,
0000
0000
0100
0000
0010
0001
0100
0000
1000
0000
0000
1000
0000
0000
1000
0000
,
0000
0000
0100
0000
1000
0100
0010
0000
0002
0000
0000
0000
0000
0000
0000
0000
,
0000
0000
1003
0010
1000
0001
0200
0000
,
0000
0000
0000
0000
0010
1300
0002
0000
,
0000
0013
1000
0100
0020
0000
0000
0000
,
0000
0000
0000
1000
0001
1030
0200
0000
,
0000
0000
1300
0001
1000
0010
0200
0000
,
0000
0000
1300
0001
2000
0000
0000
3002
,
1000
0000
0100
2003
3020
0000
0001
0000
,
0100
0000
1000
0001
2030
0000
0000
0000
,
0000
0000
0000
0000
,
0000
0000
0000
0000
,
0000
0000
0000
0000
,
0000
0000
3100
2000
,
0000
0000
3001
0100
0010
0100
0002
0000
,
0000
0000
0000
0023
,
0000
1030
0010
0100
2000
0000
0000
0000
,
0000
0000
3010
0200
,
0000
0000
1300
0001
1000
0010
0200
0000
,
0000
0000
0310
1000
0002
0000
0000
0023
,
0000
0000
0000
0130
2000
0000
0000
0000
,
0000
0000
3020
0000
,
0000
0000
1030
0001
1000
0010
0200
0000
,
0000
0000
0000
0320
,
0000
0130
1000
0001
0200
0000
0000
0000
,
0000
0000
0300
0020
,
0000
0000
1030
0001
1000
0010
0002
0000
,
0000
0000
0013
0100
2000
0000
0000
3020
,
0000
0000
0000
0130
2000
0000
0000
0000
,
0000
0000
3010
0200
,
0000
0000
1300
0001
1000
0010
0200
0000
,
0000
0000
0000
1300
0002
0000
0000
0000
,
0000
0000
0000
0023
0000
2030
0000
0000
,
0000
0000
3002
0000
,
0000
0000
1003
0010
1000
0001
0200
0000
,
0000
0000
0320
0000
,
0000
0000
0000
0000
,
0000
0000
1030
0001
,
0000
0000
1000
0000
0010
1000
0000
0000
0001
0000
0000
0000
0000
0000
0000
1000
,
0000
0000
0010
0000
1000
0001
0000
0000
1000
0000
0000
0000
0010
0000
0000
0000
,
0000
0000
1000
0000
0001
0100
0000
0000
1000
0000
0000
0000
0010
0000
1000
0000
,
0000
0000
0001
0000
1000
0000
0010
0001
1000
0000
0000
0000
1000
0000
0000
0000
,
1000
1000
1000
1000
,
1000
1000
1000
1000
,
1000
1000
1000
1000
,
1000
1000
1000
1000
,
1000
0000
1000
0000
1000
1000
1000
1000
,
1000
0000
0000
0000
0000
0000
0000
0000
1000
0000
0000
0000
0000
0000
0000
0000
1000
0000
0000
0000
1000
0000
0000
0000
1000
0000
0000
0000
1000
0000
0000
0000
2002
0000
0000
0000
0000
0000
0000
0000
0000
0000
0000
0000
0000
0000
0000
0000
0000
0000
0000
0000
0000
0000
0000
3003
2002
0000
0000
0000
0000
0000
0000
0000
,
0000
0000
0000
0000
0000
0000
0000
0000
0000
0000
0000
0000
0000
0000
0000
3003
2002
0000
0000
0000
0000
0000
0000
0000
0000
0000
0000
0000
0000
0000
0000
0000
0000
0000
0000
0000
0000
0000
0000
3003
2002
0000
0000
0000
0000
0000
0000
0000
0000
0000
0000
0000
0000
0000
0000
0000
0000
0000
0000
0000
0000
0000
0000
3003
,
2002
0000
0000
0000
0000
0000
0000
0000
0000
0000
0000
0000
0000
0000
0000
0000
0000
0000
0000
0000
0000
0000
0000
3003
2002
0000
0000
0000
0000
0000
0000
0000
0000
0000
0000
0000
0000
0000
0000
0000
0000
0000
0000
0000
0000
0000
0000
3003
2002
0000
0000
0000
0000
0000
0000
0000
0000
0000
0000
0000
0000
0000
0000
0000
,
0000
0000
0000
0000
0000
0000
0000
3003
2002
0000
0000
0000
0000
0000
0000
0000
0000
0000
0000
0000
0000
0000
0000
0000
0000
0000
0000
0000
0000
0000
0000
0000
3003
0000
0000
0000
0000
0000
0000
0000
0000
0000
0000
0000
0000
0000
0000
0000
0000
0000
0000
0000
0000
0000
0000
0000
0000
0000
0000
0000
0000
0000
0000
0000
;

//---------------dance-single - Copied from Copied f----------------
#NOTES:
     dance-single:
     Copied from Copied f:
     Challenge:
     12:
     0.909,1.000,1.000,0.611,0.496,1100.000,396.000,159.000,0.000,82.000:
2200
0000
0000
0000
0000
0000
0000
0000
0000
0000
0000
0000
0000
0000
0000
0000
0000
0000
0000
0000
0000
0000
0000
0000
0000
0000
0000
0000
0000
0000
0000
0000
0000
0000
0000
0000
0000
0000
0000
0000
0000
0000
0000
0000
0000
0000
0000
0000
0000
0000
0000
0000
0000
0000
0000
0000
0000
0000
0000
0000
0000
0000
0000
3300
,
0022
0000
0000
0000
0000
0000
0000
0000
0000
0000
0000
0000
0000
0000
0000
0000
0000
0000
0000
0000
0000
0000
0000
0000
0000
0000
0000
0000
0000
0000
0000
0000
0000
0000
0000
0000
0000
0000
0000
0000
0000
0000
0000
0000
0000
0000
0000
0000
0000
0000
0000
0000
0000
0000
0000
0000
0000
0000
0000
0000
0000
0000
0000
0033
,
2020
0000
0000
0000
0000
0000
0000
0000
0000
0000
0000
0000
0000
0000
0000
0000
0000
0000
0000
0000
0000
0000
0000
0000
0000
0000
0000
0000
0000
0000
0000
0000
0000
0000
0000
0000
0000
0000
0000
0000
0000
0000
0000
0000
0000
0000
0000
0000
0000
0000
0000
0000
0000
0000
0000
0000
0000
0000
0000
0000
0000
0000
0000
3030
,
0022
0000
0000
0000
0000
0000
0000
0000
0000
0000
0000
0000
0000
0000
0000
0000
0000
0000
0000
0000
0000
0000
0000
0000
0000
0000
0000
0000
0000
0000
0000
0000
0000
0000
0000
0000
0000
0000
0000
0000
0000
0000
0000
0000
0000
0000
0000
0000
0000
0000
0000
0000
0000
0000
0000
0000
0000
0000
0000
0000
0000
0000
0000
0033
,
0220
0000
0000
0000
0000
0000
0000
0000
0000
0000
0000
0000
0000
0000
0000
0000
0000
0000
0000
0000
0000
0000
0000
0000
0000
0000
0000
0000
0000
0000
0000
0000
0000
0000
0000
0000
0000
0000
0000
0000
0000
0000
0000
0000
0000
0000
0000
0000
0000
0000
0000
0000
0000
0000
0000
0000
0000
0000
0000
0000
0000
0000
0000
0330
,
2020
0000
0000
0000
0000
0000
0000
0000
0000
0000
0000
0000
0000
0000
0000
0000
0000
0000
0000
0000
0000
0000
0000
0000
0000
0000
0000
0000
0000
0000
0000
0000
0000
0000
0000
0000
0000
0000
0000
0000
0000
0000
0000
0000
0000
0000
0000
0000
0000
0000
0000
0000
0000
0000
0000
0000
0000
0000
0000
0000
0000
0000
0000
3030
,
0220
0000
0000
0000
0000
0000
0000
0000
0000
0000
0000
0000
0000
0000
0000
0000
0000
0000
0000
0000
0000
0000
0000
0000
0000
0000
0000
0000
0000
0000
0000
0000
0000
0000
0000
0000
0000
0000
0000
0000
0000
0000
0000
0000
0000
0000
0000
0000
0000
0000
0000
0000
0000
0000
0000
0000
0000
0000
0000
0000
0000
0000
0000
0330
,
2200
0000
0000
0000
0000
0000
0000
0000
0000
0000
0000
0000
0000
0000
0000
0000
0000
0000
0000
0000
0000
0000
0000
0000
0000
0000
0000
0000
0000
0000
0000
0000
0000
0000
0000
0000
0000
0000
0000
0000
0000
0000
0000
0000
0000
0000
0000
0000
0000
0000
0000
0000
0000
0000
0000
0000
0000
0000
0000
0000
0000
0000
0000
3300
,
0202
0000
0000
0000
0000
0000
0000
0000
0000
0000
0000
0000
0000
0000
0000
0000
0000
0000
0000
0000
0000
0000
0000
0000
0000
0000
0000
0000
0000
0000
0000
0000
0000
0000
0000
0000
0000
0000
0000
0000
0000
0000
0000
0000
0000
0000
0000
0000
0000
0000
0000
0000
0000
0000
0000
0000
0000
0000
0000
0000
0000
0000
0000
0303
,
2002
0000
0000
0000
0000
0000
0000
0000
0000
0000
0000
0000
0000
0000
0000
0000
0000
0000
0000
0000
0000
0000
0000
0000
0000
0000
0000
0000
0000
0000
0000
0000
0000
0000
0000
0000
0000
0000
0000
0000
0000
0000
0000
0000
0000
0000
0000
0000
0000
0000
0000
0000
0000
0000
0000
0000
0000
0000
0000
0000
0000
0000
0000
3003
,
0022
0000
0000
0000
0000
0000
0000
0000
0000
0000
0000
0000
0000
0000
0000
0000
0000
0000
0000
0000
0000
0000
0000
0000
0000
0000
0000
0000
0000
0000
0000
0000
0000
0000
0000
0000
0000
0000
0000
0000
0000
0000
0000
0000
0000
0000
0000
0000
0000
0000
0000
0000
0000
0000
0000
0000
0000
0000
0000
0000
0000
0000
0000
0033
,
2200
0000
0000
0000
0000
0000
0000
0000
0000
0000
0000
0000
0000
0000
0000
0000
0000
0000
0000
0000
0000
0000
0000
0000
0000
0000
0000
0000
0000
0000
0000
0000
0000
0000
0000
0000
0000
0000
0000
0000
0000
0000
0000
0000
0000
0000
0000
0000
0000
0000
0000
0000
0000
0000
0000
0000
0000
0000
0000
0000
0001
0000
0000
3300
,
0220
0000
0000
0000
0000
0000
0000
0000
0000
0000
0000
0000
0000
0000
0000
0000
0000
0000
0000
0000
0000
0000
0000
0000
0000
0000
0000
0000
0000
0000
0000
0330
0202
0000
0000
0000
0000
0000
0000
0000
0000
0000
0000
0000
0000
0000
0000
0000
0000
0000
0000
0000
0000
0000
0000
0000
0000
0000
0000
0000
0000
0000
0000
0303
,
2002
0000
0000
0000
0000
0000
0000
0000
0000
0000
0000
0000
0000
0000
0000
0000
0000
0000
0000
0000
0000
0000
0000
0000
0000
0000
0000
0000
0000
0000
0000
3003
0022
0000
0000
0000
0000
0000
0000
0000
0000
0000
0000
0000
0000
0000
0000
0000
0000
0000
0000
0000
0000
0000
0000
0000
0000
0000
0000
0000
0000
0000
0000
0033
,
2020
0000
0000
0000
0000
0000
0000
0000
0000
0000
0000
0000
0000
0000
0000
0000
0000
0000
0000
0000
0000
0000
0000
0000
0000
0000
0000
0000
0000
0000
0000
3030
0220
0000
0000
0000
0000
0000
0000
0000
0000
0000
0000
0000
0000
0000
0000
0000
0000
0000
0000
0000
0000
0000
0000
0000
0000
0000
0000
0000
0000
0000
0000
0330
,
0202
0000
0000
0000
0000
0000
0000
0000
0000
0000
0000
0000
0000
0000
0000
0000
0000
0000
0000
0000
0000
0000
0000
0000
0000
0000
0000
0000
0000
0000
0000
0303
2020
0000
0000
0000
0000
0000
0000
0000
0000
0000
0000
0000
0000
0000
0000
0000
0000
0000
0000
0000
0000
0000
0000
0000
0000
0000
0000
0000
0000
0000
0000
3030
,
0102
0000
0000
0000
0000
0000
1000
0100
1023
0001
0100
0000
0000
0000
0000
0000
,
2031
0000
0010
0000
0000
0001
0100
0001
3120
0000
0000
0000
0000
0000
0000
0000
,
0132
0000
1000
0000
0000
0000
0100
0010
2103
0001
0100
0000
0000
0000
0001
0100
,
3021
0000
0000
0000
0000
0000
0000
0000
0000
0000
0000
0000
0100
0000
0000
0000
0000
0000
0000
0000
0000
0000
0000
0000
0000
0000
0000
0000
1000
0000
0000
0000
0132
0000
1000
0000
0000
0000
0100
0000
0000
0000
1000
0000
0000
0000
0010
0000
0000
0000
1000
0000
0000
0000
0010
0000
0100
0000
1000
0000
0100
0000
0000
0003
,
1000
0000
0000
0000
2100
0000
0001
0010
0000
0100
0010
0000
3101
0000
0011
0000
,
1010
0000
0110
0000
0012
0000
0100
0010
0000
1000
0100
0000
0010
0100
1000
0000
,
0100
0000
0010
0000
1203
0000
0010
0001
0000
0010
1301
0000
1100
0000
0101
0000
,
1200
0000
0010
0000
0001
0000
1000
0010
0000
0010
1000
0000
0010
0001
1000
0000
,
0001
0000
0010
0000
0321
0000
1000
0001
0000
0100
1000
0000
1031
0000
0011
0000
,
1001
0000
0011
0000
0210
0000
1000
0010
0000
0010
1000
0000
1310
0000
0011
0000
,
2100
0000
0010
0000
0100
0000
3021
0100
0000
1000
0100
0000
0001
0000
1130
0000
,
2010
0000
0100
0000
0010
0000
0001
0010
0000
0100
0010
0000
0001
0100
0010
0000
,
3012
0000
0100
0000
0010
0000
1000
0100
0000
0100
1000
0000
1013
0000
0110
0000
,
0101
0000
0011
0000
0210
0000
1000
0001
0000
1000
0010
0000
1000
0010
1000
0000
,
0001
0000
0010
0000
1320
0000
0001
1000
0000
1000
0131
0000
0110
0000
0011
0000
,
2010
0000
0010
0000
0001
0000
0010
0100
0000
0010
0001
0000
0010
0001
0100
0000
,
0001
0000
0100
0000
3021
0000
1000
0100
0000
1000
0001
0000
0131
0000
1010
0000
,
0011
0000
1010
0000
0012
0000
1000
0100
0000
0010
1000
0000
0113
1000
0101
0000
,
0012
0000
0100
0000
0010
0000
1023
0100
0000
0001
0100
0000
0100
0001
1130
0000
,
2001
0000
0010
0000
0001
0000
0010
0100
0000
0001
0010
0000
0100
0001
0010
0000
,
3011
0000
0100
0000
0201
0000
1000
0010
0000
0001
0010
0000
1310
0000
0011
0000
,
1001
0000
0110
0000
1020
0000
0100
1000
0000
0100
0001
0000
0001
1000
0131
0000
,
2100
0000
0001
0000
0010
0000
0100
0010
0000
0001
0010
0000
0001
0100
3021
0000
,
0100
0000
0231
0000
1000
0000
0010
0001
0000
0010
1000
0000
0001
0010
1000
0000
,
0312
0000
1000
0000
0100
0000
0010
0100
0000
1000
0010
0000
1103
0000
0011
0000
,
1001
0000
0011
0000
1200
0000
0010
1000
0000
0010
0001
0000
0010
1000
0010
0000
,
0312
0000
0100
0000
1000
0000
0100
0010
0000
0100
1000
0000
0010
0100
1000
0000
,
0100
0000
1000
0000
0010
0000
0100
1000
0000
0100
0010
0000
1000
0100
0013
0000
,
1100
0000
0101
0000
0011
0000
0000
0110
0000
0000
1100
0000
0101
0011
0000
0000
,
0011
0000
0000
0000
0101
0000
0000
0110
0000
0000
1100
0000
0011
0110
0000
0000
,
1100
0000
0000
0000
1010
0000
0000
0001
0000
1000
0110
0000
1100
0101
0000
0000
,
0011
0000
0000
0000
0101
0000
1010
0000
0000
0110
1100
0000
0011
0000
1010
0110
,
1002
0000
0000
0000
0000
0000
0000
0000
1000
0000
0000
0003
0102
0000
0000
0000
0010
0000
0000
0000
0000
0000
0000
0003
0002
0000
0000
0000
1100
0000
0000
0000
0010
0000
0000
0003
0002
0000
0000
0000
0110
0000
0000
0000
0000
0000
0000
0003
1100
0000
0000
0000
1010
0000
0000
0000
0000
0000
0000
0000
0000
0000
0000
0000
,
0110
0000
0000
0000
1100
0000
0000
0101
1100
0000
0011
0000
1010
0110
0000
0000
,
1010
0000
0000
0000
0011
0000
0000
0010
0101
1000
0110
0000
1010
0110
0000
0000
,
0011
0000
0000
0000
0000
0000
0000
0000
1100
0000
0000
0000
0000
0000
0001
0000
1000
0000
0001
0000
1000
0001
1000
0001
1000
0001
1000
0001
1000
0001
1000
0001
,
2002
0000
0000
0000
,
0000
0000
0000
0000
0000
0000
0000
0000
0000
0000
0000
0000
0000
0000
0000
3003
,
0100
0000
0000
0000
0021
0000
0000
0000
0000
0000
0100
0000
1000
0100
0000
0000
,
0130
0000
0000
0000
2100
0000
0000
0010
0000
0000
0001
0000
0100
0001
0000
0000
,
3010
0000
0000
0000
0012
0000
0000
0000
0000
0000
0100
0000
1000
0100
0000
0000
,
0013
0000
0000
0000
0120
0000
1000
0000
0000
0000
0001
0000
0100
0000
1000
0100
,
0031
0000
0000
0000
0201
0000
0000
0000
0000
0000
1000
0000
0010
1000
0000
0000
,
0301
0000
0000
0000
0120
0000
0000
1000
0000
0000
0100
0000
0001
1000
0000
0000
,
0130
0000
0000
0000
2001
0000
0000
0000
0000
0000
0010
0000
0001
0100
0000
0000
,
3010
0000
0000
0000
0102
0000
0000
0000
0100
0000
0100
0000
0100
0100
0100
0100
,
0103
0000
0210
0000
0000
0010
1000
0001
,
1300
0010
0102
1000
0010
0100
1000
0010
,
1003
0010
2100
0001
0010
0100
0010
0001
,
3100
0000
0000
0000
0021
0000
1000
0000
0000
0000
0001
0000
0100
0000
1000
0001
,
0130
0000
0000
0000
2100
0000
0000
0000
0000
0000
0010
0000
0001
0100
0000
0000
,
3001
0000
0000
0000
0021
0000
0000
0100
0000
0000
1000
0000
0100
0001
0000
0000
,
0130
0000
0000
0000
2100
0000
0000
0000
0000
0000
0010
0000
0100
0001
0000
0000
,
3010
0000
0000
0000
0201
0000
0000
0000
0010
0000
1000
0000
0010
0001
0000
0000
,
0310
0000
0000
0000
1100
0000
0000
0000
0000
0000
0110
0000
0011
0101
0000
0000
,
1010
0000
0000
0000
1100
0000
0000
0101
0000
0000
0110
0000
1001
0110
0000
0000
,
0101
0000
0000
0000
0011
0000
0000
1000
0110
0001
1100
0000
0110
1001
0000
0000
,
0110
0000
0000
0000
1100
0000
0011
0000
0000
0000
1100
0000
0011
0000
0110
0001
,
1010
0000
0000
0000
0011
0000
0000
0010
0101
0000
1100
0000
0011
0110
0000
0000
,
1010
0000
0000
0000
0110
0000
0000
0011
0000
0000
1010
0000
0110
1001
0000
0000
,
0110
0000
0000
0000
0011
0000
0000
0010
1100
0001
0110
0000
0101
1010
0000
0000
,
0001
0001
0010
0000
,
0100
0000
0000
0000
0000
0000
0000
0000
0000
0000
0000
0000
0000
0000
0000
0000
1000
0000
0000
0000
0000
0000
0000
0000
0000
0000
0000
0000
0000
0000
0000
0000
0200
0000
0000
0000
0000
0000
0000
0000
0000
0000
0000
0000
0000
0000
0000
0000
0000
0000
0000
0000
0000
0000
0000
0300
0210
0000
0000
0000
0000
0000
0000
0000
,
0000
0000
0000
0000
0000
0000
0000
0000
0000
0000
0000
0000
0000
0000
0000
0300
1200
0000
0000
0000
0000
0000
0000
0000
0000
0000
0000
0000
0000
0000
0000
0000
0000
0000
0000
0000
0000
0000
0000
0300
0200
0000
0000
0000
0000
0000
0000
0000
0001
0000
0000
0000
0000
0000
0000
0000
0000
0000
0000
0000
0000
0000
0000
0300
,
0200
0000
0000
0000
0000
0000
0000
0000
0000
0000
0000
0000
0000
0000
0000
0000
0010
0000
0000
0000
0000
0000
0000
0300
0200
0000
0000
0000
0000
0000
0000
0000
1000
0000
0000
0000
0000
0000
0000
0000
0000
0000
0000
0000
0000
0000
0000
0300
0200
0000
0000
0000
0000
0000
0000
0000
1000
0000
0000
0000
0000
0000
0000
0000
,
0000
0300
1000
0000
0000
0010
0000
0000
,
0010
0000
0000
0000
0010
0000
0000
0001
,
0000
0001
0000
0010
,
0000
0000
1000
0000
0000
0000
0000
0010
,
0000
0000
0010
0000
0000
0001
0000
0000
,
0001
0000
0000
0000
1000
0000
0000
1000
,
0000
0010
0000
1000
,
0000
0000
1000
0000
0001
0000
0000
0001
,
0000
0000
1000
0000
0000
0010
0000
0000
,
0010
0000
0000
0000
0001
0000
0000
0100
,
0000
0010
0000
0100
,
0000
0000
1000
0000
0000
1000
0000
1000
,
0000
0000
0001
0000
0000
1000
0000
0000
,
0100
0000
0000
0000
1100
0000
0000
0010
,
0000
0000
0010
0000
0110
0001
1010
0100
,
0011
0100
1100
0001
0110
1000
0101
0010
,
1001
0100
0011
0100
1010
0010
0101
0100
,
0011
0100
0110
0010
1001
0100
0011
0010
,
1100
0010
0011
1000
0110
0001
1010
0010
,
0101
0100
1010
0000
0110
0000
1100
0000
,
0110
1001
0110
1001
,
0110
0000
0101
0000
1010
0000
0000
0100
,
0000
0010
0000
0100
,
0000
0000
1000
0000
0100
0000
0000
1000
,
0000
0000
0010
0000
0000
0001
0000
0000
,
0001
0000
0000
0000
0100
0000
0000
1000
,
0000
0001
0000
0100
,
0000
0000
0001
0000
0000
0000
0000
0001
,
0000
0000
0010
0000
0000
0001
0000
0000
,
1000
0000
0000
0000
0020
0000
1000
0001
,
0000
0000
1000
0000
0100
0001
1000
0000
0131
0000
0000
0011
0000
0000
1001
0000
,
0000
0000
0100
0000
0010
0001
0100
0000
1010
0000
0000
1001
0000
0000
1010
0000
,
0000
0000
0001
0000
0010
1000
0100
0000
0011
0000
0000
0110
0000
0000
0101
0000
,
0000
0000
1000
0000
0010
0001
1000
0000
0110
0000
0000
0011
0000
0000
0110
0000
,
0000
0000
0001
0000
0100
1000
0010
0000
0101
0000
0000
1010
0000
0000
0011
0000
,
0000
0000
0010
0000
0100
0010
0001
0000
1100
0000
0000
1001
0000
0000
1010
0000
,
0000
0000
0010
0000
1000
0010
0001
0000
1100
0000
0000
0101
0000
0000
0110
0000
,
0000
0000
0100
0000
0010
0100
0001
0000
2100
0000
0000
0110
0000
0000
0011
0000
,
3001
0000
1000
0000
0010
0100
0001
0000
0101
0000
1000
0110
0001
0000
1010
0000
,
0010
0000
0100
0000
1000
0010
0001
0000
1010
0000
0100
0011
0100
0000
1010
0000
,
0001
0000
1000
0000
0010
0001
0100
0000
1010
0000
0010
0101
1000
0000
0110
0000
,
0001
0000
0100
0000
0010
0100
0001
0000
1100
0000
0000
1010
0000
0000
1001
0000
,
0000
0000
0010
0000
0001
1000
0100
0000
0011
0000
0000
0110
0000
0000
1001
0000
,
0000
0000
0100
0000
0001
1000
0100
0000
0110
0000
0000
0011
0000
0000
1010
0000
,
0000
0000
0100
0000
0010
0001
0100
0000
1010
0000
0000
1100
0000
0000
1001
0000
,
0000
0000
0100
0000
1000
0100
0010
0000
0012
0000
0000
0000
0000
0000
0000
0000
,
0000
0000
1103
0110
1010
0011
0210
0000
,
0000
0000
0000
0000
0010
1300
0012
0000
,
0000
0113
1010
0101
0021
0000
0000
0000
,
0000
0000
0000
1000
0001
1030
0210
0000
,
0000
0000
1310
0011
1100
0101
0210
0000
,
0000
0000
1310
0011
2100
0001
0000
3102
,
1000
0010
0100
2103
3120
0000
0001
0000
,
0100
0000
1000
0001
2230
0000
0000
0000
,
0000
0000
0000
0000
,
0000
0000
0000
0000
0001
0001
0000
0001
,
0000
0001
0000
0001
0000
0001
0000
0001
,
0001
0000
0001
0000
0001
0000
0000
0000
3301
0000
0000
0000
2100
0000
0010
0001
,
0000
0100
0010
0000
3011
0100
1001
0000
1010
0001
0110
0000
0012
0000
1000
0100
,
0000
0010
0100
0000
0010
0100
1000
0000
0010
0000
1000
0000
0123
0000
0100
0001
,
0000
0100
1031
0000
0011
1000
0110
0000
2001
0000
0010
0000
0100
0000
0001
0010
,
0000
0001
0100
0000
0001
0010
0100
0000
3011
0000
0100
0000
0210
0000
0001
1000
,
0000
0001
0010
0000
1310
0001
0110
0000
1100
0000
0110
0000
1200
0000
0001
0010
,
0000
1000
0010
0000
0311
1000
0101
0000
0012
0000
0100
0000
1000
0000
0123
1000
,
0000
0001
0100
0000
1000
0001
1130
0000
2100
0000
0010
0000
0001
0000
0010
0001
,
0000
0100
0001
0000
0010
0100
0001
0000
3120
0000
0100
0000
0001
0000
0100
1000
,
0000
0100
0001
0000
1130
0001
0110
0000
1010
0000
0011
0000
0210
0000
1000
0010
,
0000
0001
0010
0000
1000
0010
0001
0000
0010
0000
1000
0000
0321
0000
0100
0001
,
0000
1000
0131
0000
1010
0100
0011
0000
1200
0000
0001
0000
1000
0000
0001
0010
,
0000
0001
1000
0000
0010
1000
0001
0000
1300
0000
0100
0000
0120
0000
1000
0001
,
0000
1000
0100
0000
1130
0001
0110
0000
1010
0000
0011
0000
0102
0000
0010
1000
,
0000
0010
0100
0000
0113
1000
0101
0000
2010
0000
0100
0000
0001
0000
3021
0100
,
0000
0001
1000
0000
0100
1000
0131
0000
2010
0000
0100
0000
0010
0000
0100
0010
,
0000
0001
0010
0000
0100
0010
0001
0000
3110
0000
0010
0000
0201
0000
1000
0010
,
0000
0010
0001
0000
1310
0001
0110
0000
1100
0000
0110
0000
0201
0000
1000
0001
,
0000
0010
0001
0000
0010
0001
1310
0000
0012
0000
0010
0000
0100
0000
0010
0100
,
0000
0010
0100
0000
0100
1000
0123
0000
0001
0000
2130
0000
0010
0000
0100
0010
,
0000
0100
0010
0000
0001
0010
0100
0000
3012
0000
0010
0000
1000
0000
0100
0010
,
0000
0100
1000
0000
1103
0010
0101
0000
1010
0000
0011
0000
1200
0000
0010
1000
,
0000
0010
0001
0000
0010
0001
1000
0000
0321
0000
0100
0000
0001
0000
1000
0100
,
0000
1000
0001
0000
0100
0001
1000
0000
0001
0000
0100
0000
1000
0000
0100
1000
,
0000
0100
0001
0000
0100
1000
0001
0000
1130
0000
0000
0000
0011
0000
0000
0000
,
1100
0000
1010
0000
0011
1010
0000
0000
0011
0000
0000
0000
0110
0000
0000
1100
,
0000
0000
0110
0000
1010
0101
0000
0000
1010
0000
0000
0000
0110
0000
0000
0010
,
0101
0010
1100
0000
0011
0110
0000
0000
1010
0000
0000
0000
0110
0000
1001
0000
,
0110
0000
0011
0000
1100
0000
0110
0101
1000
0000
0000
0000
1000
0000
0000
0000
,
1000
1000
1000
1000
,
1000
1000
1000
1000
,
1000
1000
1000
1000
,
1000
0000
1000
0000
1000
0001
1000
0010
,
1000
0100
1000
0000
1000
1000
1000
1000
,
1000
0000
0000
0000
1000
0000
0000
0000
1000
0000
0000
0000
1000
0000
0000
0000
1000
0000
0000
0000
1000
0000
1000
0000
1000
0000
1000
0000
1000
0000
1000
0000
2002
0000
0000
0000
0000
0000
0000
0000
0000
0000
0000
0000
0000
0000
0000
0000
0000
0000
0000
0000
0000
0000
0000
3003
2002
0000
0000
0000
0000
0000
0000
0000
,
0000
0000
0000
0000
0000
0000
0000
0000
0000
0000
0000
0000
0000
0000
0000
3003
2002
0000
0000
0000
0000
0000
0000
0000
0000
0000
0000
0000
0000
0000
0000
0000
0000
0000
0000
0000
0000
0000
0000
3003
2002
0000
0000
0000
0000
0000
0000
0000
0000
0000
0000
0000
0000
0000
0000
0000
0000
0000
0000
0000
0000
0000
0000
3003
,
2002
0000
0000
0000
0000
0000
0000
0000
0000
0000
0000
0000
0000
0000
0000
0000
0000
0000
0000
0000
0000
0000
0000
3003
2002
0000
0000
0000
0000
0000
0000
0000
0000
0000
0000
0000
0000
0000
0000
0000
0000
0000
0000
0000
0000
0000
0000
3003
2002
0000
0000
0000
0000
0000
0000
0000
0000
0000
0000
0000
0000
0000
0000
0000
,
0000
0000
0000
0000
0000
0000
0000
3003
2002
0000
0000
0000
0000
0000
0000
0000
0000
0000
0000
0000
0000
0000
0000
0000
0000
0000
0000
0000
0000
0000
0000
0000
3003
0000
0000
0000
0000
0000
0000
0000
0000
0000
0000
0000
0000
0000
0000
0000
0000
0000
0000
0000
0000
0000
0000
0000
0000
0000
0000
0000
0000
0000
0000
0000
;
