#TITLE:This is Halloween;
#SUBTITLE:Kingdom Hearts;
#ARTIST:Squaresoft;
#TITLETRANSLIT:;
#SUBTITLETRANSLIT:;
#ARTISTTRANSLIT:;
#CREDIT:;
#BANNER:This is Halloween.png;
#BACKGROUND:This is Halloween-bg.png;
#LYRICSPATH:;
#CDTITLE:nuclearshadow.png;
#MUSIC:This is Halloween.mp3;
#OFFSET:-0.464;
#SAMPLESTART:56.210;
#SAMPLELENGTH:12.000;
#SELECTABLE:YES;
#BPMS:0.000=83.990;
#STOPS:;
#BGCHANGES:;
// cache tags:
#FIRSTBEAT:0.000;
#LASTBEAT:192.000;
#SONGFILENAME:Songs/VGMP 2/This Is Halloween (Nuclear Shadow)/This is Halloween.sm;
#HASMUSIC:1;
#HASBANNER:1;
#MUSICLENGTH:142.680;
// end cache tags

//---------------dance-single - ----------------
#NOTES:
     dance-single:
     :
     Hard:
     11:
     0.913,0.807,1.000,0.596,0.659,567.000,260.000,85.000,0.000,38.000:
1010
0000
0000
0000
0000
0000
0100
0000
0000
0000
0000
0000
0011
0000
0000
0000
0000
0000
0100
0000
0000
0000
0000
0000
1010
0000
0000
0000
0000
0000
0001
0000
0000
0000
0000
0000
1000
0100
1000
0100
0010
0100
0010
0002
0000
0000
0003
0000
,
0110
0001
0110
1000
0110
0001
0110
0011
,
1100
0010
1100
0010
1100
0010
1100
0110
,
0011
0000
0100
0000
0011
0000
0100
0000
0011
0000
0100
1000
0011
0100
1010
0000
,
0101
0000
0000
0000
0000
0000
0010
0000
0000
0100
0000
0000
1010
0000
0000
0001
0000
0000
0010
0000
0000
0100
0000
0000
1001
0000
0000
0000
0000
0000
0001
0000
0000
0000
0000
0000
0010
0001
0010
0100
1000
0100
1000
0200
0000
0000
0300
0000
,
0011
0000
0000
0000
0000
0000
0100
0000
0000
0000
0000
0000
1010
0000
0000
0000
0000
0000
0001
0000
0000
0000
0000
0000
0110
0000
0000
1001
0000
0000
0110
0000
0000
0000
0000
0000
0010
0100
0010
0100
0010
0100
0010
0000
0000
0000
0000
0000
,
1001
0000
0000
0000
0000
0000
0010
0000
0000
0000
0000
0000
1001
0000
0000
0000
0000
0000
0100
0000
0000
0000
0000
0000
1001
0000
0000
0110
0000
0000
0110
0000
0000
0000
0000
0000
0001
1000
0001
1000
0001
1000
0001
0000
0000
0000
0000
0000
,
0110
0000
1001
0000
0110
0000
0011
0000
0101
0000
1100
0110
0022
0000
0033
0000
,
1001
0000
0101
0000
1010
0101
1010
0000
0022
0033
0220
0330
2200
3300
0220
0330
,
1001
0000
0110
0000
0011
0101
1010
0000
1001
0000
0110
0000
0011
0101
1010
0000
,
0101
0000
0000
0000
0000
0000
0100
0000
0000
0000
0000
0000
1010
0000
0000
0000
0000
0000
0100
0000
0000
0010
0000
0000
1001
0000
0000
0000
0000
0000
0010
0000
0000
0000
0000
0000
0022
0000
0000
0033
0000
0100
1000
0100
0010
0001
0010
0100
,
1001
0000
0110
0000
1001
0110
1001
0000
1010
1010
0110
0110
0101
0101
0011
0000
,
0110
0000
0000
0000
0001
0000
0000
0000
0110
0000
0000
0000
1000
0000
0100
0000
1001
0100
0010
0001
0010
0001
0010
0001
0010
0100
1000
0100
0010
0001
0010
0100
,
1001
0000
0000
0000
0000
0000
0010
0000
0000
0000
0000
0000
1000
0001
1000
0001
1000
0001
0110
0000
0000
0000
0000
0000
1001
0000
0000
0000
0000
0000
0100
0000
0000
0000
0000
0000
1000
0001
1000
0001
1000
0001
0110
0000
0000
0000
0000
0000
,
2000
0000
3200
0000
0320
0000
0032
0000
0203
0000
0320
0032
2013
0000
0010
0000
,
0010
0000
3120
0000
1032
0000
0010
0000
0100
0100
2013
0000
3210
0000
0321
0000
,
1230
0000
0312
0000
2013
0000
0100
0000
0001
0001
3120
0000
2031
0000
0100
0000
,
0010
0000
3012
0000
0213
0000
0001
0000
0001
1000
0321
0000
0132
0000
0123
0000
,
0231
0000
2310
0000
3120
0000
1000
0000
1000
0100
1000
0030
1001
0010
1001
0100
,
1001
0110
1001
0010
0110
1000
0110
0001
0110
1001
0110
0000
1001
1010
1100
0000
,
1001
0000
1010
0000
1100
0000
0000
0000
1001
0000
0101
0000
0011
0000
0000
0000
1001
0000
0101
0000
0011
0000
1000
0100
0011
0000
0100
0000
0010
0000
1000
0000
,
0010
0100
0001
0100
0010
1000
0001
1000
0110
0000
1000
0000
0100
0001
1000
0001
,
0110
0000
0001
0000
0010
0100
0010
1000
0001
1000
0010
0100
1010
0000
0010
0000
,
2002
0000
0000
0000
3203
0000
0000
0300
0011
0000
0000
0000
1000
0000
0000
0000
0011
0000
0000
0000
1000
0000
0000
0000
0011
0000
0000
0000
1000
0000
0000
0000
,
0011
0110
0011
0100
0011
0100
0011
0100
,
0011
0000
1001
0000
1010
0000
0010
0000
1010
0000
0010
0000
0110
0000
0010
0001
,
0110
1000
0010
0100
0011
0000
1000
0001
0110
1000
0100
0010
1001
0000
0010
0000
,
0001
0010
0100
0010
0100
0010
0100
2000
0000
0000
3000
0000
0110
0000
0000
0000
0000
0000
0100
0000
0000
0000
0000
0000
0110
0000
0000
0000
0000
0000
0010
0000
0000
0000
0000
0000
0110
0000
0000
0110
0000
0000
0110
0000
0000
0000
0000
0000
,
0100
0001
0100
0001
0100
0001
0100
0000
0000
0000
0000
0000
1010
0000
0000
0000
0000
0000
0100
0000
0000
0000
0000
0000
1010
0000
0000
0000
0000
0000
0100
0000
0000
0000
0000
0000
1010
0000
0000
0110
0000
0000
0101
0000
0000
0000
0000
0000
,
0010
1000
0010
1000
0010
1000
0010
0000
0000
0000
0000
0000
1001
0000
0000
0000
0000
0000
1100
0000
0000
0000
0000
0000
1001
0000
0000
0000
0000
0000
0011
0000
0000
0000
0000
0000
1001
0000
0000
0000
0000
0000
0101
0000
0000
0101
0000
0000
,
0220
0000
0330
0000
1100
0000
0110
0000
0011
0110
1100
0000
0220
0330
2002
3003
,
2020
3030
0202
0303
1010
0000
1010
0000
1001
0101
1001
0000
0101
0000
0101
0000
,
1001
1010
1001
0000
0110
0000
0100
0000
1001
0000
0100
0010
1001
0000
0010
0000
,
1100
0000
0000
0000
0000
0010
1000
0001
0100
0010
0100
0010
1001
0000
0000
0000
0000
0000
0001
0000
0000
0000
0000
0000
0101
0000
0000
1010
0000
0000
0110
0000
0000
0000
0000
0000
0101
0000
0000
0101
0000
0000
0110
0000
0000
0110
0000
0000
,
1010
0000
1010
0000
1100
0000
0000
0000
0011
0000
0000
0000
0010
0000
0000
0000
0011
0000
0000
0000
0100
0000
0001
0000
0110
1000
0001
1000
0001
0010
0100
0010
,
0100
0000
0000
0000
0000
0000
0010
0000
0000
0000
0000
0000
0100
0000
0000
0000
0000
0000
1000
0000
0000
0000
0000
0000
0010
0000
0000
0000
0000
0000
0100
0000
0000
0000
0000
0000
0001
0000
0000
0000
0000
0000
1000
0000
0000
0000
0000
0000
0110
0000
0000
0000
0000
0000
0000
0000
0000
0000
0000
0000
0000
0000
0000
0000
0000
0000
0000
0000
0000
0000
0000
0000
0001
0000
0000
0000
0000
0000
0000
0000
0000
0000
0000
0000
0000
0000
0000
0000
0000
0000
0000
0000
0000
0000
0000
0000
0010
0000
0000
0000
1000
0000
0000
0000
0010
0000
0000
0000
1000
0000
0000
0000
0010
0000
0000
0000
1000
0000
0000
0000
0101
0000
0000
0000
0000
0000
0000
0000
0000
0000
0000
0000
0000
0000
0000
0000
0000
0000
0000
0000
0000
0000
0000
0000
1010
0000
0000
0000
0000
0000
0000
0000
0000
0000
0000
0000
0000
0000
0000
0000
0000
0000
0000
0000
0000
0000
0000
0000
0100
0000
0000
0000
0000
0000
0000
0000
0000
0000
0000
0000
0000
0000
0000
0000
0000
0000
0000
0000
0000
0000
0000
0000
,
0001
0100
0001
0100
0001
0100
1010
0000
0000
0000
0000
0000
0002
0000
0000
0000
0000
0000
2003
0000
0000
0000
0000
0000
3020
0000
0000
0000
0000
0000
0230
0000
0000
0000
0000
0000
0302
0000
0000
0000
0000
0000
0023
0000
0000
0230
0000
0000
,
2310
0000
0000
0000
0000
0000
0000
0000
0100
0000
0000
0000
0000
0000
0000
0000
0010
0000
0000
0000
0000
0000
0000
3000
0102
0000
0000
0000
0000
0000
0000
0000
2103
0000
0000
0000
0000
0000
0000
0000
0100
0000
0000
0000
0000
0000
0000
0000
0010
0000
0000
0000
0100
0000
0000
0000
3021
0000
0000
0000
0000
0000
0000
0000
,
0132
0000
0000
0000
0000
0000
1023
0000
0000
0000
0000
0000
0132
0000
0000
0000
0000
0000
1023
0000
0000
0000
0000
0000
0132
0000
0000
0000
0000
0000
1000
0000
0000
0000
0000
0000
0100
0000
0000
1000
0000
0003
0210
0000
0000
0000
0000
0000
,
0312
0010
0100
2013
3120
1000
0100
0231
,
2310
0000
3201
0000
2310
0000
3201
0000
2310
0000
0001
0000
0001
0010
0001
3000
,
0101
0010
0101
1000
0011
0110
1100
0001
1010
0100
1010
0001
1100
0110
0011
0000
,
1001
0000
0110
0000
1001
0000
0000
0000
1001
0000
0110
0000
1001
0000
0000
0000
0110
0000
1001
0000
0110
0000
0000
0000
0110
0000
1001
0000
0110
0000
1000
0100
,
0011
0100
0001
1000
0010
0100
0010
1000
0001
0100
0010
1000
0110
0000
0010
0000
,
0001
0010
0100
1000
0011
0000
1000
0000
1000
0100
0010
0001
1000
0100
0010
0001
,
1100
0000
0000
0001
0000
0000
0220
0000
0000
0332
0000
0003
0110
0000
0000
0100
0000
0000
0110
0000
0000
0010
0000
0000
,
0110
0100
0110
0110
0110
0001
1001
1000
,
1001
0001
1001
1001
2002
0000
0000
0000
,
3003
0000
0000
0000
;

//---------------dance-single - Copied from Copied f----------------
#NOTES:
     dance-single:
     Copied from Copied f:
     Challenge:
     12:
     1.000,0.976,1.000,0.680,0.725,586.000,323.000,97.000,0.000,89.000:
1010
0000
0000
0000
0000
0000
0100
0000
0000
0000
0000
0000
0011
0000
0000
0000
0000
0000
0100
0000
0000
0000
0000
0000
1010
0000
0000
0000
0000
0000
0001
0000
0000
0000
0000
0000
1000
0100
1000
0100
0010
0100
0010
0002
0000
0000
0003
0000
,
1010
0000
0000
0000
0001
0000
0000
0000
0101
0000
0000
0000
1000
0000
0000
0000
0110
0000
0000
0000
0001
0000
0000
0000
0110
0001
0010
0100
0011
1000
0100
0010
,
1102
0010
1100
0010
1100
0010
1100
0213
,
2311
0000
0100
0000
0011
0000
0100
0000
3011
0000
0100
1000
0011
0100
1010
0000
,
0101
0000
0000
0000
0000
0000
0010
0000
0000
0100
0000
0000
1010
0000
0000
0001
0000
0000
0010
0000
0000
0100
0000
0000
1001
0000
0000
0000
0000
0000
0001
0000
0000
0000
0000
0000
0010
0001
0010
0100
1000
0100
1000
0200
0000
0000
0300
0000
,
0011
0000
0000
0000
0000
0000
0100
0000
0000
0000
0000
0000
1010
0000
0000
0000
0000
0000
0001
0000
0000
0000
0000
0000
0110
0000
0000
1001
0000
0000
0110
0000
0000
0000
0000
0000
2010
0100
0010
0100
0010
0100
3010
0000
0000
0000
0000
0000
,
1001
0000
0000
0000
0000
0000
0010
0000
0000
0000
0000
0000
1001
0000
0000
0000
0000
0000
0100
0000
0000
0000
0000
0000
1001
0000
0000
0110
0000
0000
0110
0000
0000
0000
0000
0000
0021
1000
0001
1000
0001
1000
0031
0000
0000
0000
0000
0000
,
0110
0000
1001
0000
0110
0000
0011
0000
0101
0000
1100
0110
0022
0000
0033
0000
,
1001
0000
0101
0000
1010
0101
1010
0000
0022
0033
0220
0330
2200
3300
0220
0330
,
1011
0000
0110
0000
1011
0101
1010
0000
1101
0000
0110
0000
1011
0101
1010
0000
,
0111
0000
0000
0000
0000
0000
0100
0000
0000
0000
0000
0000
1011
0000
0000
0000
0000
0000
0100
0000
0000
0010
0000
0000
1101
0000
0000
0000
0000
0000
0110
0000
0000
0000
0000
0000
1022
0000
0000
0033
0000
0100
1000
0100
0010
0001
0010
0100
,
1001
0000
0110
0000
1101
0110
1001
0000
1110
1010
0110
0110
1101
0101
0011
0000
,
1110
0000
0000
0000
0001
0000
0000
0000
0111
0000
0000
0000
1000
0000
0100
0000
1011
0100
0010
0001
0110
0001
0010
0001
1010
0100
1000
0100
1010
0001
0010
0100
,
1011
0000
0000
0000
0000
0000
0010
0000
0000
0000
0000
0000
1000
0001
1000
0001
1000
0001
0110
0000
0000
0000
0000
0000
1001
0000
0000
0000
0000
0000
0100
0000
0000
0000
0000
0000
1000
0001
1000
0001
1000
0001
0110
0000
0000
0000
0000
0000
,
2000
0000
3200
0000
0320
0000
0032
0000
0203
0000
0320
0032
2013
0000
0010
0000
,
0010
0000
3120
0000
1032
0000
0010
0000
0100
1000
2013
0000
3210
0000
0321
0000
,
1230
0000
0312
0000
2013
0000
0100
0000
0001
0100
3021
0000
2031
0000
0100
0000
,
0010
0000
3012
0000
0213
0000
0001
0000
0001
1000
0321
0000
0132
0000
0123
0000
,
0231
0000
2310
0000
3120
0000
1000
0000
1000
0100
1000
0030
1001
0010
1001
0100
,
1001
0110
1001
1000
0110
0001
0110
1000
0110
1001
0110
0000
1001
1010
1100
0000
,
1001
0000
1010
0000
1100
0000
0000
0000
1001
0000
0101
0000
0011
0000
0000
0000
1001
0000
0101
0000
0011
0000
1000
0100
0011
0000
0101
0000
1010
0000
1001
0000
,
0110
0110
1001
0110
0011
1100
0011
1100
0110
0000
1010
0000
1100
0011
1100
0011
,
0110
0000
0101
0000
1010
0101
0110
1001
0110
1100
0011
0101
1010
0000
0110
0000
,
2002
0000
0000
0000
3203
0000
0000
0300
0011
0000
0000
0000
1000
0000
0000
0000
0011
0000
0000
0000
1000
0000
0000
0000
0011
0000
0000
0000
1000
0000
0000
0000
,
0011
0100
1000
0001
0110
1000
0100
1000
0211
0000
0000
0000
1000
0000
0000
0000
0011
0000
0000
0000
1000
0000
0000
0000
0011
0000
0000
0000
1000
0000
0000
0000
,
0011
0000
1312
0000
2013
0000
0010
0000
0110
0000
0010
0000
0110
0000
3010
0001
,
0110
1000
0010
0100
0011
0000
1000
0001
0110
1000
0100
0010
1001
0000
0010
0000
,
0001
0010
0100
0010
0100
0010
0100
2000
0000
0000
3000
0000
0110
0000
0000
0000
0000
0000
0100
0000
0000
0000
0000
0000
0110
0000
0000
0000
0000
0000
0010
0000
0000
0000
0000
0000
0110
0000
0000
0110
0000
0000
0110
0000
0000
0000
0000
0000
,
2100
0001
0100
0001
0100
0001
3100
0000
0000
0000
0000
0000
1010
0000
0000
0000
0000
0000
0100
0000
0000
0000
0000
0000
1010
0000
0000
0000
0000
0000
0100
0000
0000
0000
0000
0000
1010
0000
0000
0110
0000
0000
0101
0000
0000
0000
0000
0000
,
0012
1000
0010
1000
0010
1000
0013
0000
0000
0000
0000
0000
1001
0000
0000
0000
0000
0000
1100
0000
0000
0000
0000
0000
1001
0000
0000
0000
0000
0000
0011
0000
0000
0000
0000
0000
1001
0000
0000
0000
0000
0000
0101
0000
0000
0101
0000
0000
,
0220
0000
0330
0000
1100
0000
0110
0000
0011
0110
1100
0000
0220
0330
2002
3003
,
2020
3030
0202
0303
1011
0000
1010
0000
1101
0101
1001
0000
0111
0000
0101
0000
,
1101
1010
1001
0000
1110
0000
0100
0000
1011
0000
0100
0010
1101
0000
0010
0000
,
1100
0000
0000
0000
0000
0010
1000
0001
0100
0010
0100
0010
1001
0000
0000
0000
0000
0000
0001
0000
0000
0000
0000
0000
1101
0000
0000
1010
0000
0000
0110
0000
0000
0000
0000
0000
0111
0000
0000
0101
0000
0000
0110
0000
0000
0110
0000
0000
,
1011
0000
1010
0000
1100
0000
0000
0000
0111
0000
0000
0000
0010
0000
0000
0000
1011
0000
0000
0000
0100
0000
0001
0000
0111
1000
0001
1000
0101
0010
0100
0010
,
0101
0000
0000
0000
0000
0000
0010
0000
0000
0000
0000
0000
0100
0000
0000
0000
0000
0000
1000
0000
0000
0000
0000
0000
0011
0000
0000
0000
0000
0000
0100
0000
0000
0000
0000
0000
0001
0000
0000
0000
0000
0000
1000
0000
0000
0000
0000
0000
0111
0000
0000
0000
0000
0000
0000
0000
0000
0000
0000
0000
0000
0000
0000
0000
0000
0000
0000
0000
0000
0000
0000
0000
0001
0000
0000
0000
0000
0000
0000
0000
0000
0000
0000
0000
0000
0000
0000
0000
0000
0000
0000
0000
0000
0000
0000
0000
0010
0000
0000
0000
1000
0000
0000
0000
0010
0000
0000
0000
1000
0000
0000
0000
0010
0000
0000
0000
1000
0000
0000
0000
0101
0000
0000
0000
0000
0000
0000
0000
0000
0000
0000
0000
0000
0000
0000
0000
0000
0000
0000
0000
0000
0000
0000
0000
1010
0000
0000
0000
0000
0000
0000
0000
0000
0000
0000
0000
0000
0000
0000
0000
0000
0000
0000
0000
0000
0000
0000
0000
0100
0000
0000
0000
0000
0000
0000
0000
0000
0000
0000
0000
0000
0000
0000
0000
0000
0000
0000
0000
0000
0000
0000
0000
,
0001
0100
0001
0100
0001
0100
1010
0000
0000
0000
0000
0000
0002
0000
0000
0000
0000
0000
2003
0000
0000
0000
0000
0000
3020
0000
0000
0000
0000
0000
0230
0000
0000
0000
0000
0000
0302
0000
0000
0000
0000
0000
0023
0000
0000
0230
0000
0000
,
2310
0000
0000
0000
0000
0000
0000
0000
0100
0000
0000
0000
0000
0000
0000
0000
0010
0000
0000
0000
0000
0000
0000
3000
0102
0000
0000
0000
0000
0000
0000
0000
2103
0000
0000
0000
0000
0000
0000
0000
0100
0000
0000
0000
0000
0000
0000
0000
0100
0000
0000
0000
0010
0000
0000
0000
3021
0000
0000
0000
0000
0000
0000
0000
,
0132
0000
0000
0000
0000
0000
1023
0000
0000
0000
0000
0000
0132
0000
0000
0000
0000
0000
1023
0000
0000
0000
0000
0000
0132
0000
0000
0000
0000
0000
1000
0000
0000
0000
0000
0000
0100
0000
0000
1000
0000
0003
0210
0000
0000
0000
0000
0000
,
0312
0000
0010
0000
0100
0000
2013
0000
3120
0000
1000
0000
0100
1000
0231
0000
,
2310
0000
3201
0000
2310
0000
3201
0000
2310
0000
0001
0000
0001
0010
0001
3000
,
0101
0010
0101
1000
0011
0110
1100
0001
1010
0100
1010
0001
1100
0110
0011
0000
,
1001
0000
0110
0000
1001
0000
0000
0000
1001
0000
0110
0000
1001
0000
0000
0000
0110
0000
1001
0000
0110
0000
0000
0000
0110
0000
1001
0000
0110
0000
1000
0100
,
0011
1100
0011
1100
1010
0110
0110
1001
0011
1100
0011
1100
0110
0000
1010
0000
,
0101
1010
0101
1010
0011
0000
1001
0000
1010
0101
1010
0101
1010
0101
0110
0011
,
1100
0000
0000
1001
0000
0000
0220
0000
0000
0332
0000
0003
0110
0000
0000
0100
0000
0000
0110
0000
0000
0010
0000
0000
,
0110
0000
0000
0000
0100
0000
0000
0000
0110
0001
1000
0001
0110
0001
1000
0001
1120
0000
0000
0000
0001
0000
0000
0000
1001
0000
0000
0000
1000
0000
0000
0000
,
1001
0001
1001
1231
2302
0000
0000
0000
,
3003
0000
0000
0000
;
