#TITLE:Mundian To Bach Speedcore;
#SUBTITLE:;
#ARTIST:m1dlet;
#TITLETRANSLIT:;
#SUBTITLETRANSLIT:;
#ARTISTTRANSLIT:;
#CREDIT:Happy Feet & Aoreo;
#BANNER:Bn-Bach.png;
#BACKGROUND:Bg-Bach.png;
#LYRICSPATH:;
#CDTITLE:;
#MUSIC:Mundian Bach To Speedcore.ogg;
#OFFSET:-0.104;
#SAMPLESTART:91.260;
#SAMPLELENGTH:12.000;
#SELECTABLE:YES;
#DISPLAYBPM:250.000;
#BPMS:0.000=200.000,241.000=200.500,243.000=200.680,248.000=200.880,296.000=199.400,304.000=200.430,384.000=200.300,400.000=200.430,452.000=204.000,461.000=249.500;
#STOPS:;
#BGCHANGES:;
// cache tags:
#FIRSTBEAT:0.000;
#LASTBEAT:532.000;
#SONGFILENAME:Songs/SPEEEDCOOOORE/Mundian To Bach Speedcore - [Aoreo]/Mundian To Bach Speedcore.sm;
#HASMUSIC:1;
#HASBANNER:1;
#MUSICLENGTH:155.715;
// end cache tags

//---------------dance-single - S. Sanchez vs J. Ner----------------
#NOTES:
     dance-single:
     S. Sanchez vs J. Ner:
     Challenge:
     16:
     1.000,1.000,1.000,0.681,1.000,1139.000,185.000,106.000,99.000,2.000:

1000
0000
0010
0100
0000
0010
0100
0000
0001
1000
0000
0100
,
1000
0000
0100
0010
0000
0010
0001
0000
0100
0001
0000
0100
,
0010
0000
1000
0010
0000
0100
0001
0000
0001
0010
0000
0100
,
1000
0000
0100
1000
0000
0010
0100
0000
0001
0010
0000
0100
,
1000
0000
1000
0010
0000
0100
0010
0000
0100
0001
0000
0010
,
0100
0000
1000
0100
0000
1000
0010
0000
0100
0001
0000
0010
,
0100
0000
0100
1000
0000
0010
0100
0000
0010
0100
0000
0001
,
0010
0000
0010
0100
0000
0100
1000
0000
0010
0100
0000
0001
,
1000
0001
0100
0010
0100
0001
0010
0100
,
0010
0000
0001
0000
1000
0000
0100
0000
1000
0000
0010
0000
0100
0000
0001
1000
,
0001
0000
0000
0000
0000
0000
1000
0000
0000
0000
0000
0000
0100
0000
0000
0000
0000
0000
0010
0000
0000
0000
0000
0000
0001
0000
0000
0100
0000
0000
0001
0000
0000
0000
0000
0000
1000
0000
0000
0000
0000
0000
0010
0000
1000
0000
0010
0000
,
1000
0000
0010
0000
0100
0000
0001
0000
0010
0000
0100
0000
1000
0000
0001
1000
,
0001
1000
0010
0100
0001
0010
0100
1000
,
0001
0000
0100
0000
0010
0000
0100
0000
0001
0000
1000
0000
0100
0000
0010
0100
,
0010
0000
0001
0000
0100
0000
0010
0000
1000
0000
0001
0000
0010
0000
0100
0010
,
0100
0000
0000
1000
0000
0000
0100
0000
0000
0000
0000
0000
1000
0000
0000
0000
0000
0000
0001
0000
1000
0000
0001
0000
1000
0000
0000
0000
0000
0000
0001
0000
0000
0000
0000
0000
0100
0000
0000
0000
0000
0000
0001
0000
1000
0000
0001
0000
,
1000
0001
0010
0100
0110
0010
0001
0100
,
0101
0001
1000
0010
0110
0100
0001
0010
,
0110
0100
1000
0001
1001
1000
0100
1000
,
1010
0000
0000
0010
0000
0000
0100
0000
0000
0001
0000
0000
1001
0000
0000
1000
0000
0000
0001
1000
0001
1000
0001
1000
,
0001
1000
0001
0010
0110
0100
1000
0001
,
1001
0000
0000
0000
0000
0000
0000
0000
1000
0000
0000
0000
0000
0000
0000
0000
0010
0000
0000
0000
0000
0000
0000
0000
0100
0000
0000
0000
0000
0000
0000
0000
0101
0000
0000
0000
0000
0000
0000
0000
0001
0000
0000
0000
0000
0000
0000
0000
1002
0000
0000
0000
0000
0000
0000
0000
0000
0000
0000
0000
0000
0000
0000
0003
,
1001
1000
0010
0100
0110
0010
1000
0100
,
1100
0000
1000
0000
0100
0000
0010
0000
0011
0000
0001
0000
1000
0000
0001
0100
,
0010
0100
0110
0010
1010
1000
1001
0001
,
0011
0010
0110
0100
1100
1000
1001
0001
,
0101
0100
0110
0010
1001
1000
1100
0100
,
0110
0000
0000
0010
0000
0000
0011
0000
0000
0001
0000
0000
0101
0000
0000
0100
0000
0000
0001
0100
0001
0100
0001
0100
,
0001
0100
0101
0001
1001
1000
1010
0010
,
0101
0000
0000
0000
0000
0000
0000
0000
0100
0000
0000
0000
0000
0000
0000
0000
0110
0000
0000
0000
0000
0000
0000
0000
0010
0000
0000
0000
0000
0000
0000
0000
1010
0000
0000
0000
0000
0000
0000
0000
1000
0000
0000
0000
0000
0000
0000
0000
2001
0000
0000
0000
0000
0000
0000
0000
0000
0000
0000
0000
0000
0000
0000
3000
,
1001
0001
0011
0010
0110
0100
1100
1000
,
1010
0000
0000
0010
0000
0000
0110
0000
0000
0100
0000
0000
0010
0000
0000
0000
0100
0000
0001
0000
0000
0000
0010
0000
,
0100
0000
1000
0000
1100
0000
0100
1000
0001
0000
0100
0010
0100
0000
0010
0000
,
0110
0000
0100
0000
0001
0000
0001
0000
1000
0000
0100
0000
1000
0100
0010
0001
,
1000
0100
1000
0100
0010
0000
0001
0010
0001
0010
0100
1000
0001
0000
1000
0000
,
0100
0000
0000
0010
0000
0000
0001
0000
0000
0001
0000
0000
0100
0000
0000
0010
0000
0000
1000
0001
1000
0001
1000
0001
,
1000
0001
0101
0100
0110
0010
1010
1000
,
0101
0000
0000
0001
0000
0000
0110
0000
0000
0100
0000
0000
1010
0000
0000
0001
0000
0000
1000
0001
1000
0001
1000
0001
,
1000
0001
0011
1000
0110
0010
1001
1000
,
0101
0010
1010
1000
1001
0001
1001
1000
,
1001
0000
0001
0000
1000
0000
0010
1000
0100
0000
0010
0001
0010
0000
0100
0000
,
1000
0100
1000
0000
0001
0000
0001
0000
0100
0000
0010
0000
1000
0010
1000
0010
,
0100
0001
0100
0001
0010
0000
0100
0010
0100
0010
0001
1000
0001
0000
1000
0000
,
0010
0000
0000
1000
0000
0000
0010
0000
0000
0000
0000
0000
0100
0000
0000
0000
0000
0000
0100
0000
0000
0000
0000
0000
0001
0000
0000
0000
0000
0000
1000
0000
0000
0000
0000
0000
0001
0000
1000
0000
0001
0000
1000
0000
0001
0000
1000
0000
,
0001
0000
0000
0000
,
2002
0000
0000
3003
,
0101
0100
0010
1000
1001
0001
0010
0100
,
1000
0100
1000
0000
0010
0100
0010
0000
1000
0001
1000
0000
0001
0010
0100
0000
,
1100
1000
0010
0100
0101
0001
0010
0100
,
1100
0000
0000
1000
0000
0000
0001
0000
0000
0100
0000
0000
0101
0000
0000
0001
0000
0000
1000
0001
1000
0001
1000
0001
,
1000
0001
1000
0000
0001
0100
0001
0000
1000
0010
1000
0000
0010
0000
0100
0000
,
0110
0010
1000
0001
0011
0010
0100
1000
,
1100
0100
1000
0010
1010
1000
0001
0010
,
0110
0000
0100
0000
1000
0000
0001
0000
1001
0000
1000
0000
0001
0000
0100
0001
,
1000
0001
0101
0100
0110
0010
1010
1000
,
0001
1000
0001
0000
0100
0001
0100
0000
0010
1000
0010
0000
0110
0000
0100
0000
,
1001
0001
0101
0100
0110
0010
1010
1000
,
1001
0000
0000
0001
0000
0000
0011
0000
0000
0010
0000
0000
0110
0000
0000
0100
0000
0000
1000
0100
1000
0100
1000
0100
,
1000
0100
1000
0000
0001
1000
0001
0000
1000
0100
1000
0000
1100
0000
0100
0000
,
0011
0001
0101
0100
0110
0010
1010
1000
,
1001
0001
0101
0100
0110
0010
1001
1000
,
0001
0100
1000
0100
0001
0010
1000
0010
,
0001
0100
0001
0000
0101
0000
0100
0010
0100
0000
0010
1000
0001
0000
0001
0000
,
1000
0100
1000
0000
0010
0000
0100
0010
0100
0000
0001
0000
1000
0100
0010
0001
,
1000
0100
1000
0100
0010
0000
0100
1000
0100
1000
0001
0100
0001
0000
0100
0000
,
0010
0000
0000
0100
0000
0000
0010
0000
0000
0000
0000
0000
0100
0000
0000
0000
0000
0000
0100
0000
0000
0000
0000
0000
0001
0000
0000
0000
0000
0000
1000
0000
0000
0000
0000
0000
0100
0000
1000
0000
0100
0000
1000
0000
0100
0000
1000
0000
,
0100
0000
1000
0000
1010
0000
0010
0100
0010
0000
0100
0001
0100
0000
0001
0000
,
1000
0100
1000
0000
0010
0000
0010
0000
0100
0000
0001
0000
0010
0100
0010
0100
,
1000
0001
1000
0001
0100
0000
0010
0100
0010
0100
0001
1000
0001
0000
1000
0000
,
0100
0010
0100
0000
0010
0000
0001
0000
0010
0000
0010
0000
0100
0000
0100
0000
,
1000
0000
0100
1000
0100
0000
1000
0001
1000
0000
0001
0100
0010
0000
0100
0000
,
0001
1000
0001
0000
1000
0000
1000
0000
0100
0000
0010
0000
0001
0010
0100
0010
,
0001
0100
0001
0100
0010
0000
0100
0010
0100
0010
1000
0001
1000
0000
0100
0000
,
1000
0000
0000
0001
0000
0000
1000
0000
0000
0000
0000
0000
0001
0000
0000
0000
0000
0000
0001
0000
0000
0000
0000
0000
0100
0000
0000
0000
0000
0000
0010
0000
0000
0000
0000
0000
1000
0000
0001
0000
1000
0000
0001
0000
1000
0000
0001
0000
,
1000
0000
0000
0000
,
MMMM
0000
0000
000M
0000
0M00
0000
0000
00M0
M000
0000
0000
,
0101
0100
0010
1000
1010
0010
1000
0001
,
0010
0001
0010
0000
0001
0010
0100
0000
1000
0100
1000
0000
0010
1000
0010
0000
,
0110
0100
0001
1000
1001
0001
0010
0100
,
1100
0000
1000
0000
0001
0000
0100
0000
0101
0000
0001
0000
1000
0000
0010
1000
,
0001
0100
0001
0000
0010
0100
0010
0000
0100
1000
0100
0000
1000
0000
0001
0000
,
1001
1000
0010
0100
0110
0010
1000
0001
,
0101
0100
0001
0010
0110
0100
1000
0001
,
0101
0000
0000
0100
0000
0000
0010
0000
0000
1000
0000
0000
1010
0000
0000
0010
0000
0000
0100
0001
0100
0001
0100
0001
,
0100
0001
0101
0100
0110
0010
1010
1000
,
0001
1000
0001
0000
0010
0100
0010
0000
0100
1000
0100
0000
1100
0000
1000
0000
,
1010
0010
0101
0100
0110
0001
1001
1000
,
1100
0000
0000
0100
0000
0000
0110
0000
0000
0010
0000
0000
0011
0000
0000
0001
0000
0000
0100
0001
0100
0001
0100
0001
,
0100
0001
0100
0000
0001
1000
0001
0000
1000
0100
1000
0000
1001
0000
0001
0000
,
0101
0100
0110
0010
1010
1000
1001
0001
,
0011
0010
0110
0100
1100
1000
1010
0010
,
0101
0100
0110
0010
1000
0001
0010
0100
,
0000
0000
000M
00M0
,
M000
00M0
0M00
000M
,
0M00
00M0
M000
000M
,
0M00
0000
0000
000M
0000
M000
0000
00M0
0000
0M00
0000
0000
,
1000
0000
0010
0100
0000
0010
0100
0000
0001
1000
0000
0001
,
1000
0000
0100
0010
0000
0100
0010
0000
0001
0010
0000
0001
,
0100
0000
0010
0100
0000
0010
1000
0000
0001
1000
0000
0100
,
1000
0000
1000
0010
0000
0010
0100
0000
0100
0001
0000
1000
,
0022
0033
2200
3300
0022
0033
2200
3300
,
0022
0033
2200
3300
0022
0033
2200
3300
,
2002
3003
0202
0303
2020
3030
0202
0303
,
2020
3030
0202
0303
2020
3030
0101
0101
,
2020
3030
2002
3003
0022
0033
2200
3300
,
0022
0033
2200
3300
0022
0033
2200
3300
,
2002
3003
0202
0303
2020
3030
0202
0303
,
2222
3333
2020
3030
2222
3333
0202
0303
,
2002
3003
2200
3300
0022
0033
2200
3300
,
0022
0033
2200
3300
0022
0033
2200
3300
,
2002
3003
0202
0303
2020
3030
0202
0303
,
2020
3030
0202
0303
2020
3030
0101
0101
,
2002
0000
0000
0000
,
3003
0000
0000
0000
0000
0000
MMMM
0MM0
0MM0
0MM0
0MM0
0MM0
0MM0
0000
0000
0000
0000
0000
MMMM
M00M
M00M
MMMM
M00M
M00M
,
M00M
0000
0000
0000
0000
0000
0000
0000
0000
0000
0000
0000
0000
0000
0000
0000
0000
0000
0000
0000
0000
0000
0000
0000
0000
0000
0000
0000
0000
0000
0000
0000
0000
0000
0000
0000
0000
0000
0000
0000
0000
0000
0000
0000
0000
0000
0000
0000
M00M
0000
0000
0000
0000
0000
0000
0000
MM0M
0000
0000
0000
0000
0000
0000
0000
M00M
0000
0M00
0000
0000
0000
0000
0000
M00M
0000
0000
0000
0000
0000
00M0
0000
M00M
0000
0000
0000
0000
0000
0000
0000
M0MM
0000
0000
0000
0000
0000
0000
0000
M00M
0000
0000
0000
0000
0000
0000
0000
0000
0000
0000
0000
0000
0000
0000
0000
0000
0000
0000
0000
0000
0000
0000
0000
0000
0000
0000
0000
0000
0000
0000
0000
0000
0000
0000
0000
0000
0000
0000
0000
0000
0000
0000
0000
0000
0000
0000
0000
MMMM
0000
0000
0000
0000
0000
0000
0000
M000
0000
0000
0000
0000
0000
0000
0000
M000
0000
0000
0000
0000
0000
0000
0000
M000
0000
0000
0000
0000
0000
0000
0000
M0MM
0000
0000
0000
0000
0000
0000
0000
M00M
0000
0000
0000
0000
0000
0000
0000
,
MMMM
0000
0000
0000
1000
0100
1000
0100
0010
0001
0010
0001
1000
0100
1000
0001
,
1000
0001
1000
0010
0100
0010
0100
0001
1000
0001
4000
0000
3010
0100
0010
1000
,
0001
1000
0004
0000
1003
0010
1000
0010
0100
0001
0100
0001
1000
0010
1000
0001
,
0100
0001
0200
0000
0301
1000
0001
1000
0100
0010
0001
1000
0001
1000
0001
0010
,
0100
0000
0010
0000
0400
0300
0000
0000
1000
0000
0100
0000
1000
0000
0100
0000
0010
0000
0001
0000
0010
0000
0001
0000
1000
0000
0010
0000
1000
0000
0010
0000
,
0100
0001
0100
0001
1000
0010
0100
0010
0100
0001
1000
0001
0100
0010
0100
0001
,
1000
0000
0001
0000
4000
3000
0000
0000
0010
0000
1000
0000
0010
0000
1000
0000
0001
0000
0100
0000
0001
0000
0100
0000
0010
0000
1000
0000
0010
0000
0100
0000
,
0001
0100
0002
0000
1003
0100
1000
0100
0010
0100
0010
0001
0010
0001
1000
0001
,
2000
0000
0000
0000
3001
0100
0001
0100
0010
1000
0010
1000
0001
0100
0010
0100
,
0001
1000
0001
1000
0100
1000
0100
0010
0001
0010
0004
0000
1003
0100
1000
0100
,
0010
0001
4000
0000
3010
0100
0010
0100
0001
1000
0001
1000
0010
0100
0010
1000
,
0001
1000
0002
0003
0010
0001
0010
0001
1000
0100
1000
0100
0010
0001
0010
0001
,
1000
0100
4000
0000
3001
0100
0001
0100
0010
1000
0010
1000
0001
0010
0001
1000
,
0100
1000
0100
0010
0001
0010
0001
1000
0010
1000
0001
0100
0001
0100
0010
1000
,
0001
1000
0004
0000
1003
0010
1000
0001
0100
0001
1000
0001
4000
0004
0000
0000
,
0000
0000
0000
0000
,
0000
0000
0000
0000
,
0000
0000
0MM0
0000
0000
0000
0MM0
0000
0000
0000
0000
0MM0
0000
0000
0000
0000
,
3MM3
0000
0000
0000
;
