#TITLE:Cyber Induction;
#SUBTITLE:cxt!;
#ARTIST:Sharpnel Sounds;
#TITLETRANSLIT:;
#SUBTITLETRANSLIT:;
#ARTISTTRANSLIT:;
#CREDIT:cxt!;
#BANNER:Bn-Cyber.png;
#BACKGROUND:Bg-Cyber.png;
#LYRICSPATH:;
#CDTITLE:cxt.png;
#MUSIC:09 - CYBER INDUCTION - SHARPNEL SOUNDS.ogg;
#OFFSET:-0.480;
#SAMPLESTART:19.000;
#SAMPLELENGTH:22.000;
#SELECTABLE:YES;
#DISPLAYBPM:191.020;
#BPMS:0.000=191.020,324.000=95.510,364.000=47.755,366.000=95.510,368.000=191.020,433.000=95.510,435.000=191.020,719.000=95.510,721.000=191.020,864.000=95.510;
#STOPS:366.000=0.157
,366.250=0.157
,366.500=0.157
,366.750=0.157
,367.000=0.157
,367.250=0.157
,433.000=1.257
;
#BGCHANGES:;
// cache tags:
#FIRSTBEAT:4.000;
#LASTBEAT:868.750;
#SONGFILENAME:Songs/Definitive Keyboard Megapack/Cyber Induction (cxt!)/Cyber Induction.sm;
#HASMUSIC:1;
#HASBANNER:1;
#MUSICLENGTH:294.974;
// end cache tags

//---------------dance-single - cxt!----------------
#NOTES:
     dance-single:
     cxt!:
     Challenge:
     14:
     1.000,1.000,0.610,0.509,0.576,1897.000,180.000,150.000,81.000,18.000:
0000
0000
0000
0000
,
0012
0000
0000
1003
0100
0000
0020
0000
0000
0000
0031
0000
0100
0000
0010
0000
,
0210
0000
0000
0301
1000
0000
0200
0000
0000
0000
1300
0000
0001
0000
0010
0000
,
0012
0000
0000
1003
0010
0000
0200
0000
0000
0000
0301
0000
0100
0000
0001
0000
,
2001
0000
0000
3001
0010
0000
0011
0000
0001
1000
0010
0000
2M21
0000
3030
0000
,
1002
0000
0000
1003
0100
0000
0020
0000
0000
0000
0031
0000
1000
0000
0100
0000
,
2100
0000
0000
3001
0100
0000
0020
0000
0000
0000
0130
0000
0001
0000
0010
0000
,
0210
0000
0000
1300
0100
0000
2000
0000
0000
0000
3001
0000
0010
0000
0100
0000
,
0120
0000
0000
0031
1000
0000
1001
0000
0001
0010
0100
0000
M122
0000
0033
0000
,
0021
0000
0000
0130
1000
0000
0002
0000
0000
0000
0103
0000
0010
0000
0100
0000
,
0201
0000
0000
0310
1000
0000
0002
0000
0000
0000
1003
0000
0100
0000
0010
0000
,
0120
0000
0000
0130
1000
0000
0200
0000
0000
0000
0310
0000
0001
0000
1000
0000
,
1002
0000
0000
0103
0010
0000
1010
0000
1000
0100
0010
0000
221M
0000
3300
0000
,
1200
0000
0000
0310
0001
0000
2000
0000
0000
0000
3001
0000
0100
0000
0010
0000
,
0210
0000
0000
0301
1000
0000
0001
0000
0020
0000
0130
0000
0020
0000
0130
0000
,
0010
0001
1000
0010
1000
0001
0100
0010
1000
0100
0010
0001
0010
0100
0010
0001
,
0000
0000
0000
0000
0000
0000
3003
0000
1000
0001
0100
0000
M212
0000
0303
0000
,
0110
0000
0010
1000
M000
1000
0001
0000
1000
0000
0100
0000
0100
0000
1000
0000
,
1100
0000
0100
0010
00M0
0010
0001
0000
0100
0000
1000
0000
0100
0000
0001
0000
,
0101
0000
0100
0010
00M0
0010
1000
0000
0001
0000
0010
0000
0010
0000
0001
0000
,
0011
0000
0010
0100
0M00
0100
1000
0000
0010
0100
0001
0000
M2M2
0000
0000
0303
,
1001
0000
1000
0100
0M00
0100
0010
0000
0001
0000
1000
0000
1000
0000
0001
0000
,
0101
0000
0100
0001
000M
0001
0010
0000
0100
0000
0001
0000
0100
0000
1000
0000
,
1100
0000
0100
0010
00M0
0010
0001
0000
0100
0000
0020
0000
0000
0000
0130
0000
,
0101
0000
0001
1000
M000
1000
0100
0000
1000
0100
0010
0000
MM22
0000
0000
0033
,
1001
0000
1000
0010
00M0
0010
0100
0000
0100
0001
1000
0000
0100
0000
0010
0000
,
0011
0000
0001
1000
M000
1000
0100
0000
0100
0010
0001
0000
0200
0000
0000
0300
,
0101
0000
0001
1000
M000
1000
0010
0000
0010
1000
0100
0000
0010
0000
0001
0000
,
1001
0000
1000
0010
00M0
0010
0100
0000
0010
1000
1001
0000
2001
0000
0000
3000
,
1100
0000
0100
0010
00M0
0010
0001
0000
0001
1000
0100
0000
0010
0000
0001
0000
,
1001
0000
1000
0010
00M0
0010
0100
0000
0001
0000
1000
0000
0200
0000
0000
0300
,
1100
0000
1000
0001
000M
0001
0100
0000
0001
1000
0100
0010
0001
0010
0001
1000
,
0000
0000
0000
0000
0000
0000
0330
0000
0010
1000
0001
0000
2M21
0000
3030
0000
,
0001
1000
0100
0001
0100
0010
0001
1000
,
0010
0100
1000
0100
0001
1000
0100
0010
,
0100
0001
0100
1000
0010
0100
0001
1000
,
0100
0000
0001
0000
0100
0000
0010
0000
0001
1000
0010
0000
2021
0000
3030
0000
,
0001
1000
0100
0001
0100
1000
0001
0100
,
0010
0100
0010
0001
0010
1000
0001
1000
,
0100
0010
0100
0001
0100
1000
0010
0100
,
0001
0000
0100
0000
1000
0000
0100
0001
1000
0100
1000
0000
2200
0000
3300
0000
,
0100
0010
1000
0010
0001
1000
0010
0100
,
0010
1000
0010
0001
0010
0100
0001
1000
,
0100
0010
0100
0001
0100
1000
0001
0100
,
0001
0000
0100
0000
1000
0000
0100
0000
0001
1000
0100
0000
1220
0000
0330
0000
,
0010
0001
0010
1000
0010
0001
1000
0010
,
1000
0100
0001
0100
1000
0001
0100
0010
,
0100
0000
0001
0000
0100
0000
1000
0000
0100
0010
1000
0001
1000
0100
0010
0001
,
0000
0000
0000
0000
0000
0000
3003
0000
1000
0001
0100
0000
0212
0000
0303
0000
,
0101
0001
1000
0100
MM0M
0010
0001
1000
,
1001
0001
0100
0010
M0MM
0100
0001
1000
,
1100
0100
0010
0100
0MMM
1000
0001
0100
,
0001
0000
0001
0100
0001
0000
0001
0100
0001
1000
0010
0000
2M21
0000
3030
0000
,
1010
1000
0100
0010
MMM0
0001
1000
0010
,
0110
0100
0001
0010
M0MM
0100
1000
0001
,
0101
0100
0010
0100
MMM0
0001
1000
0100
,
1000
0000
1000
0100
1000
0000
1000
0100
1000
0010
1000
0000
122M
0000
0330
0000
,
0110
0100
1000
0100
0001
1000
0100
0010
,
0011
0010
1000
0010
0001
1000
0010
0100
,
0101
0100
1000
0100
0001
1000
0100
0010
,
MM0M
0000
0010
0000
0011
0000
1001
0000
1000
0010
0100
0000
0221
0000
0330
0000
,
0101
0100
0001
1000
0MMM
1000
0100
0010
,
0011
0001
1000
0100
MM0M
0010
0001
1000
,
1001
0001
0010
0100
0MMM
1000
0100
0010
,
0001
1000
0100
1000
0001
0100
0010
0100
0000
0000
0000
0000
0000
0000
3003
0000
,
0011
0000
0010
0000
0100
0000
1000
0100
1000
0001
0100
0010
1000
0000
0001
0000
,
0101
0000
0100
0000
0010
0000
1000
0100
1000
0001
0010
0100
1000
0000
0001
0000
,
0011
0000
0010
0000
0001
0000
1000
0010
0100
0010
1000
0001
0010
0000
0001
0000
,
0101
0000
0100
0000
0101
0000
1001
0000
1000
0100
0010
0000
0022
0000
0033
0000
,
1001
0000
1000
0000
0100
0000
0010
0001
1000
0010
0100
0001
0010
0000
0100
0000
,
1100
0000
1000
0000
0001
0000
0100
0010
0100
0001
0100
0010
1000
0000
0001
0000
,
1001
0000
1000
0000
0100
0000
0010
0001
1000
0001
0100
0010
0100
0000
0001
0000
,
0011
0000
0010
0000
0110
0000
1100
0000
1000
0001
0100
0000
0202
0000
0303
0000
,
0011
0000
0010
0000
0100
0000
1000
0001
0010
0100
1000
0001
1000
0000
0010
0000
,
0110
0000
0100
0000
0001
0000
1000
0100
0010
0001
0010
0100
1000
0000
0100
0000
,
0110
0000
0010
0000
0001
0000
1000
0010
0100
0010
0100
0001
1000
0000
0001
0000
,
0011
0000
0010
0000
0110
0000
0011
0000
0001
1000
0010
0000
1010
0000
1000
0000
,
1001
0000
0000
0001
0010
0100
1000
0000
1001
0000
0000
0001
1000
0010
0100
0000
,
0101
0000
0000
0001
1000
0100
0010
0000
0001
1000
0100
0000
0010
0000
0001
0000
,
1000
0010
0100
0001
1000
0001
0010
0001
0100
0010
1000
0001
0010
0100
1000
0100
,
0000
0000
0000
0000
0033
0000
0011
0000
0001
1000
0010
0000
2M22
0000
3033
0000
,
1111
0000
0000
0000
0000
0000
0000
0000
0000
0000
0000
0000
0000
0000
0000
0000
0000
0000
0000
0000
0000
0000
0000
0000
0M00
0000
0000
0000
0000
0000
0000
0000
0000
0000
0000
0000
0000
0000
0000
0000
000M
0000
0000
0000
0000
0000
0000
0000
0000
0000
0000
0000
0000
0000
0000
0000
0000
0000
0000
0000
0000
0000
0000
0000
M000
0000
0000
0000
0000
0000
0000
0000
0000
0000
0000
0000
0000
0000
0000
0000
0000
0000
0000
0000
00M0
0000
0000
0000
0000
0000
0000
0000
0000
0000
0000
0000
0M00
0000
0000
0000
0000
0000
0000
0000
0000
0000
0000
0000
0000
0000
0000
0000
0000
0000
000M
0000
0000
0000
0000
0000
0000
0000
0000
0000
0000
0000
0000
0000
0000
0000
0000
0000
M000
0000
0000
0000
0000
0000
0000
0000
0000
0000
0000
0000
0000
0000
0000
0000
00M0
0000
0000
0000
0000
0000
0000
0000
0000
0000
0000
0000
0000
0000
0000
0000
0000
0000
0000
0000
M000
0000
0000
0000
0000
0000
0000
0000
00M0
0000
0000
0000
0000
0000
0000
0000
0000
0000
0000
0000
0000
0000
0000
0000
,
0001
0100
0010
1000
0100
0010
0100
1000
0001
0010
0001
1000
0010
0100
0001
1000
,
0100
0010
0001
1000
0010
0100
0010
0100
0001
1000
0100
0010
0001
1000
0100
0010
,
0001
1000
0010
0100
0001
1000
0100
0010
0100
1000
0001
0100
0010
1000
0001
0010
,
0011
0001
0100
0010
0100
1000
0100
0001
1000
0100
0010
0100
0001
0100
1000
0001
,
0100
0010
0100
0010
0001
0010
1000
0001
0010
0100
0010
1000
0010
0001
0100
0010
,
1000
0100
0001
0100
0010
0001
0100
1000
0100
0010
0001
0010
1000
0001
0010
0100
,
0001
0100
1000
0010
0001
0010
0100
0001
0100
1000
0100
0001
1000
0100
0001
0100
,
1100
1000
0001
0100
0100
0010
0100
0100
0001
1000
0001
0010
0010
0100
0010
0010
,
0001
0100
0010
0100
0100
0001
0100
0100
0010
1000
0001
0100
0010
1000
0100
0001
,
M000
0000
0000
0000
0M00
0000
0000
0000
0000
0000
0000
0000
000M
0000
00M0
0000
0000
0000
0000
0000
M000
0000
0000
0000
0000
0000
0000
0000
00M0
0000
0000
0000
0000
0M00
0000
0000
0000
0000
000M
0000
M000
0000
0000
0000
00M0
0000
0000
0000
,
1000
0100
0010
0001
2000
0000
3001
0000
0100
0000
0020
0000
0130
0000
0002
0000
,
0103
0002
0023
0130
1000
0200
0310
0002
,
0013
0200
2300
3001
0100
0020
1030
0002
,
1003
0200
0320
0031
1000
0200
0310
0002
,
0013
0200
2300
3001
0100
0020
0130
0002
,
0103
0020
2030
3100
0010
0002
1003
0020
,
1030
0002
0023
0130
1000
0200
0310
0002
,
0013
0200
2300
3002
0203
0320
0130
0002
,
1003
0020
1031
1000
0001
0200
1300
0200
,
0301
2000
3020
1030
0001
0020
0130
0002
,
0103
2000
3020
0130
0001
0020
0130
2000
,
3100
0020
2030
3010
0100
0020
0031
2000
,
3010
2000
3002
0103
1000
0200
0301
2000
,
3100
0020
0032
1003
0010
0002
0013
2000
,
3001
0020
0230
1300
0100
0002
0103
2000
,
3001
0000
0200
0000
0310
1000
0001
0010
0001
1000
0010
0100
0001
1000
0100
0010
,
0100
1000
0001
0100
0101
0000
0000
0000
0000
0000
0000
0000
0001
0000
0001
0000
,
1000
0001
0001
0010
0001
0010
0100
0100
,
0010
0100
0100
1000
0100
1000
0010
0010
,
0100
0010
0010
1000
0010
1000
0001
0001
,
0010
0000
0011
0000
0001
1000
0100
0000
1100
0000
1000
0000
0010
0000
0010
0000
,
0100
0010
0010
1000
0010
1000
0001
0001
,
0100
0001
0001
0010
0001
0010
0100
0100
,
1000
0100
0100
0010
0100
0010
0001
0001
,
1000
0000
1001
0000
0001
0100
0010
0000
0110
0000
0100
0000
0010
0000
0010
0000
,
1000
0010
0010
0100
0010
0100
0001
0001
,
1000
0001
0001
0100
0001
0100
0010
0010
,
1000
0010
0010
0100
0010
0100
0001
0001
,
0100
0000
0101
0000
0001
1000
0100
0000
1100
0000
1000
0000
0100
0000
0100
0000
,
0010
0100
0100
1000
0100
1000
0001
0001
,
0010
0001
0001
1000
0001
1000
0100
0100
,
1000
0000
0100
0000
0100
0000
0010
0000
0100
0000
0010
0000
0001
1000
0100
0010
,
0001
1000
0001
0000
1000
0100
0010
0000
0011
0000
0001
0000
1000
0000
1000
0000
,
0010
1000
1000
0001
1000
0001
0010
0010
,
0100
0010
0010
0001
0010
0001
0100
0100
,
0010
0100
0100
0001
0100
0001
1000
1000
,
0100
0000
1100
0000
1000
0100
0010
0000
0110
0000
0100
0000
1000
0000
1000
0000
,
0010
1000
1000
0001
1000
0001
0100
0100
,
0001
0100
0100
0010
0100
0010
1000
1000
,
0001
1000
1000
0100
1000
0100
0010
0010
,
0001
0000
1001
0000
1000
0010
0100
0000
0101
0000
0001
0000
0100
0000
0100
0000
,
0001
0100
0100
0010
0100
0010
1000
1000
,
0001
1000
1000
0010
1000
0010
0100
0100
,
0001
0100
0100
0010
0100
0010
1000
1000
,
0010
0000
1010
0000
1000
0001
0010
0000
0011
0000
0001
0000
0010
0000
0010
0000
,
0100
0010
0010
0001
0010
0001
1000
1000
,
0100
1000
1000
0001
1000
0001
0010
0010
,
0001
0010
0010
0100
0010
0100
1000
0001
,
0001
0000
0101
0000
0100
0001
1000
0000
1100
0000
0100
0000
0110
0000
0010
0000
,
0001
0100
1000
0100
0010
1000
0001
0010
,
0100
0010
1000
0010
0001
0100
0010
1000
,
0001
0010
0100
1000
0100
0001
0100
1000
,
1001
0000
0101
0000
0100
0010
1000
0000
2002
0000
3003
0000
1000
0000
0001
0000
,
0101
0100
0010
1000
1001
0001
0010
0100
,
1100
0000
1000
0000
0100
0000
0010
0000
0011
0000
0001
0000
1000
0010
0100
0001
,
0010
0001
1000
0010
0100
0001
0010
0001
1000
0100
0010
0001
1001
0000
1001
0000
,
0101
0000
0110
0000
1010
0000
1001
0000
0011
0000
1001
0000
1010
0000
0010
1000
,
0000
1000
0001
0000
1000
0000
0100
0000
0100
0000
1000
0000
1100
0000
0100
0010
,
0000
0010
0001
0000
0100
0000
1000
0000
0100
0000
0001
0000
0101
0000
0100
0010
,
0000
0010
1000
0000
0001
0000
0010
0000
0010
0000
0001
0000
0011
0000
0010
0100
,
0000
0100
1000
0000
0010
0100
0001
0000
M2M2
0000
0000
0303
1001
0000
1000
0100
,
0000
0100
0010
0000
0001
0000
1000
0000
1000
0000
0001
0000
0101
0000
0100
0001
,
0000
0001
0010
0000
0100
0000
0001
0000
0100
0000
1000
0000
1100
0000
0100
0010
,
0000
0010
0001
0000
0100
0000
0020
0000
0000
0000
0130
0000
0101
0000
0001
1000
,
0000
1000
0100
0000
1000
0100
0010
0000
MM22
0000
0000
0033
1001
0000
1000
0010
,
0000
0010
0100
0000
0100
0001
1000
0000
0100
0000
0010
0000
0011
0000
0001
1000
,
0000
1000
0100
0000
0100
0010
0001
0000
0200
0000
0000
0300
0101
0000
0001
1000
,
0000
1000
0010
0000
0010
1000
0100
0000
0010
0000
0001
0000
1001
0000
1000
0010
,
0000
0010
0100
0000
0010
1000
1001
0000
2001
0000
0000
3000
1100
0000
0100
0010
,
0000
0010
0001
0000
0001
1000
0100
0000
0010
0000
0001
0000
1001
0000
1000
0010
,
0000
0010
0100
0000
0001
0000
1000
0000
0200
0000
0310
0000
0001
0010
0001
1000
,
0010
0100
0001
0100
0010
1000
0001
0010
0100
0010
0001
1000
0000
0000
0000
0000
,
0000
0000
0303
0000
0001
1000
0100
0000
2200
0000
3300
0000
1000
0000
0001
0000
,
0010
1000
0010
0100
1000
0001
0100
0010
,
0001
0010
1000
0001
0010
0100
0010
1000
,
0010
0001
0100
0010
1000
0001
0010
1000
,
0010
0000
0100
0000
1000
0001
0100
0000
1202
0000
0303
0000
1000
0000
0001
0000
,
0010
1000
0010
0001
1000
0010
0100
0010
,
0100
1000
0100
0001
1000
0001
0010
0100
,
0010
1000
0010
0001
0100
0010
1000
0010
,
0001
0000
0010
1000
0001
0010
0001
0000
0022
0000
0033
0000
0010
0000
0100
0000
,
0001
0100
1000
0001
0100
0010
0100
0001
,
0100
1000
0100
0010
1000
0001
0010
0100
,
0010
1000
0010
0001
1000
0010
1000
0010
,
0001
0000
0010
0000
1000
0001
0010
0000
0221
0000
0330
0000
0100
0000
1000
0000
,
0100
0001
0100
1000
0001
0100
0001
0010
,
1000
0010
0001
1000
0010
0100
0010
1000
,
0010
1000
0001
0010
0100
1000
0001
1000
0001
0010
0100
1000
0000
0000
0000
0000
,
0000
0000
0001
1000
0100
0001
0100
0010
,
0001
1000
0010
0100
1000
0100
0001
1000
,
0100
0010
0100
0001
0100
1000
0010
0100
,
0001
0000
1000
0000
0100
0000
0001
0000
0100
0000
0010
0000
0001
1000
0010
0000
,
2021
3030
0001
1000
0100
0001
0100
1000
,
0001
0100
0010
0100
0010
0001
0010
1000
,
0001
1000
0100
0010
0100
0001
0100
1000
,
0010
0000
0100
0000
0001
0000
0100
0000
1000
0000
0100
0001
1000
0100
1000
0000
,
2200
3300
0100
0010
1000
0010
0001
1000
,
0010
0100
0010
1000
0010
0001
0010
0100
,
0001
1000
0100
0010
0100
0001
0100
1000
,
0001
0000
0100
0000
0001
0000
0100
0000
1000
0000
0100
0000
0001
1000
0100
0000
,
1220
0330
0010
0001
0010
1000
0010
0001
,
1000
0010
1000
0100
0001
0100
1000
0001
,
0100
0010
0100
0001
0100
1000
1100
0100
,
0001
0000
1000
0000
0100
0010
0001
1000
0001
0100
0010
1000
0100
0010
0001
1000
,
0100
0010
0001
0010
0001
0000
0001
0000
1000
0000
0001
0000
0001
0000
0010
0000
,
0001
0010
0100
0100
0010
0100
0100
1000
,
0100
1000
0010
0010
0100
0010
0010
1000
,
0010
0000
1000
0000
0001
0000
0001
0000
0010
0000
0011
0000
0001
1000
0100
0000
,
1100
1000
0010
0010
0100
0010
0010
1000
,
0010
1000
0001
0001
0100
0001
0001
0010
,
0001
0010
0100
0100
1000
0100
0100
0010
,
0100
0000
0010
0000
0001
0000
0001
0000
1000
0000
1001
0000
0001
0100
0010
0000
,
0110
0100
0010
0010
1000
0010
0010
0100
,
0010
0100
0001
0001
1000
0001
0001
0100
,
0001
0100
0010
0010
1000
0010
0010
0100
,
0010
0000
0100
0000
0001
0000
0001
0000
0100
0000
0101
0000
0001
1000
0100
0000
,
1100
1000
0100
0100
0010
0100
0100
1000
,
0100
1000
0001
0001
0010
0001
0001
1000
,
0001
1000
0100
0100
1000
0100
0100
0010
,
0100
0000
0010
0000
0001
1000
0100
0010
0001
1000
0001
0000
1000
0100
0010
0000
,
0011
0000
1001
1010
1001
0101
0110
1010
,
0011
0110
0011
0101
0110
1010
1001
0011
,
0110
0000
0011
0000
0001
0010
0100
1000
0001
0100
0010
1000
0010
1000
0001
0100
,
0001
1000
0100
0010
0001
0010
0001
0100
0010
0100
0001
1000
0000
0000
0000
0000
,
0000
0000
0000
0000
0000
0330
0000
0000
0000
0000
0000
0000
0000
0000
0000
0000
0000
0000
0000
0000
0000
0000
0000
0000
,
0000
0000
0000
0000
0000
0000
0001
0010
0100
1000
0000
0000
0000
0000
0000
0000
0000
0000
0000
0000
0000
0000
0000
0000
0000
0000
0000
0000
0000
0000
0000
0000
0000
0000
0000
0000
0000
0000
0000
0000
0000
0000
0000
0000
0000
0000
0000
0000
;
