#TITLE:SEÑORITA;
#SUBTITLE:~Speedy Mix~;
#ARTIST:Jenny Rom;
#TITLETRANSLIT:;
#SUBTITLETRANSLIT:;
#ARTISTTRANSLIT:;
#CREDIT:;
#BANNER:;
#BACKGROUND:;
#LYRICSPATH:;
#CDTITLE:;
#MUSIC:Jenny Rom - Senorita.ogg;
#OFFSET:-0.035;
#SAMPLESTART:11.724;
#SAMPLELENGTH:15.863;
#SELECTABLE:YES;
#BPMS:0.000=174.000,240.000=87.000,256.000=174.000,319.500=87.000,325.500=174.000;
#STOPS:;
#BGCHANGES:;
// cache tags:
#FIRSTBEAT:34.000;
#LASTBEAT:394.000;
#SONGFILENAME:Songs/lvsb tourney pack/Senorita ~Speedy Mix~/senorita.sm;
#HASMUSIC:1;
#HASBANNER:0;
#MUSICLENGTH:105.000;
// end cache tags

//---------------dance-single - ----------------
#NOTES:
     dance-single:
     :
     Hard:
     9:
     1.000,1.000,0.352,0.705,0.476,635.000,37.000,74.000,0.000,0.000:


0000
0000
0000
0000
,
0000
0000
0000
0000
,
0000
0000
0000
0000
,
0000
0000
0000
0000
,
0000
0000
0000
0000
,
0000
0000
0000
0000
,
0000
0000
0000
0000
,
0000
0000
0000
0000
,
0000
0000
0000
0000
0010
0100
0001
2000
,
0000
3000
1000
0000
0100
1000
0000
0002
,
0000
0003
0001
0000
0100
0001
0010
0002
,
0003
0001
1000
0010
1000
0100
1001
1001
,
0010
0000
0010
0000
1000
0100
1000
0100
1000
0000
1000
0000
0001
0100
0001
0100
,
0001
0000
0001
0000
0010
0000
0010
0100
0000
0000
0100
0000
0100
0000
0100
0000
,
0010
0000
0010
0000
1000
0001
1000
0001
1000
0000
1000
0000
0001
0010
0001
0010
,
0100
0000
0100
0000
1000
0000
1000
0010
0000
0000
0010
0000
0010
0000
0010
0000
,
0100
0000
0100
0000
0001
0010
0001
0010
0100
0000
0100
0000
1000
0010
1000
0010
,
1000
0000
1000
0000
0001
0000
0001
0100
0000
0000
0010
0000
1000
0000
0001
0000
,
1000
0000
1000
0000
0010
0100
0010
0100
0001
0000
0001
0000
0010
0100
0010
0100
,
1000
0000
1000
0000
0010
0000
0010
0100
0000
0000
0100
0000
0001
0000
0001
0000
,
2000
0000
0000
0002
0000
0000
3003
0010
,
0000
0010
0100
1000
0001
0100
0010
0100
,
0002
0000
0000
2000
0000
0000
3003
0001
,
0000
0001
1000
0010
0001
1000
0100
0001
,
0020
0000
0000
0200
0000
0000
0330
0010
,
0000
0010
1000
1000
0001
0001
0100
1000
,
0100
1000
0100
0001
0100
0001
0010
0001
,
0010
0001
1000
0010
1000
0010
0000
0000
,
2200
0000
3300
2200
0000
0000
3300
0001
,
0000
0001
0010
0010
0100
0100
1000
1000
,
0202
0000
0303
0202
0000
0000
0303
1000
,
0000
1000
0100
0100
0010
0010
0001
0001
,
0220
0000
0330
0220
0000
0000
0330
1010
,
0000
1000
0010
0010
0100
0100
0002
1000
,
1000
1003
2000
0010
0010
3010
0020
0100
,
0100
0130
0200
0001
0001
0002
0303
0100
,
0001
0000
0001
0100
0001
0000
1000
0100
,
1000
1000
0100
1000
0000
0000
0000
0100
,
0010
0010
0000
0010
0000
0000
0000
1000
,
0001
0001
0000
1000
0000
0000
0000
0100
,
0010
0000
0001
1000
0001
0000
0010
0100
,
0010
1000
0010
0001
0000
0000
0000
0000
,
1000
0000
0010
0000
0001
0000
0100
0000
1000
0000
0010
0000
,
0002
0000
0003
0000
0010
0100
0001
2000
,
0000
3000
1000
0000
0100
1000
0000
0002
,
0000
0003
0001
0000
0100
0001
0000
0020
,
0000
0030
0010
0000
0100
1000
0001
0010
,
0000
0010
1000
1000
0001
0100
0001
2000
,
0000
0000
3100
0000
0010
0010
0000
0002
,
0000
0000
0103
0000
0010
0010
0000
0020
,
0000
0030
0110
0000
1000
0100
0001
0100
,
0000
0100
1000
1000
0001
0001
1001
1001
,
0100
0000
0100
0000
1000
0010
1000
0010
0100
0000
0100
0000
0001
0010
0001
0010
,
0100
0000
0200
0000
1000
0000
1300
0001
0000
0000
0001
0000
0001
0000
0001
0000
,
1000
0000
1000
0000
0010
0100
0010
0100
0001
0000
0001
0000
0010
0100
0010
0100
,
0010
0000
0020
0000
0001
0000
0031
1000
0000
0000
1000
0000
1000
0000
1000
0000
,
0010
0000
0010
0000
1000
0100
1000
0100
1000
0000
1000
0000
0001
0100
0001
0100
,
0001
0000
0001
0000
0010
0000
0010
0100
0000
0000
0100
0000
0100
0000
0100
0000
,
0010
0000
0010
0000
1000
0001
1000
0001
1000
0000
1000
0000
0001
0010
0001
0010
,
0100
0000
0100
0000
1000
0000
1000
0010
0000
0000
0010
0000
0010
0000
0010
0000
,
0200
0000
0000
0002
0000
0000
0303
1000
0000
1000
0010
0100
0001
0010
0100
1000
,
0020
0000
0000
0002
0000
0000
0033
0010
0000
0010
1000
0001
0100
0001
1000
0010
,
0200
0000
0000
2000
0000
0000
3300
0100
0000
0100
0001
1000
0010
0100
0001
0010
,
0100
1000
0001
0010
0001
1000
0100
1000
0001
0010
0001
1000
0100
1000
0000
0000
,
2002
0000
3003
2002
0000
0000
3003
1010
,
0000
1000
0010
0010
0100
0100
0001
0001
,
0202
0000
0303
0202
0000
0000
0303
0001
,
0000
0001
0100
0100
0010
0010
1000
1000
,
2200
0000
3300
2200
0000
0000
3300
1000
,
0000
0100
0010
0001
0010
0100
1000
0010
,
0100
0001
0100
0010
1000
0100
0001
0100
,
1000
0010
1000
0100
0001
0100
0000
0100
,
1000
1000
0001
0100
0001
0001
1000
0100
,
0010
0010
0100
0010
0000
0000
0000
1000
,
0001
0200
0300
0200
0000
0300
0000
0001
,
1000
0200
0300
0200
0000
0300
0000
0020
,
0002
0033
0011
0020
2000
3030
1010
1000
,
0001
0001
1000
0010
0000
0000
0000
0000
,
0011
0000
1001
0000
0101
0000
0110
0000
1100
0000
1001
0000
,
2020
0000
3030
0000
0010
0001
0100
0002
,
0000
1003
0000
0010
0100
0000
0002
0000
0000
1003
0000
0010
0100
0000
0002
0000
,
0000
1003
0000
0010
0100
0010
1001
0000
0000
0000
1000
0000
0001
0000
0001
0000
,
1000
1000
0010
0010
0100
0001
0010
0001
,
0100
0010
1000
0100
1000
0010
0100
0001
,
1000
0100
0010
0100
1000
0001
0100
0001
,
0010
0100
1000
0010
0100
0001
0010
0100
,
0010
1000
0010
2020
0000
3030
0011
0000
,
0200
0310
0000
2200
0000
3300
0101
0000
,
2000
3001
0000
0220
0000
0330
0110
0000
,
0001
1000
0100
0001
0000
0001
0100
0100
,
1000
0000
1000
0000
1001
0000
1001
0000
0100
0000
0100
0000
0001
1000
0010
1000
,
0001
0000
0001
0000
1000
0100
1000
0001
0010
0000
0001
0000
1000
0000
0100
0000
,
1000
0000
0010
0000
0100
0000
0001
0000
0010
0000
0010
0000
0100
1000
0001
1000
,
0010
0000
0010
0000
0100
0001
1000
0001
0100
0000
0010
0000
1000
0000
0100
0000
,
1000
0000
0010
0000
0100
0000
0001
0000
1000
0000
1000
0000
0010
1000
0010
1000
,
0100
0000
0100
0000
0010
0001
0010
0001
0100
0000
0001
0000
1000
0000
0010
1000
,
0000
0000
1000
0000
0001
0000
0010
0001
0100
0000
0100
0000
0001
0010
0001
0010
,
0100
0000
0100
0000
1000
0010
1000
0010
0100
0000
0010
0000
1000
0000
0001
0100
,
0000
0000
0100
0000
0001
0000
1000
0010
0100
0000
0000
0000
0000
0000
0000
0000
;
