#TITLE:Power of the Dragonflame;
#SUBTITLE:;
#ARTIST:Rhapsody;
#TITLETRANSLIT:;
#SUBTITLETRANSLIT:;
#ARTISTTRANSLIT:;
#CREDIT:Arvin;
#BANNER:../bn-Rhapsody.png;
#BACKGROUND:../Rhapsody-bg.png;
#LYRICSPATH:;
#CDTITLE:;
#MUSIC:03 - Rhapsody - Power Of The Dragonflame.ogg;
#OFFSET:0.086;
#SAMPLESTART:33.293;
#SAMPLELENGTH:12.000;
#SELECTABLE:YES;
#BPMS:0.000=190.000;
#STOPS:;
#BGCHANGES:;
// cache tags:
#FIRSTBEAT:2.000;
#LASTBEAT:824.000;
#SONGFILENAME:Songs/Rhapsody of Fire/Power of the Dragonflame - [Arvin]/dragonflame.sm;
#HASMUSIC:1;
#HASBANNER:1;
#MUSICLENGTH:267.728;
// end cache tags

//---------------dance-single - ----------------
#NOTES:
     dance-single:
     :
     Challenge:
     16:
     1.000,1.000,0.261,0.295,1.000,2490.000,70.000,79.000,113.000,0.000:

0000
0000
1MM1
0000
,
0000
0000
0000
0000
,
0000
0000
1MM1
0000
,
0000
0000
0000
0000
,
2200
3300
2020
3030
1MM1
0000
0000
0000
,
0000
0000
0000
0000
,
0000
0000
0000
0000
0022
0000
0033
1MM1
,
0000
0001
0010
0100
2200
0000
3300
1MM1
,
0000
0000
1000
0000
0001
1000
0001
1000
1MM1
0000
0000
0000
0000
0000
0000
0000
,
0000
0000
0000
0000
,
0000
0000
1MM1
0000
,
0000
0000
0000
0000
,
2020
3030
2200
3300
1MM1
0000
0000
0000
,
0000
0000
0000
0000
,
0000
0000
0000
0000
0202
0000
0303
1MM1
,
0000
0001
0100
0010
2020
0000
3030
1MM1
,
0000
1000
0001
0100
M2M2
0000
0000
0000
,
0000
0000
0000
0000
0000
0000
0303
0000
0001
0010
0001
1000
0100
0010
0001
1000
,
0001
0000
1000
0010
1000
0010
1000
0001
1000
0100
0010
0001
1000
0010
1000
0010
,
0100
0001
0010
0100
1000
0100
1000
0010
0100
0001
0100
0010
1000
0100
0010
0001
,
1000
0100
0010
0100
1000
0001
1000
0010
0100
0001
0100
0001
0010
0100
1000
0010
,
0100
0001
0100
0001
1000
0010
0100
0010
0100
0001
1000
0100
0010
0001
1000
0010
,
100M
0000
0000
0000
1MM1
0000
0000
0000
0001
0010
0001
0010
0100
1000
0010
0100
,
0010
0100
0001
1000
0100
0010
0100
0010
0001
1000
0010
1000
0001
0010
0100
1000
,
0001
0010
0100
0010
0001
1000
0001
1000
0020
0000
0000
0000
0030
0000
2M2M
0000
,
3030
1000
0100
0010
MM22
0033
0000
M2M2
,
0303
0000
0001
0100
0001
0100
0001
1000
0001
0010
0100
1000
0001
0100
0001
0100
,
0010
1000
0100
0010
0001
0010
0001
0100
0010
1000
0010
0100
0001
0010
0100
1000
,
0001
0010
0100
0010
0001
1000
0001
0100
0010
1000
0010
1000
0100
0010
0001
0100
,
0010
1000
0010
1000
0001
0100
0010
0100
0010
1000
0001
0010
0100
1000
0001
0100
,
M001
0000
0000
0000
1MM1
0000
0000
0000
1000
0100
1000
0100
0010
0001
0100
0010
,
0100
0010
1000
0001
0010
0100
0010
0100
1000
0001
0100
0001
1000
0100
0010
0001
,
1000
0100
0010
0100
1000
0001
1000
0001
0200
0000
0000
0000
0300
0000
M2M2
0000
,
0303
0001
0010
0100
22MM
3300
0000
2M2M
,
3030
0000
1000
0010
1000
0010
1000
0001
2000
0000
0000
0000
0000
0000
0000
0000
,
0000
3000
1MM1
0000
,
000M
0000
0000
0000
,
1000
0010
1000
0001
0100
0001
1000
0100
1000
0010
1000
0010
0100
0001
0100
0001
,
0010
0100
0010
0100
1000
0010
1000
0010
0100
0001
0100
0001
1000
0100
1000
0100
,
0010
0001
0010
0001
1000
0010
1000
0010
0100
0001
0100
0001
1000
0001
1000
0001
,
0010
0100
0010
0100
1000
0001
1000
0001
0010
0100
0010
0100
1000
0100
1000
0100
,
1000
0010
0100
0010
1000
0001
0010
0100
1000
0001
1000
0001
0100
0010
0100
0001
,
1000
0100
0010
0001
0010
0100
1000
0001
1000
0010
0100
0010
1000
0001
0010
0100
,
0010
0001
1000
0100
0010
0100
1000
0001
1000
0010
0100
0010
1000
0100
0010
0001
,
0100
0010
1000
0100
0010
0001
1000
0001
1MM0
0000
0001
0010
0001
1000
0010
0100
,
0010
1000
0100
0010
0001
1000
0010
1000
1MM1
0000
0000
0000
M1M1
0000
0000
0000
,
1000
0100
1000
0100
0010
0001
0010
0001
0100
0010
0100
0010
1000
0100
1000
0100
,
0010
0001
0010
0001
1000
0010
1000
0010
0100
0001
0100
0001
1000
0100
1000
0100
,
0010
0001
0010
0001
1000
0001
1000
0001
0100
0010
0100
0010
1000
0001
1000
0001
,
0100
0010
0100
0010
1000
0010
1000
0010
1000
0100
0010
0100
1000
0001
0100
0010
,
1000
0001
1000
0001
0010
0100
0010
0001
1000
0010
0100
0001
0100
0010
1000
0001
,
1000
0100
0010
0100
1000
0001
0100
0010
0100
0001
1000
0010
0100
0010
1000
0001
,
1000
0100
0010
0100
1000
0010
0100
0001
0010
0100
1000
0010
0100
0001
1000
0001
,
1MM0
0000
0001
0100
0001
1000
0100
0010
0100
1000
0010
0100
0001
1000
0100
1000
,
1MM1
0000
MM11
0000
1001
0001
0010
0100
,
1100
1000
0010
0100
0101
0001
1000
0010
,
1010
1000
0100
0010
0002
0000
0000
2003
,
0000
3020
0230
0000
,
0301
1000
0001
1000
0010
1000
0001
0100
0001
0000
1000
0000
0001
0100
0001
0000
,
1000
0000
0100
0000
0010
0001
0010
0000
0001
0000
0100
0000
0010
1000
0010
0000
,
1000
0000
0001
0000
0100
0001
0100
0000
0010
0000
0100
0000
0001
0010
0001
0000
,
1000
0000
0010
0000
1000
0100
1000
0000
0010
0000
0100
0000
0001
0010
0001
0000
,
1000
0000
0001
0000
0100
0001
0100
0000
0001
0000
1000
0000
0100
0010
0100
0000
,
0010
0000
0000
0000
0001
0000
0000
0000
1000
0000
0000
0000
0010
0000
0000
0000
1000
0000
0000
0000
0001
0000
0000
0000
1000
0000
0000
0010
0000
0000
1000
0000
0000
0010
0000
0000
0100
0000
0000
0001
0000
0000
0100
0000
0000
0001
0000
0000
,
0010
0100
0010
0100
1000
0010
1000
0010
0100
0001
0100
0001
1000
0100
1000
0100
,
0010
0001
0010
0001
1000
0010
1000
0010
0100
0001
0100
0001
1000
0001
1000
0001
,
0010
0100
0010
0100
1000
0001
1000
0001
0010
0100
0010
0100
1000
0100
1000
0100
,
1000
0010
0100
0010
1000
0001
0010
0100
1000
0001
1000
0001
0100
0010
0100
0001
,
1000
0100
0010
0001
0010
0100
1000
0001
1000
0010
0100
0010
1000
0001
0010
0100
,
0010
0001
1000
0100
0010
0100
1000
0001
1000
0010
0100
0010
1000
0100
0010
0001
,
0100
0010
1000
0100
0010
0001
1000
0001
1MM0
0000
0001
0010
0001
1000
0010
0100
,
0010
1000
0100
0010
0001
1000
0010
1000
1MM1
0000
0000
0000
M1M1
0000
0000
0000
,
1000
0100
1000
0100
0010
0001
0010
0001
0100
0010
0100
0010
1000
0100
1000
0100
,
0010
0001
0010
0001
1000
0010
1000
0010
0100
0001
0100
0001
1000
0100
1000
0100
,
0010
0001
0010
0001
1000
0001
1000
0001
0100
0010
0100
0010
1000
0001
1000
0001
,
0100
0010
0100
0010
1000
0010
1000
0010
1000
0100
0010
0100
1000
0001
0100
0010
,
1000
0001
1000
0001
0010
0100
0010
0001
1000
0010
0100
0001
0100
0010
1000
0001
,
1000
0100
0010
0100
1000
0001
0100
0010
0100
0001
1000
0010
0100
0010
1000
0001
,
1000
0100
0010
0100
1000
0010
0100
0001
0010
0100
1000
0010
0100
0001
1000
0001
,
1MM0
0000
0001
0100
0001
1000
0100
0010
0100
1000
0010
0100
0001
1000
0100
1000
,
1MM1
0000
MM11
0000
1001
0001
0010
0100
,
1100
1000
0010
0100
0101
0001
1000
0010
,
1010
1000
0100
0010
0002
0000
0000
2003
,
0000
3020
0230
0000
,
0301
1000
0001
1000
0010
1000
0001
0100
0001
0000
1000
0000
0001
0100
0001
0000
,
1000
0000
0100
0000
0010
0001
0010
0000
0001
0000
0100
0000
0010
1000
0010
0000
,
1000
0000
0001
0000
0100
0001
0100
0000
0010
0000
0100
0000
0001
0010
0001
0000
,
1000
0000
0010
0000
1000
0100
1000
0000
0010
0000
0100
0000
0001
0010
0001
0000
,
1000
0000
0001
0000
0100
0001
0100
0000
0001
0000
1000
0000
0100
0010
0100
0000
,
2000
0000
0000
0000
3002
0000
0000
0000
1003
0010
1000
0010
1000
0010
1000
0010
,
1000
0001
1000
0001
1000
0001
1000
0001
0100
0001
0100
0001
0100
0001
0100
0001
,
1000
0100
1000
0100
0010
0001
0010
0001
1000
0010
1000
0010
1000
0010
1000
0010
,
0100
0001
0100
0001
0100
0001
0100
0001
1000
0001
1000
0001
1000
0001
1000
0001
,
1000
0010
1000
0010
0100
0001
0100
0001
1000
0100
1000
0100
1000
0100
1000
0100
,
1000
0100
1000
0100
0010
0001
0010
0001
1000
0010
1000
0010
1000
0010
1000
0010
,
0100
0001
0100
0001
0100
0001
0100
0001
1000
0100
1000
0100
1000
0100
1000
0100
,
1000
0100
1000
0001
1000
0001
1000
0001
0100
0001
0100
0001
0100
0001
0100
0001
,
1000
0100
0010
0001
1000
0010
1000
0001
0010
0100
1000
0001
0100
0001
1000
0100
,
0010
0100
1000
0001
0010
0100
0010
0001
1000
0100
0010
0001
0100
0010
1000
0100
,
0010
0001
0100
0010
1000
0001
0010
0100
1000
0010
0100
0001
0010
0100
1000
0010
,
0100
0001
1000
0001
0010
0100
1000
0001
1000
0001
0010
0100
1000
0010
0100
0001
,
1000
0001
1000
0100
0010
0001
0100
0010
1000
0100
0010
0001
1000
0010
1000
0001
,
0100
0001
1000
0100
0010
0001
1000
0100
1000
0001
0010
0001
1000
0100
0010
0001
,
1000
0001
0010
0100
1000
0100
0010
0001
1000
0001
0010
0001
1000
0010
1000
0001
,
0100
0001
1000
0100
0010
0001
0010
0100
0010
0001
1000
0010
1000
0010
0100
0010
,
1000
0100
0010
0001
1000
0001
1000
0001
1000
0100
0010
0001
1000
0010
1000
0010
,
0100
0001
0010
0100
1000
0100
1000
0010
0100
0001
0100
0010
1000
0100
0010
0001
,
1000
0100
0010
0100
1000
0001
1000
0010
0100
0001
0100
0001
0010
0100
1000
0010
,
0100
0001
0100
0001
1000
0010
0100
0010
0100
0001
1000
0100
0010
0001
1000
0010
,
100M
0000
0000
0000
1MM1
0000
0000
0000
0001
0010
0001
0010
0100
1000
0010
0100
,
0010
0100
0001
1000
0100
0010
0100
0010
0001
1000
0010
1000
0001
0010
0100
1000
,
0001
0010
0100
0010
0001
1000
0001
1000
0020
0000
0000
0000
0030
0000
2M2M
0000
,
3030
1000
0100
0010
MM22
0033
0000
M2M2
,
0303
0000
0001
0100
0001
0100
0001
1000
0001
0010
0100
1000
0001
0100
0001
0100
,
0010
1000
0100
0010
0001
0010
0001
0100
0010
1000
0010
0100
0001
0010
0100
1000
,
0001
0010
0100
0010
0001
1000
0001
0100
0010
1000
0010
1000
0100
0010
0001
0100
,
0010
1000
0010
1000
0001
0100
0010
0100
0010
1000
0001
0010
0100
1000
0001
0100
,
M001
0000
0000
0000
1MM1
0000
0000
0000
1000
0100
1000
0100
0010
0001
0100
0010
,
0100
0010
1000
0001
0010
0100
0010
0100
1000
0001
0100
0001
1000
0100
0010
0001
,
1000
0100
0010
0100
1000
0001
1000
0001
0200
0000
0000
0000
0300
0000
M2M2
0000
,
0303
0001
0010
0100
22MM
3300
0000
2M2M
,
3030
0000
1000
0010
1000
0010
1000
0001
2000
0000
0000
0000
0000
0000
0000
0000
,
0000
0000
0000
0000
,
3000
0001
2MM1
0000
,
3001
0000
1000
0000
2MM1
0000
0000
3001
,
0200
0310
2M1M
0000
,
3002
0000
0023
0030
M21M
0000
0000
0000
,
0000
0300
0100
0000
21MM
0000
0000
3001
,
0200
0000
0320
0030
2M1M
0000
0000
3001
,
0020
0000
0130
1000
1MM2
0000
0203
0000
,
0302
0000
2003
3000
1MM2
0000
0000
0000
,
1003
0010
1000
0010
0100
0001
0100
0001
1000
0100
0010
0001
0010
0100
1000
0001
,
1000
0010
0100
0001
1000
0100
0010
0100
0010
0001
1000
0001
1000
0010
0100
0001
,
1000
0001
0010
0100
1000
0100
0010
0001
1000
0010
1000
0001
0010
0100
0010
0001
,
1000
0010
0100
0001
0100
0010
1000
0100
0010
0001
0010
0001
1000
0010
1000
0010
,
0100
0001
0010
0100
1000
0001
1000
0001
0010
0100
1000
0001
1000
0010
0100
0010
,
1000
0001
0010
0001
1000
0100
0010
0001
0100
0010
1000
0100
0010
0001
1000
0001
,
1000
0100
0010
0001
0010
0100
1000
0001
0010
0100
1000
0010
0100
0001
1000
0001
,
1000
0100
0010
0100
0010
0001
1000
0001
0010
0100
1000
0010
0100
0001
0010
0100
,
1000
0001
1000
0010
0100
0010
1000
0001
1000
0100
0010
0001
1000
0001
1000
0100
,
0010
0001
0100
0010
1000
0001
0010
0100
100M
0000
0000
0000
0001
0010
0100
1000
,
0001
0000
0000
0000
0100
0010
1000
0001
1M00
0000
0000
0000
0001
0100
0010
1000
,
0010
0000
0000
0000
0100
0010
1000
0001
10M0
0000
0000
0000
0001
0010
0100
1000
,
0010
0000
1M1M
1000
0100
1000
1010
0010
,
0100
0001
0101
0100
0010
1000
2MM2
0000
,
0000
0000
0000
0000
0000
0000
3003
0000
0001
1000
0100
0010
M001
0000
0000
0000
,
1000
0100
0010
0001
1000
0000
0000
0000
0010
0100
0001
1000
00M1
0000
0000
0000
,
0001
0010
0100
1000
0001
0000
0000
0000
0100
0010
1000
0001
1M00
0000
0000
0000
,
1000
0100
0010
0001
0100
0000
0101
0000
M1M1
0000
0001
0000
0010
0000
0001
0000
,
0101
0100
0010
1000
1010
0010
0100
0001
,
1001
1000
0100
0010
0011
0001
1000
0010
,
1000
0001
1000
0001
1000
0010
1000
0001
0100
0001
1000
0100
0010
0001
1000
0010
,
1000
0001
0010
0001
1000
0100
1000
0010
0100
0001
0010
0100
1000
0010
0100
0001
,
0010
0001
1000
0100
1000
0010
0100
0001
0010
0100
1000
0001
1000
0100
0010
0001
,
0100
0010
1000
0100
0010
0001
1000
0001
1000
0010
0100
0010
1000
0001
0010
0100
,
1000
0010
0100
0001
1000
0001
1000
0100
0010
0001
1000
0010
0100
0001
1000
0100
,
1000
0001
0100
0001
1000
0010
1000
0100
0010
0001
0100
0010
1000
0100
0010
0001
,
0100
0001
1000
0010
1000
0100
0010
0001
0100
0010
1000
0001
1000
0010
0100
0001
,
0010
0100
1000
0010
0100
0001
1000
0001
1000
0100
0010
0100
1000
0001
0100
0010
,
1000
0100
0010
0001
1000
0001
1000
0010
1000
0001
1000
0100
1000
0001
1000
0010
,
0100
0001
0010
0100
0010
0001
0010
0100
1000
0010
0100
0001
1000
0010
1000
0001
,
1000
0000
0001
0000
1000
0010
1000
0000
0001
0000
0010
0000
0100
1000
0100
0000
,
1000
0000
0010
0000
0100
0001
0100
0000
0001
0000
1000
0000
0010
1000
0010
0000
,
0100
0000
0010
0000
1000
0100
1000
0000
0001
0000
0100
0000
0001
0010
0001
0000
,
0100
0000
0010
0000
1000
0100
1000
0000
0001
0000
1000
0000
0010
1000
0010
0000
,
1000
0000
0001
0000
0010
0100
0010
0000
0001
0000
1000
0000
0001
0100
0001
0000
,
1000
0000
0100
0000
0010
0001
0010
0000
0001
0000
0100
0000
0010
1000
0010
0000
,
1000
0000
0001
0000
0100
0001
0100
0000
0010
0000
0100
0000
0001
0010
0001
0000
,
1000
0000
0010
0000
1000
0100
1000
0000
0010
0000
0100
0000
0001
0010
0001
0000
,
1000
0000
0001
0000
0100
0001
0100
0000
0002
0000
0000
0000
2003
0000
0000
0000
,
3001
0100
0001
0100
0001
0100
0001
0100
0001
1000
0001
1000
0001
1000
0001
1000
,
0010
1000
0010
1000
0010
1000
0010
1000
0001
0010
0001
0010
0100
1000
0100
1000
,
0001
0100
0001
0100
0001
0100
0001
0100
0010
1000
0010
1000
0010
1000
0010
1000
,
0001
1000
0001
1000
0001
1000
0001
1000
0001
0100
0001
0100
0010
1000
0010
1000
,
0001
0010
0001
0010
0001
0010
0001
0010
0001
0010
0001
0010
0100
1000
0100
1000
,
0001
0100
0001
0100
0001
0100
0001
0100
0010
1000
0010
1000
0010
1000
0010
1000
,
0001
0010
0001
0010
0001
0010
0001
0010
0001
0010
0001
1000
0001
1000
0001
1000
,
0010
1000
0010
1000
0010
1000
0010
1000
0001
0010
0100
1000
0001
0100
0001
1000
,
0100
0010
0001
1000
0010
1000
0001
0010
0100
0010
0001
1000
0100
0010
0100
1000
,
0001
0010
0100
1000
0010
0100
0001
0010
0100
1000
0010
0100
0001
1000
0100
0010
,
0001
0100
0010
1000
0100
0010
0001
0100
0010
1000
0001
1000
0100
0010
0001
1000
,
0001
1000
0100
0010
0001
0100
0010
1000
0001
1000
0001
0010
0100
1000
0010
0100
,
0001
0010
0100
1000
0001
0100
0001
1000
0010
1000
0001
0010
0100
1000
0001
0010
,
0001
1000
0100
1000
0001
0010
0100
1000
0001
1000
0100
0010
0001
0010
0100
1000
,
0001
1000
0100
1000
0001
0100
0001
1000
0010
1000
0001
0010
0100
1000
0100
0010
,
0100
1000
0001
0100
0001
0100
0010
0100
0001
0010
0100
1000
0001
1000
0100
0010
,
0001
0010
0001
0010
0001
0010
0001
0010
0001
1000
0001
1000
0001
1000
0001
1000
,
0100
1000
0100
1000
0100
1000
0100
1000
0001
0100
0001
0100
0010
1000
0010
1000
,
0001
0010
0001
0010
0001
0010
0001
0010
0100
1000
0100
1000
0100
1000
0100
1000
,
0001
1000
0001
1000
0001
1000
0001
1000
0001
0010
0001
0010
0100
1000
0100
1000
,
0001
0100
0001
0100
0001
0100
0001
0100
0001
0100
0001
0100
0010
1000
0010
1000
,
0001
0010
0001
0010
0001
0010
0001
0010
0100
1000
0100
1000
0100
1000
0100
1000
,
0001
0100
0001
0100
0001
0100
0001
0100
0001
0100
0001
1000
0001
1000
0001
1000
,
0100
1000
0100
1000
0100
1000
0100
1000
0001
0100
0010
1000
0001
0010
0001
1000
,
0010
0100
0001
1000
0100
1000
0001
0100
0010
0100
0001
1000
0010
0100
0010
1000
,
0001
0100
0010
1000
0100
0010
0001
0100
0010
1000
0100
0010
0001
1000
0010
0100
,
0001
0010
0100
1000
0010
0100
0001
0010
0100
1000
0001
1000
0010
0100
0001
1000
,
0001
1000
0010
0100
0001
0010
0100
1000
0001
1000
0001
0100
0010
1000
0100
0010
,
0001
0100
0010
1000
0001
0010
0001
1000
0100
1000
0001
0100
0010
1000
0001
0100
,
0001
1000
0010
1000
0001
0100
0010
1000
0001
1000
0010
0100
0001
0100
0010
1000
,
0001
1000
0010
1000
0001
0010
0001
1000
0100
1000
0001
0100
0010
1000
0010
0100
,
0010
1000
0001
0010
0001
0010
0100
0010
0001
0100
0010
1000
0001
1000
0010
0100
,
0001
0010
0001
1000
0100
1000
0010
0100
0001
0010
0100
1000
0001
0010
0001
1000
,
0100
1000
0010
0100
0001
0010
0100
1000
0010
0100
0001
1000
0100
0010
0001
0100
,
0010
1000
0100
0010
0001
1000
0010
1000
0001
0100
0001
1000
0100
0010
0001
1000
,
0010
0100
0001
0100
0001
0010
0100
1000
0010
0100
0001
0010
0100
1000
0001
1000
,
0001
0000
0000
0000
;
