#TITLE:Trail of Broken Hearts;
#SUBTITLE:Inhuman Rampage;
#ARTIST:Dragonforce;
#TITLETRANSLIT:;
#SUBTITLETRANSLIT:;
#ARTISTTRANSLIT:;
#CREDIT:Dog_E;
#BANNER:trail.PNG;
#BACKGROUND:trail-bg.PNG;
#LYRICSPATH:;
#CDTITLE:DogETitle.PNG;
#MUSIC:08-dragonforce-trail_of_broken_hearts-qtxmp3.mp3;
#OFFSET:-0.739;
#SAMPLESTART:114.224;
#SAMPLELENGTH:12.000;
#SELECTABLE:YES;
#BPMS:0.000=145.000;
#STOPS:;
#BGCHANGES:;
// cache tags:
#FIRSTBEAT:30.000;
#LASTBEAT:838.375;
#SONGFILENAME:Songs/keyboard/Trail Of Broken Hearts (Dog_E)/08-dragonforce-trail_of_broken_hearts-qtxmp3.sm;
#HASMUSIC:1;
#HASBANNER:1;
#MUSICLENGTH:355.296;
// end cache tags

//---------------dance-single - Blank----------------
#NOTES:
     dance-single:
     Blank:
     Hard:
     11:
     0.894,1.000,0.706,1.000,0.408,1414.000,251.000,559.000,0.000,87.000:

0000
0000
0000
0000
,
0000
0000
0000
0000
,
0000
0000
0000
0000
,
0000
0000
0000
0000
,
0000
0000
0000
0000
,
0000
0000
0000
0000
,
0000
0000
0000
0000
,
0000
0000
2000
0001
,
0010
0000
3200
0320
0032
0000
0203
2300
,
0001
3020
0032
1000
,
0100
0003
0020
0230
0320
2030
3002
0203
,
1000
0320
0032
2003
0010
3000
0200
0320
,
1000
0030
0001
0020
1000
0000
0001
0030
,
0200
0000
1000
0320
0032
0003
0100
2000
,
0001
0000
0010
0000
3001
0010
0100
0001
,
0000
0010
0100
0000
1001
0000
1000
0000
,
0002
0000
0203
0302
1000
0000
1003
0000
,
0020
0000
0032
0000
0203
0000
0320
2030
,
0001
3020
0031
0200
1000
0000
0010
0300
,
0001
0000
0010
0000
2000
3002
0203
0302
,
0003
0002
0023
0230
2300
0000
3002
0203
,
1000
0300
0020
0000
0032
0000
0010
2000
,
0103
0010
0001
0010
,
0100
3000
0010
0100
0001
0000
1000
0000
,
2000
0000
3020
0230
0001
0000
0320
0000
,
2030
0000
3020
0000
0230
0000
0302
0023
,
1000
0230
0000
2302
0010
0000
0100
0000
,
0010
3003
0100
0000
2000
0000
3002
0023
,
0230
0300
2000
3020
0031
0000
0200
2300
,
3001
0000
0020
0000
0230
0000
0010
0002
,
1000
0300
0010
0000
1000
0000
0100
0000
,
1000
0003
0100
0000
0220
0330
1000
0000
,
0020
0000
0230
0000
0302
0000
0023
0230
,
0001
0000
2300
0000
3020
0000
0230
0002
,
1300
0023
0001
0000
0230
0000
0001
0000
,
1000
0000
0001
0310
0001
0000
2000
0000
,
3002
0000
0000
0000
0023
0000
0000
0000
0230
0000
0000
2300
0000
0000
3020
0000
,
0001
0000
0230
0000
0302
0000
0023
0230
,
0301
2200
3300
0011
2002
0000
0000
0000
,
0000
0000
0000
0000
,
0000
0000
0000
0000
0000
0000
0000
3003
1100
0000
0000
0000
0100
0000
0010
0000
,
0001
0000
0100
0010
2000
0000
0100
0010
,
0001
0000
0000
0000
0010
0000
3100
0000
2002
0000
0000
3003
1001
0000
0000
0000
,
0001
0000
1000
0000
2002
3003
2002
0000
0000
0000
0000
3003
2002
0000
0000
3003
,
2002
0000
0000
3003
1000
0000
0001
0000
2020
0000
0000
0000
0000
0000
0000
0000
,
3030
0000
2020
0000
0000
0000
3030
1000
,
0001
0100
0010
0100
0011
0100
1010
0001
,
0020
2030
3100
0020
0032
0103
0010
1000
,
0100
0010
0001
1000
0220
0000
0330
0000
,
0100
0010
0220
1330
0001
0000
1000
0012
,
1003
0010
0100
1000
0202
0000
0000
0303
,
0000
0000
0101
0101
0202
1303
0010
1000
,
0100
0002
0103
0020
2230
0000
0000
3300
,
1000
0100
2200
0000
0000
3310
0001
0100
,
0002
0103
0020
0031
1010
1010
1020
0031
,
1020
0130
0000
1100
0000
0011
0100
0001
,
0100
0010
2000
0000
3000
0100
0010
0001
,
0100
0000
0010
0000
1000
0000
0100
0000
1001
0000
1000
0100
0010
0000
0011
0000
,
0100
0010
1000
0001
1001
0100
0010
0100
,
0011
0100
0010
1000
0100
0010
0100
0010
,
1001
0010
0100
0001
1001
0100
0010
0100
,
0011
0100
0010
1000
0100
0010
1000
0001
,
0110
0000
1000
0000
0100
0000
0010
0000
1001
0000
0200
0000
0000
0300
0020
0030
,
0002
0003
0020
0000
0000
0000
0230
0000
2300
0000
0000
0000
3200
0000
0320
0000
,
0000
0000
0000
2030
3012
0000
0203
2300
,
0000
0000
3200
0000
0300
0000
0002
0003
2002
0000
0000
0000
0000
0000
0000
0000
,
3113
0000
0010
0000
0100
0000
0000
0000
2000
0000
3000
0000
0200
0300
0020
0000
,
0030
0000
0002
0000
0000
0003
0200
0000
0320
0000
0000
0000
0000
0000
0000
0000
,
0000
0000
0030
0000
2002
3003
1001
0000
,
0210
1000
0320
0032
0010
0100
1000
0100
,
0023
1030
0200
0310
2002
3103
1020
0032
,
0010
1000
0203
0001
0320
1000
0130
1002
,
0023
1000
0001
0130
1001
0100
1000
0010
,
0101
0010
1000
0100
0011
1000
0100
0010
,
1100
0000
0010
0000
0101
0000
1000
0000
0220
0000
0330
2200
0000
3300
2001
0000
,
0010
0000
0000
0000
0100
0000
0000
0000
0001
0000
0000
0000
0100
0000
0000
0001
3010
0000
0000
0000
0000
0000
0000
0100
0010
0000
0000
0000
0000
0000
0000
0000
,
0110
0000
0000
0000
1100
0000
0000
0000
0011
0000
0000
0000
0000
0000
0000
0000
0220
0000
0000
0000
0001
0000
0000
0330
2000
0000
0000
0000
0100
0000
0000
0000
,
3002
0010
0203
0001
2300
0100
3020
0230
,
0001
0010
1302
1000
0213
0001
1320
0032
,
0000
1000
0213
0000
2302
0010
0100
3013
,
0200
0000
0001
0000
0320
0000
1030
0000
0022
0000
0033
0000
0220
0330
2200
0000
,
0010
0000
0000
0000
3322
0000
0000
0033
2002
0000
0000
0000
0000
0000
3223
0000
,
0000
0000
0000
0330
0022
0000
0033
0000
0220
0000
0000
0000
0000
0030
0002
0000
,
0000
0000
0000
0000
2003
0000
0000
0000
3020
0000
0001
0330
0000
0000
0010
0000
,
0101
0010
1100
0010
1001
0100
0010
0001
,
0100
0010
1000
0100
0010
1000
0100
0010
,
0001
0100
0010
0001
0110
1000
0100
0010
,
1000
0001
0100
0010
0100
0010
0001
0100
,
0010
0100
0001
0010
0202
0303
0202
0303
,
0100
0001
0100
0202
0000
0000
0000
0000
,
0000
0303
1000
0100
2200
0000
0000
3300
,
0100
1000
2200
0000
0000
0000
0000
3300
,
0020
0000
0032
0000
2003
0000
3200
0320
,
0000
0000
2030
0000
3200
0000
0302
0023
,
0000
0000
0230
0000
0320
0000
0230
2300
,
0000
0000
0000
3100
0100
1000
1010
0110
,
0001
0110
1010
0001
1000
0100
0001
0010
,
0100
0000
0010
0000
1000
0100
1000
0010
0100
0000
0001
0000
0010
0000
0100
0000
,
0001
0000
0010
0000
0100
0010
0100
0010
1000
0000
0001
0000
0100
0000
1000
0000
,
0010
0000
0001
0000
0100
0010
0100
0010
1000
0000
0100
0000
0010
0000
0001
0000
,
0100
0000
0010
0000
1000
0100
1000
0100
0010
0000
0001
0000
0100
0000
0010
0000
,
1000
0000
0001
0000
1000
0001
0100
0001
0100
0010
1000
0100
0010
0001
1000
0001
,
0010
0100
1000
0100
0010
1000
0001
0100
0022
0000
0000
0033
1001
0000
2002
0000
,
0000
0000
0000
0000
0000
0000
0000
0000
0000
0010
0000
0000
3013
0000
0000
0000
0100
0000
0010
0000
0001
0000
1000
0000
,
0100
0000
0010
0000
0100
0000
0010
0000
0001
0000
0010
0000
1001
0000
0000
0100
0000
0000
0010
0000
0000
0100
0000
0000
,
0001
1000
0010
0100
0001
0100
0010
0001
,
0010
0100
0001
1000
0100
0010
1000
0001
,
0100
0010
1000
0001
0100
0010
0100
0001
,
1100
0000
0110
0000
0011
0000
0000
0000
2002
0000
3203
0000
0000
0300
0020
0030
,
0002
0003
2000
0000
0000
0000
3002
0000
0203
0000
0000
0002
0300
0000
2003
0000
,
3200
0000
0300
0000
1020
0000
0032
0203
,
0000
0000
0302
0000
0003
0000
0020
0030
0220
0000
0000
0000
0000
0000
0000
0000
,
1331
0000
1000
0000
0001
0000
0000
0000
0200
0000
0300
0000
0002
0003
2000
0000
,
3000
0000
0020
0000
0000
0030
0002
0000
2003
0000
0000
0000
0000
0000
0000
0000
,
0000
0000
0000
3000
0220
0330
0110
0000
,
1002
0100
2003
3020
1000
0001
0100
0001
,
2030
3100
0002
1003
0220
0331
2100
3020
,
1000
0100
0032
0010
2003
0100
3001
0120
,
2030
0000
0100
0000
0010
0000
3001
0000
0110
0001
0010
0100
1000
0100
1000
0100
,
0011
1000
0100
0010
0100
1000
0100
0001
1010
0100
0001
0010
0101
1000
0100
0010
,
0101
0010
0100
1000
0011
0100
0001
0010
2002
0000
3003
0202
0000
0303
0210
0000
,
1000
0000
0000
0001
0000
0000
0010
0000
0000
0001
0000
0000
1301
0000
0010
0000
0100
0000
1000
0000
0001
0000
0010
0000
,
1100
0000
0000
0000
0000
0000
0000
0000
0000
0000
0000
0000
0000
0000
0000
0000
0010
0000
0000
0000
0000
0000
0000
0000
0000
0000
0000
0000
0000
0000
0000
0000
0100
0000
0000
0000
0000
0000
0000
0000
0000
0000
0000
0000
0000
0000
0000
0000
0010
0000
0000
0000
0000
0000
0000
0000
0000
0000
0000
0000
0000
0000
0000
0000
0001
0000
0000
0000
0000
0000
0000
0000
0000
0000
0000
0000
0000
0000
0000
0000
0100
0000
0000
0000
0000
0000
0000
0000
0000
0000
0000
0000
0000
0000
0000
0000
2002
0000
0000
0000
0000
0000
0000
0000
0000
0000
0000
0000
0000
0000
0000
0000
0000
0000
0000
0000
0000
0000
0000
0000
0010
0000
0000
0000
0000
0000
0000
0000
0000
0000
0000
0000
0000
0000
0000
0000
0000
0000
3003
0000
0000
0000
0000
0000
0200
0000
0000
0000
0000
0000
0000
0000
0000
0000
0000
0000
0000
0000
0000
0000
0000
0000
0000
0000
0000
0000
0000
0000
0001
0000
0000
0000
0000
0000
0000
0000
0000
0000
0000
0000
0000
0000
0000
0000
0000
0000
0000
0000
0000
0000
0000
0000
,
0320
1000
0032
0010
0203
0001
2300
3002
,
0010
1000
0123
0100
1032
0010
2103
3020
,
0000
0100
1032
0000
0223
1000
0001
1330
,
0002
0000
0010
0000
2003
0000
3100
0000
2020
0000
3030
0000
2002
3003
0202
0000
,
1000
0000
0000
0000
2323
0000
0000
3030
0220
0000
0000
0000
0000
0000
2332
0000
,
0000
0000
0000
3003
2020
0000
3030
0000
2002
0000
0000
0000
0000
3000
0020
0000
,
0000
0000
0000
0000
0000
0000
0000
0000
0000
0000
0000
0000
0230
0000
0000
0000
0000
0000
0000
0000
0000
0000
0000
0000
1300
0000
0000
0000
0100
0000
0000
0000
0010
0003
0000
0000
0001
0000
0000
0000
1000
0000
0000
0000
0100
0000
0000
0000
,
0010
0000
1000
0000
0001
0000
0010
0000
0100
0000
1000
0000
0200
0000
0000
0000
0000
0000
0320
0000
0000
0032
0000
0000
,
0000
2003
3002
0203
0320
0030
0020
0030
,
0200
0000
0000
2300
3002
0000
0000
0000
,
0000
0000
0000
0000
0123
1000
0001
0100
,
0031
0000
1000
0000
0110
0000
0000
0000
2002
0000
3003
0000
1001
0100
1001
0010
,
1001
0100
0010
0100
1001
0010
0100
0010
1001
0100
0010
0100
1001
0010
2002
0000
,
3103
0010
0001
0010
1000
0010
0001
0010
0100
0010
0100
0010
1100
0001
1100
0010
,
1100
0010
0001
0010
1100
0010
0001
0010
1100
0010
0001
0010
1100
0010
1100
0010
,
0100
1000
0100
0010
0100
0010
0001
1000
0001
0100
0010
0100
0011
1000
0011
0100
,
0011
1000
0100
1000
0011
0100
0011
1000
0011
0100
1000
0100
0011
1000
0011
0100
,
1000
0100
0011
1000
0100
1000
0011
0100
0011
1000
0011
0100
0011
0100
0010
0000
,
1001
0100
0010
0001
1000
0100
0010
0001
1000
0001
0010
0100
0001
0100
0010
0100
,
1000
0001
2000
0010
0100
0000
0100
3000
0002
0000
0000
0000
0000
0000
0000
0000
,
0000
0000
0000
0003
0220
0330
2000
3000
,
0020
0000
0032
0003
0200
0300
0020
0000
0000
0030
2000
0000
3002
0000
0103
0000
,
0020
0000
0000
0032
0000
0000
0000
0000
0000
0000
0000
0000
0000
0000
0000
0000
0000
0000
0003
0000
0000
0000
0000
0000
0020
0000
0000
0030
0000
0000
0100
0000
1000
0000
0100
0000
0020
0000
0000
0000
0000
0000
0032
0000
0000
0000
0000
0000
,
0203
0000
0000
0000
0300
0000
0000
0000
0002
0000
0003
0000
0020
0000
0000
0000
0030
0000
0000
0000
0200
0000
0000
0000
0020
0000
0030
0000
0020
0000
0000
0030
,
0020
0000
0000
0000
0000
0000
0000
0000
0000
0000
0000
0000
0000
0000
0000
0000
0000
0000
0030
0000
0000
0000
0000
0000
0020
0000
0000
0000
0000
0000
0000
0000
0000
0000
0000
0000
0000
0000
0000
0000
0000
0000
0030
0000
0000
0000
0000
0000
0020
0000
0000
0000
0000
0000
0000
0000
0000
0000
0000
0000
0000
0000
0000
0000
0000
0000
0030
0000
0000
0000
0000
0000
0020
0000
0000
0000
0000
0000
0330
0000
0000
0000
0000
0000
0000
0000
0000
0000
0000
0000
0000
0000
0000
0000
0000
0000
0010
0000
0000
0000
0000
0000
0000
0000
0001
0000
0000
0000
0000
0000
0000
0000
0010
0000
0000
0000
0000
0000
0000
0000
0001
0000
0000
0000
0000
0000
0000
0000
0010
0000
0000
0000
0000
0000
0000
0000
0001
0000
0000
0000
0000
0000
0000
0000
0010
0000
0000
0000
0000
0000
0000
0000
0001
0000
0000
0000
0000
0000
0000
0000
0010
0000
0000
0000
0000
0000
0000
0000
0100
0000
0000
0000
0000
0000
0000
0000
1000
0000
0000
0000
0000
0000
0000
0000
0100
0000
0000
0000
0000
0000
0000
0000
,
1000
0100
1000
0100
1000
0100
0010
0100
0010
0100
0010
0100
0001
1000
0001
1000
0001
1000
0001
1000
0001
0100
0001
0100
,
0001
0100
0001
0100
0001
0100
0010
0100
0010
0100
0010
0100
0002
0000
0000
0023
0000
0000
2030
0000
0000
3200
0000
0000
,
0310
0000
0002
0000
0003
0000
0010
0000
0100
1000
0200
0000
0000
0000
0000
0000
,
0300
0000
0220
0330
0022
0033
0220
0330
2100
0000
3120
0000
0132
0000
0123
0000
,
1230
0000
0000
0000
0321
0000
0000
0000
2130
0000
0000
0000
3210
0000
0000
0000
0301
0010
0100
1000
0100
0010
0001
0010
0100
1000
0100
0010
0001
0010
0100
1000
,
0100
0010
0001
0010
0100
1000
0100
0010
0001
0010
0100
1000
0100
0000
0000
0000
0020
0000
0000
0000
0032
0000
0000
0000
0203
0000
0000
0000
0320
0000
0000
0000
,
2030
0000
0000
3000
0002
0003
0020
0000
0000
0000
0000
0000
0000
0000
0000
0000
,
0000
0030
0010
0000
0001
0000
1000
0000
0200
0000
0320
0000
0000
0000
0030
0000
,
0002
0000
0000
0003
0001
0000
0200
0000
0320
0000
2030
3000
0200
0300
0020
0000
,
0230
0000
0302
0000
0023
0030
0002
0003
0010
0100
1000
0100
0010
0001
0100
0010
,
0001
0100
0001
0010
0100
1000
0100
0010
0100
0001
1000
0001
0010
0100
1000
0001
,
1000
0100
0010
0100
0010
0001
0100
0010
0202
0000
0000
0300
0100
0000
0000
0000
,
0100
0003
0010
0000
0002
0000
0023
0000
0000
0000
0000
0030
0000
0000
0100
0000
,
2000
3000
0000
2000
3011
2000
3101
2000
,
3110
0000
0100
0000
0001
0000
0100
0000
0010
0000
0100
0010
0002
0000
1003
0100
,
0020
0000
0000
0000
0000
0000
0030
0000
0000
0000
0100
0010
0001
0100
0010
1000
,
0100
0000
0000
0000
0000
0000
0000
0000
0000
0000
0000
0000
0010
0000
0000
0000
0000
0000
0000
0000
0000
0000
0000
0000
0001
0000
0000
0000
0000
0000
0000
0000
0000
0000
0000
0000
0010
0000
0000
0000
0000
0000
0200
0000
0000
0000
0000
0000
0000
0000
0000
0000
0000
0000
0000
0000
0000
0000
0000
0000
0000
0000
0000
0000
0000
0000
0300
0000
0000
0000
0000
0000
1000
0000
0000
0000
0000
0000
0000
0000
0000
0000
0000
0000
0100
0000
0000
0000
0000
0000
0000
0000
0000
0000
0000
0000
0010
0000
0000
0000
0000
0000
0000
0000
0001
0000
0000
0000
0000
0000
0000
0000
0100
0000
0000
0000
0000
0000
0000
0000
0010
0000
0000
0000
0000
0000
0000
0000
1000
0000
0000
0000
0000
0000
0000
0000
0100
0000
0000
0000
0000
0000
0000
0000
0010
0000
0000
0000
0000
0000
0000
0000
0001
0000
0000
0000
0100
0000
0000
0000
0000
0000
0000
0000
0000
0000
0000
0000
0010
0000
0000
0000
0000
0000
0000
0000
0000
0000
0000
0000
0100
0000
0000
0000
0000
0000
0000
0000
0000
0000
0000
0000
,
0002
0000
0000
0000
0000
0000
0000
0000
0003
0000
0000
0000
2200
0000
0000
3300
0220
0000
0000
0330
0022
0000
0000
0033
,
2200
0000
0000
3300
0202
0000
0000
0303
0220
0000
0000
0330
0002
0000
0100
0000
0010
0000
0100
0000
1000
0000
0010
0000
,
0203
0001
1000
0010
1000
0301
0120
0000
0000
0000
0000
0000
,
0032
0000
0000
0000
0000
0000
0010
0100
2003
0000
0000
0000
0000
0000
0000
0000
,
0000
3000
0000
0000
0010
0100
0001
0000
2000
0000
0000
0000
0000
0000
0000
3000
,
2000
0000
0000
0000
0000
3000
0100
0010
0002
0000
0000
0000
0000
0000
0000
0003
,
0020
0000
0000
0000
0000
0030
0001
0000
2200
0000
0000
0000
0000
0000
3300
0000
,
1000
0010
0001
0100
0020
0030
0001
0200
,
0300
0000
0020
0000
0030
0000
0002
0000
0000
0000
0000
0000
0000
0000
0000
0003
,
0002
0023
0032
0023
0032
0000
0023
0000
2032
0000
3013
0000
0010
0000
1100
0000
,
0000
0100
0010
0001
0100
0001
0010
0100
2000
0000
0000
0000
0220
3000
0330
0000
,
0220
0330
0022
0033
2002
3003
0220
0330
0000
0000
2200
3300
2002
3003
0022
0000
,
0000
0000
0000
0000
1033
0000
0220
0330
,
0220
0330
0022
0033
2200
3300
0220
0000
0330
0000
0022
0033
0220
0330
1000
0000
,
0100
0000
0011
0000
2000
0000
0000
3000
0220
0000
0330
0000
0220
0330
0022
0033
,
0220
0000
0000
0330
0000
0000
0000
0000
0000
2200
0000
0000
3300
0000
0000
0000
0000
0000
0220
0000
0000
0330
0000
0000
1001
0000
0000
0000
0100
0000
0000
0000
0010
0000
0000
0000
0001
0000
0000
0000
0100
0000
0000
0000
0010
0000
0000
0000
,
1000
0000
0100
0000
0010
0000
0100
0000
1000
0000
0100
0000
0022
0000
0000
0000
0000
0000
0133
0000
0000
2200
0000
0000
,
0000
0000
0000
0000
0000
0000
0000
0000
0000
0000
0000
0000
3300
0000
0000
0100
0010
0001
1000
0000
0000
0100
0000
0000
,
0000
0010
0000
0000
0000
0000
0001
0000
0000
0000
0000
1000
0000
0000
0000
0000
0010
0000
0100
0000
0020
0000
0000
0000
0101
0000
0000
0000
1000
0000
0000
0000
,
0131
0100
1000
0000
2002
0100
0010
3103
,
0120
0001
0230
2300
0100
0010
0001
0010
,
3200
0301
0020
0130
2002
3013
0201
2300
,
0100
0001
3020
1000
0230
0001
0310
2001
,
3200
0000
0001
0000
1000
0000
0310
0000
1001
0010
1000
0001
0100
0001
0100
0001
,
1010
0100
0001
1000
0001
0100
0001
0010
1100
0001
0010
1000
0011
0100
0001
1000
,
0011
1000
0001
0100
1010
0001
0010
1000
0220
0000
0330
0022
0000
0033
1002
0000
,
0100
0000
0000
0010
0000
0000
1000
0000
0000
0010
0000
0000
0113
0000
1000
0000
0001
0000
0100
0000
0010
0000
1000
0000
,
0101
0000
0000
0000
0000
0000
0000
0000
0000
0000
0000
0000
0000
0000
0000
0000
1000
0000
0000
0000
0000
0000
0000
0000
0000
0000
0000
0000
0000
0000
0000
0000
0001
0000
0000
0000
0000
0000
0000
0000
0000
0000
0000
0000
0000
0000
0000
0000
1000
0000
0000
0000
0000
0000
0000
0000
0000
0000
0000
0000
0000
0000
0000
0000
0010
0000
0000
0000
0000
0000
0000
0000
0000
0000
0000
0000
0000
0000
0000
0000
0001
0000
0000
0000
0000
0000
0000
0000
0000
0000
0000
0000
0000
0000
0000
0000
0220
0000
0000
0000
0000
0000
0000
0000
0000
0000
0000
0000
0000
0000
0000
0000
0000
0000
0000
0000
0000
0000
0000
0000
1000
0000
0000
0000
0000
0000
0000
0000
0000
0000
0000
0000
0000
0000
0000
0000
0000
0000
0330
0000
0000
0000
0000
0000
0002
0000
0000
0000
0000
0000
0000
0000
0000
0000
0000
0000
0000
0000
0000
0000
0000
0000
0000
0000
0000
0000
0000
0000
0010
0000
0000
0000
0000
0000
0000
0000
0000
0000
0000
0000
0000
0000
0000
0000
0000
0000
0000
0000
0000
0000
0000
0000
,
2003
0100
3020
1000
0032
0010
0203
0320
,
1000
0100
2031
0001
3120
1000
0231
2300
,
0000
0001
3120
0000
2032
0100
0010
3103
,
0020
0000
1000
0000
0230
0000
0301
0000
2200
0000
3300
0000
0220
0330
0022
0000
,
0100
0000
0000
0000
2233
0000
0000
3300
2002
0000
0000
0000
0000
0000
3223
0000
,
0000
0000
0000
0330
2200
0000
3300
0000
0220
0000
0000
0000
0000
0000
0000
0000
,
0000
0000
0000
0000
0000
0000
0000
0000
0000
0000
0000
0000
0000
0000
0000
0000
0000
0000
0000
0000
0000
0300
0000
0000
0100
0000
0000
0000
0001
0000
0000
0000
1000
0030
0000
0000
0010
0000
0000
0000
0100
0000
0000
0000
0001
0000
0000
0000
,
1000
0000
0100
0000
0001
0000
0100
0000
0000
0000
0000
0000
0110
0000
0000
0000
0000
0000
0110
0000
0000
1001
0000
0000
,
0000
0000
0000
0000
0000
0000
0000
0000
0000
0000
0000
0000
0000
0000
0000
0000
0000
0000
0000
0000
0000
0000
0000
0000
0000
0000
0000
0000
0000
0000
0000
0000
0000
0000
0000
0000
0000
0000
0000
0000
0000
0000
0000
0000
0000
0000
0000
0000
1001
0000
0000
0000
0000
0000
0000
0000
0000
0000
0000
0000
0000
0000
0000
0000
0000
0000
0000
0000
0000
0000
0000
0000
0000
0000
0000
0000
0000
0000
0000
0000
0000
0000
0000
0000
0000
0000
0000
0000
0000
0000
0010
0000
0000
0000
0000
0000
0001
0000
0000
0000
0000
0000
0000
0000
0000
0000
0000
0000
0000
0000
0000
0000
0100
0000
0000
0000
0000
0000
0000
0000
0000
0000
0000
0000
0000
0000
0000
0000
0001
0000
0000
0000
0000
0000
0000
0000
0000
0000
0000
0000
0000
0000
0000
0000
0100
0000
0000
0000
0000
0000
0000
0000
0000
0000
0000
0000
0000
0000
0000
0000
0010
0000
0000
0000
0000
0000
0000
0000
2200
0000
0000
0000
0000
0000
0000
0000
0001
0000
0000
0000
0000
0000
0000
0000
0000
0000
0000
0000
0000
0000
0000
0000
,
3310
0100
1000
0022
0000
0033
2002
0000
0000
0000
0000
0000
,
0000
0000
0000
0000
,
0000
0000
3003
0000
,
0000
0000
0000
0000
0000
0000
0000
0000
0010
0000
0000
0010
0000
0000
0000
0000
0000
0000
0000
0000
0000
0000
0000
0000
0000
0000
0000
0000
0000
0000
0000
0000
,
0000
0000
0000
0000
0000
0000
0000
0000
0000
0000
0000
0000
0000
0000
0000
0000
0000
0000
0000
0000
0000
2000
0000
0000
0000
0000
0000
0000
0000
0000
0000
0000
,
0000
0000
0000
0000
0000
0000
0000
0000
0000
0200
0000
0000
0000
0000
0000
0000
,
0000
0000
0000
0000
0000
0000
0000
0000
0000
0000
0000
0000
0000
0000
0000
0000
0300
0020
0000
0000
0000
0000
0000
0000
0000
0000
0000
0000
0000
0000
0000
0000
,
0000
0000
0000
0000
0000
0000
0000
0000
0000
0000
0000
0000
0000
0000
0000
0000
0000
0000
3000
1030
0000
0000
0000
0000
0000
0000
0000
0000
0000
0000
0000
0000
;
