#TITLE:Death Egg Zone;
#SUBTITLE:;
#ARTIST:Sonic 3 & Knuckles;
#TITLETRANSLIT:;
#SUBTITLETRANSLIT:;
#ARTISTTRANSLIT:;
#CREDIT:;
#BANNER:bn.png;
#BACKGROUND:bg.png;
#LYRICSPATH:;
#CDTITLE:cdtitle.png;
#MUSIC:25_-_Death_Egg_Act_1.mp3;
#OFFSET:0.000;
#SAMPLESTART:50.000;
#SAMPLELENGTH:12.000;
#SELECTABLE:YES;
#BPMS:0.000=145.300;
#STOPS:;
#BGCHANGES:;
// cache tags:
#FIRSTBEAT:0.000;
#LASTBEAT:191.750;
#SONGFILENAME:Songs/Hard Songs Megapack Volume 9/Death Egg Zone/deatheggact1.sm;
#HASMUSIC:1;
#HASBANNER:1;
#MUSICLENGTH:89.756;
// end cache tags

//---------------dance-single - ----------------
#NOTES:
     dance-single:
     :
     Challenge:
     13:
     1.000,1.000,1.000,0.000,1.000,724.000,412.000,0.000,0.000,22.000:
1010
1001
1010
1100
0011
0000
0100
0001
1100
1000
1000
1000
0111
1010
0001
0010
,
1100
1000
1010
1000
0101
1000
0111
0110
1000
1000
1010
1000
0101
0010
1000
0000
,
0110
0101
0110
1100
0011
0000
0100
0001
0110
0100
0100
0100
1011
0110
0001
0010
,
1100
0100
0110
0100
1010
0100
1011
1001
0100
0100
0101
0100
1010
0001
1110
0010
,
1000
1000
1000
1000
0011
0100
1010
1010
1001
0010
1001
0001
1010
0100
1010
0011
,
1000
1000
1000
1000
0110
0001
1100
1010
1100
0001
1110
0001
0110
1000
0011
1000
,
0100
0100
0100
0100
0011
1000
0110
0110
0101
1000
0101
0001
0110
1000
0110
0011
,
1100
0101
1100
0100
1010
0001
1010
1000
1100
0011
1100
0000
1001
0100
1001
0001
,
1010
0110
1010
0011
1100
0000
0100
0001
1010
0010
0010
0010
1101
0110
0001
0100
,
1010
0010
0110
0010
0101
1000
0111
1001
0010
0010
1010
0010
1100
0001
1000
0000
,
1001
0101
1001
0011
1100
0000
0100
0010
1001
0001
0001
0001
1010
0110
0001
0100
,
1001
0001
0101
0001
1100
0001
1110
0110
0001
0001
0101
0001
1010
0001
1110
1000
,
0010
0010
0010
0010
0101
1000
0110
0110
0011
1000
0011
0001
0110
1000
0110
0101
,
0010
0010
0010
0010
0101
1000
0011
0110
1010
0100
1011
0100
1001
0010
0101
1000
,
0001
0001
0001
0001
1010
0100
0011
0011
1001
0100
1001
1000
0011
0100
1010
0110
,
1001
0011
1001
0001
1100
0010
1001
0001
0101
1010
0101
0000
0110
1000
0110
0010
,
1001
1000
1001
1000
0110
0100
0110
0110
1001
1000
1001
1000
0011
0010
0011
0011
,
1100
0100
1100
0100
1010
1000
1010
1010
0101
0100
0101
0100
1001
0001
1001
1001
,
1100
1100
0110
0101
1010
0110
1010
1010
0011
0110
1100
0011
0000
0011
0000
0011
,
1001
0110
1001
1000
0101
0000
1001
0000
1010
1000
1100
1010
0001
0010
0000
0000
,
1001
0001
1001
0001
0110
0100
0110
0110
1001
0001
1001
0001
1100
1000
1100
1100
,
0011
0010
0011
0010
1001
0001
1001
1001
0110
0100
0110
0100
1010
1000
1010
1010
,
0101
0101
1001
0011
1100
1001
1010
1010
1001
1010
0101
1010
0000
1010
0000
1010
,
1010
0001
1010
0000
0100
0000
1000
0000
0010
1000
0000
0001
0000
0010
0000
0100
,
1010
1001
1010
1100
0011
0000
0100
0001
1100
1000
1000
1000
0111
1010
0001
0010
,
1100
1000
1010
1000
0101
1000
0111
0110
1000
1000
1010
1000
0101
0010
1000
0000
,
0110
0101
0110
1100
0011
0000
0100
0001
0110
0100
0100
0100
1011
0110
0001
0010
,
1100
0100
0110
0100
1010
0100
1011
1001
0100
0100
0101
0100
1010
0001
1110
0010
,
1000
1000
1000
1000
0011
0100
1010
1010
1001
0010
1001
0001
1010
0100
1010
0011
,
1000
1000
1000
1000
0110
0001
1100
1010
1100
0001
1110
0001
0110
1000
0011
1000
,
0100
0100
0100
0100
0011
1000
0110
0110
0101
1000
0101
0001
0110
1000
0110
0011
,
1100
0101
1100
0100
1010
0001
1010
1000
1100
0011
1100
0000
1001
0100
1001
0001
,
1010
0110
1010
0011
1100
0000
0100
0001
1010
0010
0010
0010
1101
0110
0001
0100
,
1010
0010
0110
0010
0101
1000
0111
1001
0010
0010
1010
0010
1100
0001
1000
0000
,
1001
0101
1001
0011
1100
0000
0100
0010
1001
0001
0001
0001
1010
0110
0001
0100
,
1001
0001
0101
0001
1100
0001
1110
0110
0001
0001
0101
0001
1010
0001
1110
1000
,
0010
0010
0010
0010
0101
1000
0110
0110
0011
1000
0011
0001
0110
1000
0110
0101
,
0010
0010
0010
0010
0101
1000
0011
0110
1010
0100
1011
0100
1001
0010
0101
1000
,
0001
0001
0001
0001
1010
0100
0011
0011
1001
0100
1001
1000
0011
0100
1010
0110
,
1001
0011
1001
0001
1100
0010
1001
0001
0101
1010
0101
0000
0110
1000
0110
0010
,
1001
1000
1001
1000
0110
0100
0110
0110
1001
1000
1001
1000
0011
0010
0011
0011
,
1100
0100
1100
0100
1010
1000
1010
1010
0101
0100
0101
0100
1001
0001
1001
1001
,
1100
1100
0110
0101
1010
0110
1010
1010
0011
0110
1100
0011
0000
0011
0000
0011
,
1001
0110
1001
1000
0101
0000
1001
0000
1010
1000
1100
1010
0001
0010
0000
0000
,
1001
0001
1001
0001
0110
0100
0110
0110
1001
0001
1001
0001
1100
1000
1100
1100
,
0011
0010
0011
0010
1001
0001
1001
1001
0110
0100
0110
0100
1010
1000
1010
1010
,
0101
0101
1001
0011
1100
1001
1010
1010
1001
1010
0101
1010
0000
1010
0000
1010
,
1010
0001
1010
0000
0100
0000
1000
0000
0010
1000
0000
0001
0000
0010
0000
0100
;

//---------------dance-single - pure jacks----------------
#NOTES:
     dance-single:
     pure jacks:
     Hard:
     12:
     1.000,1.000,1.000,0.000,1.000,724.000,316.000,0.000,0.000,0.000:
1000
1000
1000
1000
0011
0000
0100
0001
1100
1000
1000
1000
0101
1010
0001
0010
,
1100
1000
1010
1000
0101
1000
0011
0110
1000
1000
1010
1000
0101
0010
1000
0000
,
0100
0100
0100
0100
0011
0000
0100
0001
0110
0100
0100
0100
1001
0110
0001
0010
,
1100
0100
0110
0100
1010
0100
1010
1001
0100
0100
0101
0100
1010
0001
0110
0010
,
1000
1000
1000
1000
0011
0100
1010
1010
1001
0010
1001
0001
1010
0100
1010
0011
,
1000
1000
1000
1000
0110
0001
1100
1010
1100
0001
1010
0001
0110
1000
0011
1000
,
0100
0100
0100
0100
0011
1000
0110
0110
0101
1000
0101
0001
0110
1000
0110
0011
,
1100
0100
0100
0100
1010
0001
1010
1000
1100
0011
1100
0000
1001
0100
1001
0001
,
0010
0010
0010
0010
1100
0000
0100
0001
1010
0010
0010
0010
1001
0110
0001
0100
,
1010
0010
0110
0010
0101
1000
0101
1001
0010
0010
1010
0010
1100
0001
1000
0000
,
0001
0001
0001
0001
1100
0000
0100
0010
1001
0001
0001
0001
1010
0101
0010
0100
,
1001
0001
0101
0001
1100
0001
1100
0110
0001
0001
0101
0001
1010
0001
1100
1000
,
0010
0010
0010
0010
0101
1000
0110
0110
0011
1000
0011
0001
0110
1000
0110
0101
,
0010
0010
0010
0010
0101
1000
0011
0110
1010
0100
0011
0100
1001
0010
0101
1000
,
0001
0001
0001
0001
1010
0100
0011
0011
1001
0100
1001
1000
0011
0100
1010
0110
,
1001
0001
0001
0001
1100
0010
1001
0001
0101
1010
0101
0000
0110
1000
0110
0010
,
1000
1000
1000
1000
0110
0100
0110
0110
1000
1000
1000
1000
0011
0010
0011
0011
,
0100
0100
0100
0100
1010
1000
1010
1010
0100
0100
0100
0100
1001
0001
1001
1001
,
0110
0110
0100
0100
0010
0010
0010
0010
0011
0110
1100
0011
0000
0011
0000
0011
,
1001
0110
1001
1000
0101
0000
1001
0000
1010
1000
1100
1010
0001
0010
0000
0000
,
0001
0001
0001
0001
0110
0100
0110
0110
0001
0001
0001
0001
1100
1000
1100
1100
,
0010
0010
0010
0010
1001
0001
1001
1001
0100
0100
0100
0100
1010
1000
1010
1010
,
0101
0101
0001
0001
1000
1000
1000
1000
1001
1010
0101
1010
0000
1010
0000
1010
,
1010
0001
1010
0000
0100
0000
1000
0000
0010
1000
0000
0001
0000
0010
0000
0100
,
1000
1000
1000
1000
0011
0000
0100
0001
1100
1000
1000
1000
0101
1010
0001
0010
,
1100
1000
1010
1000
0101
1000
0011
0110
1000
1000
1010
1000
0101
0010
1000
0000
,
0100
0100
0100
0100
0011
0000
0100
0001
0110
0100
0100
0100
1001
0110
0001
0010
,
1100
0100
0110
0100
1010
0100
1010
1001
0100
0100
0101
0100
1010
0001
0110
0010
,
1000
1000
1000
1000
0011
0100
1010
1010
1001
0010
1001
0001
1010
0100
1010
0011
,
1000
1000
1000
1000
0110
0001
1100
1010
1100
0001
1010
0001
0110
1000
0011
1000
,
0100
0100
0100
0100
0011
1000
0110
0110
0101
1000
0101
0001
0110
1000
0110
0011
,
1100
0100
0100
0100
1010
0001
1010
1000
1100
0011
1100
0000
1001
0100
1001
0001
,
0010
0010
0010
0010
1100
0000
0100
0001
1010
0010
0010
0010
1001
0110
0001
0100
,
1010
0010
0110
0010
0101
1000
0101
1001
0010
0010
1010
0010
1100
0001
1000
0000
,
0001
0001
0001
0001
1100
0000
0100
0010
1001
0001
0001
0001
1010
0101
0010
0100
,
1001
0001
0101
0001
1100
0001
1100
0110
0001
0001
0101
0001
1010
0001
1100
1000
,
0010
0010
0010
0010
0101
1000
0110
0110
0011
1000
0011
0001
0110
1000
0110
0101
,
0010
0010
0010
0010
0101
1000
0011
0110
1010
0100
0011
0100
1001
0010
0101
1000
,
0001
0001
0001
0001
1010
0100
0011
0011
1001
0100
1001
1000
0011
0100
1010
0110
,
1001
0001
0001
0001
1100
0010
1001
0001
0101
1010
0101
0000
0110
1000
0110
0010
,
1000
1000
1000
1000
0110
0100
0110
0110
1000
1000
1000
1000
0011
0010
0011
0011
,
0100
0100
0100
0100
1010
1000
1010
1010
0100
0100
0100
0100
1001
0001
1001
1001
,
0110
0110
0100
0100
0010
0010
0010
0010
0011
0110
1100
0011
0000
0011
0000
0011
,
1001
0110
1001
1000
0101
0000
1001
0000
1010
1000
1100
1010
0001
0010
0000
0000
,
0001
0001
0001
0001
0110
0100
0110
0110
0001
0001
0001
0001
1100
1000
1100
1100
,
0010
0010
0010
0010
1001
0001
1001
1001
0100
0100
0100
0100
1010
1000
1010
1010
,
0101
0101
0001
0001
1000
1000
1000
1000
1001
1010
0101
1010
0000
1010
0000
1010
,
1010
0001
1010
0000
0100
0000
1000
0000
0010
1000
0000
0001
0000
0010
0000
0100
;
