#TITLE:Calendar;
#SUBTITLE:;
#ARTIST:t+pazolite;
#TITLETRANSLIT:;
#SUBTITLETRANSLIT:;
#ARTISTTRANSLIT:;
#CREDIT:;
#BANNER:../fthescorept1bn.png;
#BACKGROUND:../fthescorept1bg.png;
#LYRICSPATH:;
#CDTITLE:;
#MUSIC:Calendar.ogg;
#OFFSET:-2.011;
#SAMPLESTART:2.000;
#SAMPLELENGTH:7.540;
#SELECTABLE:YES;
#BPMS:0.000=150.000,22.000=300.000;
#STOPS:;
#BGCHANGES:;
// cache tags:
#FIRSTBEAT:0.000;
#LASTBEAT:173.750;
#SONGFILENAME:Songs/Fuck The Score Part I/Calendar [Dossar]/Calendar.sm;
#HASMUSIC:1;
#HASBANNER:1;
#MUSICLENGTH:42.762;
// end cache tags

//---------------dance-single - ----------------
#NOTES:
     dance-single:
     :
     Hard:
     18:
     1.000,1.000,0.000,0.187,1.000,408.000,0.000,8.000,0.000,0.000:
1000
0100
0010
0001
0010
0001
0010
0001
1000
0100
0010
0001
0010
0001
0010
0001
,
1000
0010
0100
0001
0100
0001
0100
0001
1000
0010
1000
0010
0100
0001
0100
0001
,
1000
0100
0010
0001
0010
0001
0010
0001
1000
0100
0010
0001
0010
0001
0010
0001
,
1000
0010
0100
0001
0100
0001
0100
0001
1000
0010
1000
0010
0100
0001
0100
0001
,
2000
0000
0000
0000
0000
0000
0000
0000
0000
0000
0000
0000
0000
0000
0000
0000
0000
0000
0000
0000
0000
0000
0000
0000
0000
0000
0000
0000
0000
0000
0000
0000
0000
0000
0000
0000
0000
0000
0000
0000
0000
3100
0000
0000
0000
0000
0000
0000
,
0000
0000
0000
0000
1000
0002
0000
0000
,
0000
0000
0000
0000
,
0000
0000
0000
0000
,
0000
0000
0000
0000
,
0000
0000
0000
0000
,
0000
0000
0000
0000
,
0000
0000
0000
0003
1000
0010
0100
0001
,
1000
0000
0100
0000
1000
0000
0001
0100
0001
0000
1000
0000
0010
0000
0100
0000
,
0001
0000
1000
0000
0010
0100
0010
1000
0001
0000
0100
0000
0010
0000
1000
0000
,
0001
0000
1000
0000
0010
0000
0100
0001
0100
0000
0010
0000
1000
0000
0001
0100
,
0001
1000
0010
0100
0002
0000
0000
0000
1003
0000
0100
0000
0010
0000
0001
0000
,
1000
0000
0100
0000
1000
0000
0001
0010
0001
0000
1000
0000
0100
0000
0010
0000
,
0001
0000
1000
0000
0001
0010
0100
1000
0001
0000
0010
0000
0100
0000
0010
0000
,
0001
0000
1000
0000
0100
0000
0010
0001
0010
0000
0100
0000
1000
0000
0001
0010
,
0001
1000
0100
0010
0002
0000
0000
0000
1003
0000
0010
0000
0100
0000
0001
0000
,
1000
0000
0100
0000
1000
0000
0001
0100
0001
0000
1000
0000
0010
0000
0100
0000
,
0001
0000
1000
0000
0010
0100
0010
1000
0001
0000
0100
0000
0010
0000
1000
0000
,
0001
0000
1000
0000
0010
0000
0100
0001
0100
0000
0010
0000
1000
0000
0001
0100
,
0001
1000
0010
0100
0002
0000
0000
0000
1003
0000
0100
0000
0010
0000
0001
0000
,
1000
0000
0100
0000
1000
0000
0001
0010
0001
0000
1000
0000
0100
0000
0010
0000
,
0001
0000
1000
0000
0001
0010
0100
1000
0001
0000
0010
0000
0100
0000
0010
0000
,
0001
0000
1000
0000
0100
0000
0010
0001
0010
0000
0100
0000
1000
0000
0001
0010
,
0001
1000
0100
0010
0002
0000
0000
0000
1003
0000
0010
0000
0100
0000
0001
0000
,
1000
0000
0100
0000
1000
0000
0001
0100
0001
0000
1000
0000
0010
0000
0100
0000
,
0001
0000
1000
0000
0010
0100
0010
1000
0001
0000
0100
0000
0010
0000
1000
0000
,
0001
0000
1000
0000
0010
0000
0100
0001
0100
0000
0010
0000
1000
0000
0001
0100
,
0001
1000
0010
0100
0002
0000
0000
0000
1003
0000
0100
0000
0010
0000
0001
0000
,
1000
0000
0100
0000
1000
0000
0001
0010
0001
0000
1000
0000
0100
0000
0010
0000
,
0001
0000
1000
0000
0001
0010
0100
1000
0001
0000
0010
0000
0100
0000
0010
0000
,
0001
0000
1000
0000
0100
0000
0010
0001
0010
0000
0100
0000
1000
0000
0001
0010
,
0001
1000
0100
0010
0002
0000
0000
0000
1003
0010
0100
0001
1000
0010
1000
0000
,
0001
0100
0010
1000
0001
0100
0001
0000
1000
0010
0100
0001
1000
0001
1000
0000
,
0001
0100
0010
1000
0001
1000
0001
0000
1000
0100
0010
0001
1000
0100
1000
0000
,
0001
0010
0100
1000
0001
0010
0001
0000
1000
0100
0010
0001
1000
0100
1000
0000
,
0001
0010
0100
1000
0001
0010
0001
0000
1000
0010
0100
0001
1000
0010
1000
0000
,
0001
0100
0010
1000
0001
0100
0001
0000
1000
0010
0100
0001
1000
0010
1000
0000
,
0001
0100
0010
1000
0001
0100
0001
0000
1000
0100
0010
0001
1000
0100
1000
0000
,
0001
0010
0100
1000
0001
0010
0001
0000
1000
0100
0010
0001
1000
0100
1000
0000
,
0001
0010
0100
1000
0001
0010
0001
0000
0000
0000
0000
0000
0000
0000
0000
0000
;

//---------------dance-single - ----------------
#NOTES:
     dance-single:
     :
     Challenge:
     24:
     1.000,1.000,0.000,0.187,1.000,424.000,0.000,8.000,0.000,0.000:
1000
0100
0010
0001
0010
0001
0010
0001
1000
0100
0010
0001
0010
0001
0010
0001
,
1000
0010
0100
0001
0100
0001
0100
0001
1000
0010
1000
0010
0100
0001
0100
0001
,
1000
0100
0010
0001
0010
0001
0010
0001
1000
0100
0010
0001
0010
0001
0010
0001
,
1000
0010
0100
0001
0100
0001
0100
0001
1000
0010
1000
0010
0100
0001
0100
0001
,
2000
0000
0000
0000
0000
0000
0000
0000
0000
0000
0000
0000
0000
0000
0000
0000
0000
0000
0000
0000
0000
0000
0000
0000
0000
0000
0000
0000
0000
0000
0000
0000
0000
0000
0000
0000
0000
0000
0000
0000
0000
3100
0000
0000
0000
0000
0000
0000
,
0000
0000
0000
0000
1000
0002
0000
0000
,
0000
0000
0000
0000
,
0000
0000
0000
0000
,
0000
0000
0000
0000
,
0000
0000
0000
0000
,
0000
0000
0000
0000
,
0000
0000
0000
0003
1000
0010
0100
0001
,
1000
0000
0100
0000
1000
0000
0001
0100
0001
0000
1000
0000
0010
0000
0100
0000
,
0001
0000
1000
0000
0010
0100
0010
1000
0001
0000
0100
0000
0010
0000
1000
0000
,
0001
0000
1000
0000
0010
0000
0100
0001
0100
0000
0010
0000
1000
0000
0001
0100
,
0001
1000
0010
0100
0002
0000
0000
0000
1003
0000
0100
0000
0010
0000
0001
0000
,
1000
0000
0100
0000
1000
0000
0001
0010
0001
0000
1000
0000
0100
0000
0010
0000
,
0001
0000
1000
0000
0001
0010
0100
1000
0001
0000
0010
0000
0100
0000
0010
0000
,
0001
0000
1000
0000
0100
0000
0010
0001
0010
0000
0100
0000
1000
0000
0001
0010
,
0001
1000
0100
0010
0002
0000
0000
0000
1003
0000
0010
0000
0100
0000
0001
0000
,
1000
0000
0100
0000
1000
0000
0001
0100
0001
0000
1000
0000
0010
0000
0100
0000
,
0001
0000
1000
0000
0010
0100
0010
1000
0001
0000
0100
0000
0010
0000
1000
0000
,
0001
0000
1000
0000
0010
0000
0100
0001
0100
0000
0010
0000
1000
0000
0001
0100
,
0001
1000
0010
0100
0002
0000
0000
0000
1003
0000
0100
0000
0010
0000
0001
0000
,
1000
0000
0100
0000
1000
0000
0001
0010
0001
0000
1000
0000
0100
0000
0010
0000
,
0001
0000
1000
0000
0001
0010
0100
1000
0001
0000
0010
0000
0100
0000
0010
0000
,
0001
0000
1000
0000
0100
0000
0010
0001
0010
0000
0100
0000
1000
0000
0001
0010
,
0001
1000
0100
0010
0002
0000
0000
0000
1003
0000
0010
0000
0100
0000
0001
0000
,
1000
0000
0100
0000
1000
0000
0001
0100
0001
0000
1000
0000
0010
0000
0100
0000
,
0001
0000
1000
0000
0010
0100
0010
1000
0001
0000
0100
0000
0010
0000
1000
0000
,
0001
0000
1000
0000
0010
0000
0100
0001
0100
0000
0010
0000
1000
0000
0001
0100
,
0001
1000
0010
0100
0002
0000
0000
0000
1003
0000
0100
0000
0010
0000
0001
0000
,
1000
0000
0100
0000
1000
0000
0001
0010
0001
0000
1000
0000
0100
0000
0010
0000
,
0001
0000
1000
0000
0001
0010
0100
1000
0001
0000
0010
0000
0100
0000
0010
0000
,
0001
0000
1000
0000
0100
0000
0010
0001
0010
0000
0100
0000
1000
0000
0001
0010
,
0001
1000
0100
0010
0002
0000
0000
0000
1003
0010
0100
0001
1000
0001
1000
0100
,
1000
0001
0100
0010
1000
0001
0100
0001
1000
0010
1000
0001
0100
0001
1000
0010
,
0100
0001
1000
0010
1000
0001
0100
0001
1000
0001
1000
0100
0010
0001
0010
0100
,
0010
0001
1000
0100
1000
0001
0010
0100
0010
0001
0010
0100
1000
0001
0010
0100
,
0010
0001
1000
0100
1000
0001
0010
0001
1000
0001
0100
0010
0100
0001
1000
0010
,
0100
0001
1000
0010
1000
0001
0100
0001
1000
0010
0100
0001
1000
0010
1000
0001
,
0100
0001
1000
0010
0100
0001
1000
0001
1000
0100
0010
0100
1000
0100
0010
0001
,
1000
0100
1000
0001
0010
0100
1000
0001
0010
0100
0010
0001
0010
0100
1000
0001
,
0010
0100
1000
0001
0010
0001
1000
0001
0000
0000
0000
0000
0000
0000
0000
0000
;
