#TITLE:Quasar;
#SUBTITLE:;
#ARTIST:Outphase;
#TITLETRANSLIT:;
#SUBTITLETRANSLIT:;
#ARTISTTRANSLIT:;
#CREDIT:;
#BANNER:Quasar-bn.png;
#BACKGROUND:Quasar-bg.png;
#LYRICSPATH:;
#CDTITLE:cdtitle.png;
#MUSIC:Quasar.mp3;
#OFFSET:-0.140;
#SAMPLESTART:38.710;
#SAMPLELENGTH:12.000;
#SELECTABLE:YES;
#BPMS:0.000=155.000;
#STOPS:;
#BGCHANGES:;
// cache tags:
#FIRSTBEAT:3.500;
#LASTBEAT:308.000;
#SONGFILENAME:Songs/new cc/Quasar/Quasar.sm;
#HASMUSIC:1;
#HASBANNER:1;
#MUSICLENGTH:126.281;
// end cache tags

//---------------dance-single - ----------------
#NOTES:
     dance-single:
     :
     Challenge:
     10:
     0.988,1.000,0.230,0.000,1.000,844.000,29.000,0.000,0.000,0.000:

0000
0000
0000
0000
0000
0000
0000
0100
,
0100
0100
0100
0100
,
0100
0100
0100
0100
,
0100
0000
0010
0000
1000
0000
1000
0010
,
0100
0000
0000
0000
0100
0000
0001
1000
0010
0000
0001
0000
1000
0000
0010
0000
,
0101
1000
0010
1000
0110
1000
0001
0010
,
1100
0001
0100
0001
1010
0100
0001
0010
,
0100
0010
1000
0001
0100
0001
0010
0100
,
0001
1000
0100
0010
1000
0100
0010
1000
,
0101
0010
0100
0001
1100
0010
0001
0100
,
1010
0001
0100
1000
0011
0100
0010
1000
,
0001
0100
0001
0100
1000
0110
0001
0100
,
1010
0100
0010
1001
0010
1100
0010
0101
,
0010
1000
0010
0001
0010
0001
0100
0010
1000
0010
0100
0001
0100
0010
1000
0100
,
0010
1000
0001
0100
0010
1000
0001
0100
0010
0001
1000
0100
0001
1000
0010
0001
,
1000
0100
1000
0001
0100
0001
0100
1000
0010
0100
0001
0010
0001
0100
0010
1000
,
0100
1000
0001
0100
0010
1000
0010
0100
0001
0100
0010
1000
0010
0100
1000
0100
,
0010
0001
0100
0001
1000
0010
0100
0001
0100
1000
0010
1000
0010
0100
0001
0010
,
0100
1000
0010
0100
0001
1000
0100
0010
1000
0001
0100
0010
0100
1000
0001
0100
,
0010
0100
0001
0100
1000
0010
0100
0001
0010
0100
1000
0100
0001
0100
0010
1000
,
0010
0100
0001
0100
1000
0000
0010
0100
0001
0010
0100
0000
0100
0010
1000
0001
,
0100
0010
1000
0010
0100
0000
0100
0010
1000
0001
0100
0000
0100
0000
0010
0000
,
0100
0001
0010
0100
1000
0000
0001
1000
0100
1000
0010
0000
0010
0100
0001
1000
,
0010
0001
0100
0010
1000
0000
0001
0100
0010
1000
0001
0000
0010
0000
0100
0000
,
0010
0100
0001
0100
1000
0000
0010
1000
0010
0100
0001
0000
0001
0010
0100
1000
,
0001
0100
0010
1000
0010
0000
0100
0010
1000
0001
0100
0000
1000
0000
0010
0000
,
1000
0001
0100
0010
1000
0000
0001
0010
0100
1000
0010
0000
0100
0001
1000
0100
,
0010
0001
0010
1000
0100
0000
0001
0100
1000
0010
0100
0000
0001
0010
0100
1000
,
0001
0000
0000
0000
,
0110
0000
0011
0000
,
1010
0000
1100
0000
,
1001
0000
0110
0000
,
1100
0000
0110
0000
,
0011
0000
0101
0000
,
1010
0000
1100
0000
,
0101
0000
1001
0000
,
0110
0000
1001
0000
,
1000
0001
1000
0010
0100
0001
0100
0010
1000
0100
0001
1000
0010
0100
0001
0010
,
0100
0001
1000
0100
1000
0010
0001
0100
0010
1000
0100
0010
0001
0010
0100
0001
,
1000
0010
0100
0001
0010
0001
0100
0010
1000
0100
0001
1000
0010
1000
0001
0100
,
0010
1000
0010
0100
0001
0100
1000
0010
0100
0001
1000
0100
0010
0001
0010
0100
,
1000
0100
0010
0001
0100
0010
1000
0001
0010
0001
0100
0010
1000
0010
0100
0001
,
0100
1000
0010
1000
0001
0010
0100
0001
1000
0010
1000
0100
0001
1000
0010
1000
,
0001
0010
0100
0001
1000
0010
0100
0001
0100
0010
1000
0001
0010
1000
0001
0100
,
0010
1000
0100
0001
1000
0010
1000
0001
0010
0100
0001
0100
0010
1000
0100
1000
,
0010
0100
0001
0010
0001
0100
0010
1000
0100
0001
1000
0010
0100
0001
0010
0001
,
0100
0010
1000
0100
1000
0001
0100
0010
1000
0010
0100
0001
0100
0010
0100
0001
,
0100
1000
0010
0100
0001
0100
0010
1000
0001
0100
1000
0001
0100
0010
1000
0010
,
0001
0100
0010
1000
0100
0010
0001
0010
0001
0100
0010
1000
0010
0100
0001
0010
,
0100
1000
0100
1000
0100
0010
0001
0100
0010
1000
0001
0100
0010
1000
0001
0010
,
0001
0100
0010
1000
0001
0100
1000
0010
0100
0001
0100
0010
1000
0001
0010
0001
,
0100
0010
1000
0100
0010
0001
0010
0100
0001
0100
0010
1000
0001
0010
0001
0100
,
0010
1000
0100
0001
0010
0001
0100
0010
1000
0100
0001
1000
0010
0100
0001
0010
,
0001
0100
0010
1000
0001
0010
0100
1000
0001
0100
0010
1000
0001
0100
0010
1000
,
0001
0100
0010
1000
0010
0100
0001
0100
0001
1000
0010
0100
0001
1000
0010
0100
,
1000
0100
0010
0001
0100
0010
1000
0100
0001
0100
0010
1000
0001
0100
0010
1000
,
0100
0010
0001
0010
0001
0100
0001
0100
0010
1000
0001
1000
0001
0010
0100
1000
,
0001
1000
0100
0010
0001
1000
0001
0010
1000
0001
0100
0010
1000
0100
0001
1000
,
0010
1000
0001
0010
0100
1000
0100
0010
0001
0100
0010
1000
0001
1000
0001
0100
,
0010
1000
0001
1000
0010
0100
0010
0100
0001
0010
0100
1000
0001
1000
0001
1000
,
0100
0010
0001
0100
0010
1000
0001
0010
0001
0100
0010
1000
0010
0100
0001
0100
,
0001
1000
0010
0100
0001
0010
0001
0100
0010
1000
0100
0001
1000
0010
1000
0001
,
0010
1000
0001
0100
0001
1000
0010
0100
0001
1000
0001
0100
0010
1000
0100
0010
,
0001
1000
0001
1000
0010
1000
0010
0100
0001
1000
0010
0100
0001
1000
0001
0010
,
0100
0001
1000
0100
0010
1000
0001
1000
0100
0010
1000
0001
0010
0100
1000
0010
,
0100
0001
0010
0100
1000
0100
0010
0001
1000
0001
1000
0001
0010
0100
0001
1000
,
0010
0100
0001
1000
0001
0100
0010
1000
0010
0100
0001
0010
0100
1000
0100
0010
,
0001
0100
0010
1000
0001
1000
0100
0010
1000
0001
0100
0001
1000
0010
1000
0010
,
0100
0001
0010
0100
1000
0001
0010
0100
0001
0100
0010
0001
1000
0100
0010
0001
,
0000
0000
0000
0000
,
0000
0000
0000
0000
,
0010
0000
0001
0000
,
0100
0000
0001
0000
,
1000
0000
0100
0000
,
0010
0000
0001
0000
,
1000
0000
0000
0000
,
0100
0000
0000
0000
,
0010
0000
0000
0000
;
